#TITLE:ミックスナッツ;
#SUBTITLE:TVアニメ「SPY×FAMILY」;
#ARTIST:Official髭男dism;
#TITLETRANSLIT:Mixed Nuts;
#SUBTITLETRANSLIT:TV Anime「SPY×FAMILY」;
#ARTISTTRANSLIT:Official HIGE DANdism;
#GENRE:アニメ;
#MUSIC:Mixed Nuts.ogg;
#BANNER:Mixed Nuts.png;
#BACKGROUND:Mixed Nuts-bg.png;
#CDTITLE:./CDTitles/jubeat Ave.png;
#SAMPLESTART:51.001;
#SAMPLELENGTH:15.000;
#SELECTABLE:YES;
#OFFSET:0.999;
#BPMS:0.000=150.000;
#STOPS:;
#BGCHANGES:2.500=Mixed Nuts.avi=1.000=0=0=0=StretchNoLoop====,
99999.000=-nosongbg-=1.000=0=0=0=StretchNoLoop====
;
#FGCHANGES:;

//--------------- dance-single - ----------------
#NOTES:
     dance-single:
     :
     Beginner:
     2:
     0,0,0,0,0:
0000
0000
0000
0000
,
0000
0000
0000
0000
,
0000
0000
0000
0000
,
0000
0000
0000
0000
,
0000
0000
0000
0000
,
1000
0000
0000
0000
,
0001
0000
0000
0000
,
0100
0000
0000
0000
,
0010
0000
0000
0000
,
1000
0000
0000
0000
,
0001
0000
0010
0000
,
0100
0000
0000
0000
,
1000
0000
0000
0000
,
0001
0000
0010
0000
,
0100
0010
0100
0000
,
1000
0000
0000
0000
,
0001
0000
0000
0000
,
0010
0000
0000
0000
,
0100
0000
0000
0000
,
1000
0000
0001
0000
,
0010
0000
0100
0000
,
1000
0000
0001
0000
,
0010
0100
0010
0000
,
1000
0000
0000
0000
,
0001
0000
0000
0000
,
0010
0000
0100
0000
,
1000
0001
1000
0000
,
0010
0000
0000
0000
,
1000
0000
0000
0000
,
0001
0000
0000
0000
,
0010
0000
0000
0000
,
0100
0000
0000
0000
,
0010
0000
0000
0000
,
1001
0000
0000
0000
,
0100
0000
0000
0000
,
0010
0000
0000
0000
,
0001
0000
0000
0000
,
1000
0000
0000
0000
,
0001
0000
0000
0000
,
0010
0000
0100
0000
,
1000
0000
0000
0000
,
0001
0000
1000
0000
,
0001
0000
0000
0000
,
0010
0000
0100
0000
,
0010
0000
0000
0000
,
1000
0000
0001
0000
,
0100
0000
0010
0000
,
1000
0000
0001
0000
,
0010
0100
0010
0000
,
1000
0000
0000
0000
,
0001
0000
0000
0000
,
0010
0000
0000
0000
,
0100
1000
0001
0000
,
0010
0000
1000
0000
,
0001
0000
0000
1001
;

//--------------- dance-single - ----------------
#NOTES:
     dance-single:
     :
     Easy:
     5:
     0,0,0,0,0:
0000
0000
0000
0000
,
0000
0000
0000
0000
,
0000
0000
0000
0000
,
0000
0000
0000
0000
,
0000
0000
0000
0000
,
0010
0000
1000
0000
,
0001
0000
0010
0000
,
0100
0000
0000
0000
,
1000
0001
0010
0000
,
0010
0000
0000
0000
,
1000
0001
0010
0100
,
1000
0000
0001
0000
,
0010
0100
1000
0000
,
0001
1000
0001
0000
0000
0000
0000
0000
,
0010
0000
0100
0000
,
1000
0000
0001
0000
,
0010
0100
0010
0000
,
0200
0000
0300
0000
,
0020
0000
0030
0000
,
0100
0000
0000
0000
,
0001
0010
0100
0000
,
1000
0000
0000
0000
,
0001
0000
0000
0000
,
0010
0000
0100
0000
,
1000
0000
0001
0000
,
0010
0000
0100
0000
,
1000
0100
0010
0000
,
0001
1000
0001
0000
,
0100
0010
0100
0000
,
1000
0100
0010
0001
,
2000
0000
0002
0000
,
3003
0000
0110
0000
,
1000
0000
0000
0000
,
1001
0100
0010
0100
,
1000
0000
0001
0010
,
0001
0000
1000
0000
,
0010
0000
0100
0010
,
1000
0001
0100
0000
,
0010
0100
0001
0000
,
1000
1000
0001
0001
,
0010
0000
0100
0010
,
1001
0000
0100
0010
,
1000
0001
0010
0000
,
0100
0010
1000
0000
,
0001
0100
0010
0000
,
1000
0000
0001
0000
,
0010
0100
1000
0000
,
0001
0000
1000
0000
,
0010
0000
0100
0000
,
0010
0000
1000
0000
,
0001
0000
0100
0000
,
0010
0000
1000
0000
,
0001
0000
1000
0000
,
0001
0000
0000
0000
,
0000
0000
0000
0110
;

//--------------- dance-single - ----------------
#NOTES:
     dance-single:
     :
     Medium:
     7:
     0,0,0,0,0:
0000
0000
0000
0000
,
0000
0000
0000
0000
,
0000
0000
0000
0000
,
0000
0000
0000
0000
,
0000
0000
0000
0000
,
0001
0000
1000
0000
,
0001
0000
0010
0000
,
0100
0000
1000
0000
,
0001
0010
0100
0000
,
0001
1000
0001
0000
,
0010
0100
0010
0000
,
1000
0000
0001
0000
,
0100
1000
0001
0000
,
0010
0100
1000
0000
,
0001
0010
0100
0000
,
1000
0001
0100
0010
,
0100
0000
1000
0000
,
0001
1000
0001
0100
,
0010
1000
0001
0000
,
0010
0000
0100
0000
,
0001
1000
0001
0000
,
0010
0000
0100
0000
,
0010
0100
1000
0000
,
0001
0010
0100
0000
,
1000
0100
0010
0000
,
0001
0000
1000
0000
,
0002
0000
0003
0000
,
1000
0000
0010
0000
,
0100
0000
0001
0000
,
0001
0010
0001
0000
,
1000
0100
1000
0000
,
2000
0000
0000
3000
,
1001
0000
0000
0000
,
0010
0100
1000
0000
,
0001
1000
0001
0000
,
0010
0100
0001
1000
,
0001
0010
0100
0010
,
0001
0000
1000
0000
,
0010
0000
0100
0000
,
0001
0010
0100
1000
,
0001
0001
1000
0000
,
1001
0100
0010
0100
,
1000
0001
0010
0100
,
0001
1000
0001
0100
,
0010
0100
0001
1000
,
0001
0000
0100
0000
,
1000
0001
0100
0000
,
0010
0001
1000
0001
,
0010
0100
0001
1000
,
1001
0000
0100
0000
,
0010
0001
1000
0000
,
0010
0000
0100
0000
,
1000
0001
0010
0100
,
2002
0000
0000
0000
,
3003
0000
0000
0110
;

//--------------- dance-single - ----------------
#NOTES:
     dance-single:
     :
     Hard:
     11:
     0,0,0,0,0:
0000
0000
0000
0000
,
0000
0000
0000
0000
,
0000
0000
0000
0000
,
0000
0000
0000
0000
,
0000
0000
0000
0000
,
1000
0100
0001
0010
,
0100
0001
1000
0001
,
0100
0010
0100
0010
,
1000
0010
0001
1000
,
0001
0100
0010
0100
,
0010
0000
1000
0000
0001
0010
0100
1000
,
0001
0100
0010
0100
,
0001
0000
1000
0000
0010
0000
0100
1000
,
0001
0000
0100
0010
0100
0000
1000
0000
,
0001
0100
0010
0001
1000
0000
0001
0000
,
0010
0100
0001
1000
,
0001
0100
0010
0001
1000
0000
0001
0000
,
0020
0000
1030
0000
,
0020
0000
0000
0000
0000
0000
0000
0000
0000
0000
0000
0000
0000
0000
0000
0000
0000
0000
0000
0000
0000
0000
0000
0000
0000
0000
0000
0000
0000
0000
0000
0000
0000
0000
0000
0000
0000
0000
0000
0000
0000
0000
0000
0000
0000
0000
0000
0000
0000
0000
0000
0000
0000
0000
0000
0000
0000
0000
0000
0000
0000
0000
0000
0000
0000
0000
0000
0000
0000
0000
0000
0000
0000
0000
0000
0000
0000
0000
0000
0000
0000
0000
0000
0000
0000
0000
0000
0000
0000
0000
0000
0000
0000
0000
0000
0000
0001
0030
0000
0000
0000
0000
0000
0000
0000
0000
0000
0000
0000
0000
0000
0000
0000
0000
0000
0000
0000
0000
0000
0000
0000
0000
0000
0000
0000
0000
0000
0000
0000
0000
0000
0000
0000
0000
0000
0000
0000
0000
0000
0000
0000
0000
0000
0000
0000
0000
0000
0000
0000
0000
0000
0000
0000
0000
0000
0000
0000
0000
0000
0000
0000
0000
0000
0000
0000
0000
0000
0000
0000
0000
0000
0000
0000
0000
0000
0000
0000
0000
0000
0000
0000
0000
0000
0000
0000
0000
0000
0000
0000
0000
0000
0000
,
1000
0001
0010
0100
,
0001
1000
0010
0000
,
0100
1000
0001
0100
,
0010
0100
0010
0000
,
1000
0001
0100
0010
,
0100
0001
0010
0100
,
0001
1000
0100
0010
,
0100
1000
0001
0010
,
0100
0010
0100
0001
,
0010
0100
0010
1000
,
0001
1000
0001
0000
0100
0010
0001
0000
,
0010
0100
1000
0001
,
0020
0000
0000
0200
0000
0000
0000
0000
,
0330
0000
0001
0010
,
1001
0000
0100
0001
0010
0000
0100
0000
,
1000
0001
0100
0000
0010
0000
1000
0000
,
0001
0100
0010
0000
0100
0000
0001
0000
,
1000
0001
0100
0010
0001
0000
0010
0000
,
0100
1000
0001
0000
0100
0000
0010
0000
,
0001
1000
0001
0100
0010
0000
0100
0000
,
1000
0001
0010
0000
0100
1000
0001
0000
,
0100
0000
0010
0000
0100
1000
0001
0010
,
0100
1000
0001
0100
,
0010
1000
0001
0100
,
0010
1000
0001
0000
0100
0000
0010
0000
,
0100
0010
0001
0000
0010
0000
0100
0000
,
1000
0001
0100
0000
0010
0000
0100
0000
,
1000
0001
0100
0000
0010
0000
0100
0000
,
1000
0001
0010
0000
0100
0001
0010
0000
,
0100
1000
0001
0100
,
0010
1000
0001
0100
,
0010
0100
1000
0001
,
0100
0010
0100
1000
,
0002
0000
2003
0000
,
0002
0000
0000
0000
,
3003
0000
0000
1001
;
