#TITLE:盈月;
#ARTIST:いとおか式,Hideki Sakamoto by NAMCO Sound Team "Taku Inoue";
#TITLETRANSLIT:Mitsuki;
#ARTISTTRANSLIT:Itokashiki,Hideki Sakamoto by NAMCO Sound Team "Taku Inoue";
#GENRE:miHoYo×SEGA 2021真夏の歌合戦5番勝負;
#MUSIC:Mitsuki.ogg;
#BANNER:Mitsuki.png;
#BACKGROUND:Mitsuki-bg.png;
#CDTITLE:./CDTitles/NSD A3.png;
#SAMPLESTART:83.364;
#SAMPLELENGTH:15.000;
#SELECTABLE:YES;
#OFFSET:0.000;
#BPMS:0.000=95.000
,20.000=190.000
,35.000=760.000
,36.000=190.000
,51.000=760.000
,52.000=190.000
,116.000=95.000
,148.000=190.000
;
#STOPS:35.000=0.238
,51.000=0.238
;
#DISPLAYBPM:95.000:190.000;
#BGCHANGES:;
#FGCHANGES:;

//--------------- dance-single - ----------------
#NOTES:
     dance-single:
     :
     Beginner:
     3:
     0,0,0,0,0:
0000
0000
0000
0000
,
0000
0000
0000
0000
,
0000
0000
0000
0000
,
0001
0000
0010
0000
,
1000
0000
0001
0000
,
0100
0000
0000
0000
,
1000
0000
0001
0000
,
0010
0000
0000
0000
,
0100
0000
1000
0000
,
0001
0000
0000
0000
,
0010
0000
0100
0000
,
0010
0000
0000
0000
,
0001
0000
1000
0000
,
0001
0000
0000
0000
,
0100
0000
0000
0000
,
0010
0000
0000
0000
,
0001
0000
1000
0000
,
0001
0000
0000
0000
,
0100
0000
0010
0000
,
0100
0000
0000
0000
,
1000
0000
0001
0000
,
0010
0000
0000
0000
,
0100
0000
0010
0000
,
1000
0000
0000
0000
,
0001
0000
1000
0000
,
0001
0000
0000
0000
,
0100
0000
0010
0000
,
2000
0000
0000
0000
,
3001
0000
0000
0000
,
0010
0000
0100
0000
,
1000
0000
0001
0000
,
0010
0000
0100
0000
,
0010
0000
1000
0000
,
0010
0000
0001
0000
,
0010
0000
1000
0000
,
0001
0000
0010
0000
,
0100
0000
0010
0000
,
0001
0000
0000
0000
,
1000
0000
0000
0000
,
0010
0000
0000
0000
,
0100
0000
0000
0000
,
0001
0000
0000
0000
,
1000
0000
0000
0000
,
0001
0000
0000
0000
,
0100
0000
0000
0000
,
1000
0000
0001
0000
,
0100
0000
0000
0000
,
0010
0000
0100
0000
,
0010
0000
0000
0000
,
0001
0000
1000
0000
,
0001
0000
0000
0000
,
0010
0000
0100
0000
,
1000
0001
0100
0000
,
1001
0000
0000
0000
,
0100
0000
0000
0000
,
0001
0000
0000
0000
,
1000
0000
0001
0000
,
0010
0000
0000
0000
,
0100
0000
0001
0000
,
1000
0000
0000
0000
,
0001
0000
0000
0000
,
0010
0000
0100
0000
,
0010
0000
0000
0000
,
1000
0000
0001
0000
,
0010
0000
0000
0000
,
0010
0000
1000
0000
,
0001
0000
0000
0000
,
0010
0000
0000
0000
,
1000
0000
0000
0000
,
0001
0000
0000
0000
,
0100
0000
0000
0000
,
0010
0000
0000
0000
,
1000
0000
0000
0000
,
0001
0000
0000
0000
,
0010
0000
0000
0000
,
0100
0000
0000
0000
,
1000
0000
0001
0000
,
1001
0000
0000
0000
;

//--------------- dance-single - ----------------
#NOTES:
     dance-single:
     :
     Easy:
     7:
     0,0,0,0,0:
0000
0000
0000
0000
,
0000
0000
0000
0000
,
0000
0000
0000
0000
,
0001
1000
0010
0000
0010
0100
0010
0000
,
1000
0001
0100
0000
0010
0000
0100
0000
,
1000
0001
0100
0010
,
0100
0001
1000
0001
,
0100
0010
1000
0001
,
0100
0010
1000
0001
,
0100
0010
1000
0001
,
0100
0010
0100
0001
,
1000
0001
0100
0010
,
0100
0010
1000
0001
,
1000
0100
0010
0001
,
0010
0000
0100
0000
1000
0001
0000
1000
,
0000
0100
0000
0001
0000
0010
0000
0001
,
0100
0001
0100
0001
,
0010
0100
0010
0001
,
0010
0000
0100
0000
1000
0100
0000
0010
,
0000
0100
0000
0001
0000
0010
0000
1000
,
0010
0001
0100
0001
,
0010
0100
1000
0100
,
0010
0000
0001
1000
0000
0001
0000
0010
,
0000
0100
0000
0001
0000
1000
0000
0001
,
0010
0100
0010
1000
,
0010
1000
0001
1000
,
0100
0000
0010
1000
0000
0001
0010
0100
,
2000
0000
0010
0000
,
3001
0010
0100
0001
,
2000
3000
0002
0003
,
0200
0000
0300
0000
0002
0000
0003
2000
,
3002
0003
2000
3000
,
0020
0000
0030
0000
0002
0000
0003
0010
,
1000
0000
0001
0000
0100
0000
0010
0100
,
0001
0000
1000
0000
0001
0100
0010
2000
,
3001
0100
0001
0000
1000
0001
0100
0000
,
0010
0100
0001
0000
0100
1000
0001
0100
,
0100
1000
0001
0010
,
0100
1000
0100
1000
,
0100
0010
0001
0010
,
0001
1000
0100
1000
,
0010
1000
0001
0100
,
0001
0100
0010
1000
,
0010
0100
0001
1000
,
0100
0010
0001
0020
,
1030
0010
1000
0010
,
0100
0000
0010
1000
0000
0001
0000
0110
,
0000
0001
0000
1010
0000
0101
0000
0010
,
0100
1000
0100
1000
,
0001
0100
0010
0100
,
0001
0000
1000
0100
0000
0011
0000
0100
,
0000
1100
0000
0100
0000
0010
0000
1001
,
0010
0100
0001
0010
,
0100
0010
0001
0010
,
0100
1000
0010
0100
,
0001
0010
0100
1000
,
0010
1000
0100
1000
,
0100
0010
0001
0100
,
0001
0100
0001
0010
,
0100
1000
0010
1000
,
0010
1000
0001
0010
,
0001
0100
0001
0100
,
0010
1000
0100
0010
,
0100
0010
0100
1000
,
0010
0100
0010
0100
,
0010
1000
0100
1000
,
0100
1000
0010
0100
,
0020
0000
0030
0000
,
2000
0000
3000
0000
,
0001
0000
0100
0000
,
0010
0000
0100
0000
,
1000
0001
0100
0000
,
0010
0100
0010
0000
,
1000
0000
0001
0000
,
0100
0010
1000
0000
,
0001
0000
0100
0000
,
1000
0000
0001
0000
,
1001
0000
0000
0000
;

//--------------- dance-single - ----------------
#NOTES:
     dance-single:
     :
     Medium:
     11:
     0,0,0,0,0:
0000
0000
0000
0000
,
0000
0000
0000
0000
,
0000
0000
0000
0000
,
0001
0010
0100
0000
1000
0001
0100
0000
,
0010
1000
0001
0000
0100
0010
0100
1000
,
0001
0100
0010
1000
,
0001
0010
0100
0000
0001
0000
1000
0000
,
0001
0100
0010
0100
,
1000
0001
0100
0000
0010
0000
0100
0000
,
0001
1000
0001
0000
0010
0000
0100
0000
,
0001
1000
0001
0000
0100
0000
0010
0000
,
1000
0000
0010
0000
0100
0001
1000
0000
,
0001
0100
0010
0000
1000
0000
0001
0000
,
0010
0100
1001
0010
,
0100
0001
1000
0001
,
0010
0100
1001
0100
,
0010
1000
0001
0010
,
0001
0010
0100
1001
,
0010
0000
0100
0000
1000
0000
0001
0100
,
0000
0001
0000
0010
0000
1000
0001
0010
,
0100
0000
1000
0000
0010
0001
0100
0010
,
1000
0000
0001
0010
0100
0001
0100
0000
,
1000
0000
0001
0100
0010
1000
0000
0001
,
0000
1000
0000
0010
0000
1000
0000
0001
,
1000
0010
0100
0001
0010
0100
1000
0100
,
0001
0010
0100
1001
,
0010
0000
0100
0000
1000
0000
0001
0100
,
1000
0010
0001
0010
0100
1000
0001
0010
,
0100
0000
1000
0000
0010
0001
0100
0010
,
2000
3000
0002
0003
,
0200
0000
0300
0000
0020
0000
0030
2000
,
3200
0300
0002
0003
,
0020
0000
0000
0000
0030
0000
0000
0000
0200
0000
0000
0000
0310
0000
0001
1000
,
0010
0100
1000
0001
0010
0100
0001
1000
,
0001
0100
0010
0100
1000
0001
0010
0200
,
1300
0001
0010
0100
0001
1000
0001
0100
,
0010
0100
1000
0001
0100
0010
0100
1000
,
0001
0000
1000
0000
0001
0000
0000
0100
,
0000
1000
0010
0001
0100
0000
1000
0000
,
0010
0000
0100
0000
0001
0000
0000
1000
,
0000
0001
0010
1000
0001
0000
0010
0000
,
0100
0000
0001
0000
0010
0000
0001
1000
,
0000
0001
0010
0000
0100
0001
1000
0001
,
0010
0000
0100
0000
0001
0000
0010
0100
,
0000
0001
0010
0000
0100
1000
0002
0000
,
1003
0000
0010
0000
0001
0000
0100
0001
,
0000
0010
0100
0000
0001
0010
0000
0100
,
0001
0000
1000
0000
0001
0000
0010
1000
,
0100
0000
0001
0000
0010
0100
0001
0000
,
1000
0001
0000
0100
0010
0000
0100
1000
,
0000
0001
0010
0000
0100
0001
0000
1000
,
0001
0000
0100
0010
0000
0001
1000
0000
,
0010
0100
1000
0001
0010
0000
1000
0000
,
1001
0001
0010
0100
,
0010
0000
0100
0001
1000
0000
0001
0000
,
0010
0001
0010
0001
,
0100
0000
0010
0001
0100
0000
0001
0010
,
0100
0010
1000
0001
,
0100
0000
0010
0001
1000
0000
0010
0000
,
0100
0000
0010
0000
0100
1000
0001
0000
,
1000
0000
0010
0001
0100
0000
0001
0000
,
0100
0000
0010
1000
0100
0000
0001
0000
,
1000
0000
0100
0010
1000
0000
0100
0000
,
0010
0000
0001
0010
0100
0000
0010
0000
,
0100
1000
0001
0100
0010
0000
0001
0000
,
1000
0000
0001
1000
0010
0000
0100
0000
,
1000
0000
0100
0001
1000
0000
0001
0000
,
0010
0000
0000
0001
0000
0000
0010
0000
1000
0000
0000
0000
0020
0000
0000
0000
,
0130
0000
0000
1000
0000
0000
0010
0000
0001
0000
0000
0000
0200
0000
0000
0000
,
0310
0100
0010
0001
,
0100
0000
0010
0000
0100
0000
0001
1000
,
0010
0000
0001
0000
0010
0001
0100
0000
,
1000
0001
0100
0000
0010
1000
0001
0000
,
0100
0000
0001
0000
1000
0100
0001
0000
,
0100
0000
0010
0001
0100
0000
0010
0000
,
0100
0010
0001
0000
1000
0000
0001
0000
,
1000
0100
0010
0000
1000
0000
0001
0000
,
2002
0000
0000
0000
,
3003
0000
0000
0000
;

//--------------- dance-single - ----------------
#NOTES:
     dance-single:
     :
     Hard:
     14:
     0,0,0,0,0:
0000
0000
0000
0000
,
0000
0000
0000
0000
,
0000
0000
0000
0000
,
0001
0010
0100
0000
1000
0001
0100
0000
,
0010
1000
0001
0000
0200
0000
0320
0000
,
0130
1000
0100
0001
0010
0000
1000
0100
,
0001
0010
0100
1000
0000
0001
0010
1000
,
0100
1000
0001
0100
1000
0000
0001
0010
,
0100
0000
1000
0000
0001
0010
0100
0000
,
1000
0000
0001
0010
1000
0000
0010
0100
,
1000
0010
0001
0100
0000
1000
0001
0010
,
0100
0000
0010
0100
0001
0000
1000
0010
,
0001
0000
0110
0000
1000
0001
0100
0000
,
0100
0010
0001
0100
0010
1000
0001
0100
,
0010
0100
0010
0100
0001
0010
0000
1001
,
0000
0100
0001
0100
0010
1000
0010
0100
,
0001
0100
0010
0100
0010
1000
0002
0000
,
1003
0000
0010
0100
0010
0100
0001
1000
,
0100
0010
0100
1000
0000
1001
0000
0101
,
0000
1001
0000
0110
0000
1100
0000
0001
,
0010
0000
0000
0000
1001
0000
0000
0000
0100
0000
1000
0000
0001
0000
0100
0010
,
0001
1000
0001
0010
0001
1000
0100
1000
,
0010
0100
0010
1000
0000
0101
0000
1010
,
0000
0110
0000
1001
0000
1010
0000
1001
,
0100
0000
0001
0010
1000
0010
1000
0001
,
0200
0000
0310
1000
0001
0010
0100
1000
,
0002
0000
1003
0100
0010
1000
0001
0010
,
0010
1000
0001
1000
0001
0010
0001
0010
,
2000
0000
0000
0000
,
3002
0003
1020
0030
,
0201
0000
0300
0000
2010
0000
3000
1002
,
0123
0030
0201
0300
,
1020
0000
0000
0000
0030
0000
0000
0000
0110
0000
0000
0000
1000
0010
0001
0100
,
0001
0010
0001
0010
0002
0000
0000
0000
1003
0010
0100
1000
0200
0000
0000
0000
,
0310
0001
0010
0100
2000
0000
0001
0000
3010
0100
0010
0001
2000
0000
3002
0000
,
0013
0100
1000
0001
0200
0000
0000
0000
0310
0001
0010
0100
2000
0000
0000
0000
,
3010
0001
0100
0001
0010
0000
1000
0001
0100
0010
0001
1000
0010
0000
1000
0000
,
0001
0100
0010
0000
1000
0001
0100
0000
,
1000
0001
0010
0000
0100
0001
1000
0000
,
0001
0010
0100
0000
0010
1000
0001
0000
,
0001
1000
0000
0010
0000
0000
0001
0000
1000
0000
0000
0000
0010
0000
0000
0000
,
1000
0010
0100
0000
0001
1000
0010
0000
,
0001
1000
0100
0000
0010
1000
0001
0000
,
1000
0100
0010
0000
0100
0001
1000
0000
,
1000
0001
0000
0100
0000
0000
1000
0000
0001
0000
0000
0000
0100
0000
0000
0000
,
0001
0100
0010
0000
1000
0001
0100
0000
,
1000
0001
0010
0000
0100
0001
1000
0000
,
0001
0010
0100
0000
0010
1000
0001
0000
,
0001
1000
0000
0010
0000
0000
0001
0000
1000
0000
0000
0000
0010
0000
0000
0000
,
1000
0010
0100
0000
0001
1000
0010
0000
,
0001
1000
0100
0000
0010
1000
0001
0000
,
1000
0100
0010
0000
0100
0001
1000
0000
,
1000
0001
0000
0100
0000
0000
1000
0000
0001
0000
0000
0000
2002
3003
0000
0000
,
0100
0001
0010
0100
1000
0100
0010
0001
,
0100
0001
1000
0010
1000
0001
1000
0010
,
0100
0010
0100
0001
0010
0001
0010
0001
,
1000
0010
1000
0001
0100
0001
0010
0001
,
0100
0010
1000
0001
0100
0001
1000
0001
,
0100
0010
0100
0001
0010
0001
0010
0100
,
1000
0001
0000
0000
0010
0000
0100
0001
0000
0000
0010
0000
0100
0000
0001
0000
,
0100
0010
0000
0000
0100
0000
0010
0001
1000
0000
0001
0000
0100
0000
0001
0000
,
1000
0100
1000
0001
1000
0001
0100
0001
,
0010
0100
0010
0100
0010
0001
0100
0001
,
0010
0001
1000
0010
0100
0010
1000
0100
,
1000
0001
0010
0100
1000
0100
1000
0100
,
0010
0001
0100
0001
0100
0001
1000
0100
,
1000
0100
1000
0001
0100
0010
1000
0100
,
0010
0000
0000
0001
0000
0000
0010
0000
1000
0000
0000
0000
0020
0000
0000
0000
,
0130
0000
0000
1000
0000
0000
0010
0000
0001
0000
0000
0000
0200
0000
0000
0000
,
0310
0100
0010
0001
,
0100
0000
0010
0000
0100
0000
0001
1000
,
0010
0000
0001
0000
0010
0001
0100
0000
,
1000
0001
0100
0000
0010
1000
0001
0000
,
0100
0000
0001
0000
1000
0100
0001
0000
,
0100
0000
0010
0001
0100
0000
0010
0000
,
0100
0010
0001
0000
1000
0000
0001
0000
,
1000
0100
0010
0000
1000
0000
0001
0000
,
2002
0000
0000
0000
,
3003
0000
0000
0000
;
