
//----- song ID: abmf -----//
#TITLE:Midnight Fever;
#ARTIST:micah Akiba;
#GENRE:ミュージックガンガン;
#MUSIC:Midnight Fever.ogg;
#BANNER:Midnight Fever.png;
#BACKGROUND:Midnight Fever-bg.png;
#CDTITLE:./CDTitles/Music Gun Gun 3 -Shoot Away!-.png;
#SAMPLESTART:41.709;
#SAMPLELENGTH:15.000;
#SELECTABLE:YES;
#OFFSET:0.000;
#BPMS:0.000=128.000;
#STOPS:;
#BGCHANGES:;
#FGCHANGES:;

//--------------- dance-single - ----------------
#NOTES:
     dance-single:
     :
     Beginner:
     1:
     0,0,0,0,0:
0000
0000
0000
0000
,
0000
0000
0000
0000
,
0000
0000
0000
0000
,
0000
0000
0000
0000
,
0000
0000
0000
0000
,
0000
0000
0000
0000
,
1000
0000
0000
0000
,
1000
0000
0000
0000
,
0001
0000
0000
0000
,
0001
0000
0000
0000
,
0010
0000
0000
0000
,
0010
0000
0000
0000
,
0100
0000
0000
0000
,
0100
0000
0000
0000
,
1000
0000
0000
0000
,
1000
0000
0000
0000
,
0001
0000
0000
0000
,
0001
0000
0000
0000
,
0010
0000
0000
0000
,
0100
0000
0000
0000
,
0010
0000
0000
0000
,
0100
0000
0000
0000
,
0000
0000
0000
0000
,
1001
0000
0000
0000
,
0010
0000
0000
0000
,
0100
0000
0000
0000
,
1000
0000
0000
0000
,
0001
0000
0000
0000
,
0100
0000
0000
0000
,
0010
0000
0000
0000
,
0100
0000
0000
0000
,
0001
0000
0000
0000
,
1000
0000
0000
0000
,
0010
0000
0000
0000
,
0100
0000
0000
0000
,
1000
0000
0000
0000
,
0001
0000
0000
0000
,
0100
0000
0000
0000
,
0000
0000
1000
0000
,
1001
0000
0000
0000
,
0000
0000
0000
0000
,
0020
0000
0000
0030
,
0000
0000
0000
0000
,
0020
0000
0000
0030
,
0000
0000
0000
0000
,
0200
0000
0000
0300
,
0000
0000
0000
0000
,
0200
0000
0000
0300
,
0000
0000
0000
0000
,
0000
0000
0000
0000
,
1001
0000
0000
0000
,
0010
0000
0000
0000
,
1000
0000
0000
0000
,
0001
0000
0000
0000
,
1000
0000
0000
0000
,
0001
0000
0000
0000
,
0010
0000
0000
0000
,
0000
0000
1000
0000
,
0001
0000
1000
0000
,
0000
0000
0001
0000
,
1000
0000
0001
0000
,
0000
0000
0000
0000
,
0110
0000
0000
0000
,
0000
0000
0000
0000
,
1000
0000
0000
0000
,
1000
0000
0000
0000
,
0001
0000
0000
0000
,
0001
0000
0000
0000
,
0010
0000
0000
0000
0000
0000
0000
1001
;

//--------------- dance-single - ----------------
#NOTES:
     dance-single:
     :
     Easy:
     4:
     0,0,0,0,0:
0000
0000
0000
0000
,
0000
0000
0000
0000
,
0000
0000
0000
0000
,
0000
0000
0000
0000
,
0000
0000
0000
0000
,
0000
0000
0000
0000
,
0001
0000
0010
0000
,
0100
0000
0000
0000
,
1000
0000
0001
0000
,
0100
1000
0001
0000
,
0010
0000
0100
0000
,
1000
0000
0001
0000
,
0010
0000
0100
0000
,
1000
0000
0001
0000
,
0010
0000
0000
0000
,
1000
0000
0000
0000
,
0001
0000
0010
0000
,
0100
0000
0000
0000
,
1000
0000
0000
0000
,
0001
0000
0000
0000
,
0010
0000
1000
0000
,
2002
0000
0000
3003
,
0010
0010
0010
0010
,
1001
0100
1000
0000
,
0001
0010
0100
0000
,
1000
0001
0100
0000
,
0001
0010
0100
0000
,
1000
0001
0100
0000
,
0010
0100
0010
0000
,
0001
1000
0001
0000
,
0010
0100
1000
0000
,
0001
1000
0001
0000
,
0100
0010
0100
0000
,
1000
0001
0100
0000
,
0010
0100
1000
0000
,
0001
1000
0001
0000
,
0100
1000
0001
0000
,
0100
1000
0001
0000
,
0100
0000
1000
0000
,
2002
0000
0000
3003
,
0100
0010
0100
0010
,
1000
0000
0000
0000
,
0001
0000
0000
0000
,
0100
0000
1000
0000
,
0001
0000
0000
0000
,
0010
0000
0100
0000
,
1000
0000
0000
0000
,
0001
0000
0010
0000
,
0100
0000
0000
0000
,
0010
0100
0010
0100
,
1001
0100
1000
0000
,
0001
1000
0001
0000
,
0100
0000
0010
0000
,
0001
0010
0100
1000
,
1001
0000
0100
0000
,
0010
0000
0001
0000
,
0010
0100
1000
0000
,
0001
0000
0010
0000
,
0100
1000
0001
0000
,
0100
0000
0000
0010
0000
0000
0100
0000
,
1000
0001
0100
0010
,
0000
0000
1000
0000
,
0220
0000
0000
0000
,
0000
0000
0000
0330
,
1000
0001
0100
0000
,
0010
0010
0010
0000
,
1000
0001
1000
0000
,
0001
0010
0100
1000
,
0001
0000
0000
1000
0000
0000
0001
1000
;

//--------------- dance-single - ----------------
#NOTES:
     dance-single:
     :
     Medium:
     8:
     0,0,0,0,0:
0000
0000
0000
0000
,
0000
0000
0000
0000
,
0000
0000
0000
0000
,
0000
0000
0000
0000
,
0000
0000
0000
0000
,
0000
0000
0000
0000
,
1000
0001
0100
0010
,
1000
0000
0001
0000
0100
0010
0100
0000
,
1000
0001
0100
0010
,
0001
0000
1000
0000
0001
0100
1000
0000
,
0001
0010
0100
0010
,
0001
0100
0010
1000
,
0001
0100
0010
1000
,
0001
0000
0010
0000
0100
1000
0001
0010
,
0000
1000
0010
0100
0000
1000
0001
0100
,
0000
1000
0001
0100
0000
0100
0010
0100
,
0000
0010
1000
0000
0001
0000
0100
0000
,
0010
0000
1000
0000
0001
0010
0100
1000
,
0000
0010
0100
1000
0000
0001
0010
0100
,
0000
1000
0001
0100
0000
0010
0100
1000
,
0000
0001
0100
0010
0000
1000
0001
0200
,
0000
0000
0000
0000
,
0310
0100
0010
1000
,
1001
0100
1000
0001
,
0100
0000
0010
0000
1000
0100
0001
0000
,
1000
0000
0001
0000
0100
0010
0000
1000
,
0002
0003
0200
0300
0020
0030
0100
0000
,
1000
0000
0001
0000
0100
1000
0001
0000
,
0100
0000
0010
0000
1000
0001
0100
0000
,
0010
0100
1000
0001
,
0100
1000
0001
0000
0200
0000
0300
0000
,
1001
0000
0100
0000
0010
1000
0001
0000
,
0100
0000
0010
0000
0001
1000
0001
0000
,
0100
0010
0001
1000
,
0001
0000
0100
0000
0010
1000
0001
0000
,
1001
0000
0100
0000
0010
0001
0010
0000
,
0100
0000
1000
0000
0001
0100
0010
0000
,
1000
0000
0001
0000
0100
0000
0010
1000
,
0000
0000
0001
0000
,
2002
0000
0000
0000
,
3003
0010
0100
0010
,
1001
0100
1000
0001
,
0100
0020
0000
0030
,
1000
0001
0100
0010
,
0001
2000
0000
3000
,
0001
0100
0010
1000
,
0001
0200
0000
0300
,
0010
1000
0001
0100
,
0010
0000
1000
0000
0001
0100
1000
0001
,
0110
1001
0110
0101
,
1001
0000
0100
0000
0010
0001
1000
0000
,
0001
1000
0001
0100
0010
1000
0001
0000
,
0100
0000
0010
0000
0001
1000
0000
0001
,
1000
0000
0100
0000
0010
0000
1000
0001
,
0100
0000
0010
1000
0000
0000
0001
0000
,
0100
0000
0010
1000
0000
0001
0100
0000
,
0010
0000
1000
0000
0001
0000
0100
0010
,
0000
1000
0001
0000
0100
0000
0010
0000
,
1000
0000
0001
0000
0100
0000
0010
1000
,
0000
0001
1000
0000
0010
0000
0100
0000
,
1000
0000
0001
0000
0100
0000
0010
0001
,
0000
0000
1000
0000
,
2002
0000
0000
0000
,
3003
0000
0000
0000
,
0010
1000
0001
0000
0100
0000
0010
0000
,
1000
0001
0100
0000
0010
0000
0100
0000
,
0001
0010
0100
0000
1000
0001
0100
0000
,
0010
1000
0001
0100
,
1000
0000
0000
0001
0000
0000
0100
0000
0000
1000
0000
0000
0001
0000
1000
0000
;

//--------------- dance-single - ----------------
#NOTES:
     dance-single:
     :
     Hard:
     13:
     0,0,0,0,0:
0000
0000
0000
0000
,
0000
0000
0000
0000
,
0000
0000
0000
0000
,
0000
0000
0000
0000
,
0000
0000
0000
0000
,
0000
0000
0000
0000
,
1000
0100
0001
1000
0010
0100
0000
0001
,
0000
0001
0100
2000
0000
3001
0000
0100
,
0000
1000
0100
0010
1000
0001
0100
2000
,
0000
0000
3001
0110
,
1001
0100
1000
0001
0010
0100
0000
0010
,
0000
1000
0001
0100
0000
0010
0000
0001
,
0000
1000
0001
0100
1000
0001
0010
0200
,
0000
0000
0000
0000
0000
0010
0010
0010
,
0300
0001
1000
0010
0000
0001
1000
0001
,
0000
1000
0001
0100
0000
0001
1000
0010
,
0000
0001
1000
0001
0100
1000
0001
0010
,
0100
0000
1000
0000
0001
0100
1000
0100
,
0000
0010
0001
0100
0000
0001
0010
0100
,
0000
1000
0001
0100
0000
0010
1000
0001
,
0000
0100
0010
1000
0000
0001
0010
0100
,
2000
0001
0010
0100
,
3001
0110
1001
0010
,
1001
0100
1000
0010
0000
1000
0100
0001
,
0000
0010
0100
1000
0000
0001
1000
0000
,
0100
0000
0000
0000
0010
0000
0000
0000
1000
0000
0001
0000
0000
0000
0100
1000
,
0100
0000
0010
0000
0010
1000
0001
0010
,
0100
1000
0001
0010
0000
0000
0100
0000
,
1000
0001
0100
0010
0000
0001
1000
0000
,
1000
0000
0001
0100
0010
1000
0000
0001
,
0010
0000
0100
0000
1000
0000
0010
0100
,
1001
0000
0100
0010
0000
0001
1000
0000
,
0001
0000
0100
0010
0000
0011
0110
0000
,
0010
0000
0000
0000
0100
0000
0000
0000
1000
0000
0001
0000
0000
0000
0100
0010
,
0100
0000
1000
0000
0001
0000
0100
1000
,
0001
0100
0010
0200
0000
0000
0301
0010
,
1000
0010
0001
0200
0000
0010
0310
0000
,
1000
0000
0001
0000
0100
0000
0010
0100
,
0000
1000
0000
0000
0002
0000
0003
0000
,
2002
0000
0000
0000
,
3003
0000
0001
0010
0100
0000
1000
0001
1000
0010
0001
0000
1000
0000
0110
0000
,
2000
0000
3020
0000
0031
0010
1000
0002
,
0000
0100
0010
0103
,
0002
0000
0023
0000
1030
0010
0001
2000
,
0000
0100
0010
3100
,
0001
0000
0001
0000
0001
0000
0001
0100
,
0010
0000
1000
0000
1000
0000
1000
0100
,
0010
0001
0100
0010
1000
0100
0010
0001
,
0100
0001
1000
0001
0100
0010
0100
0000
,
1001
0011
0110
1010
,
1001
0010
0001
0100
0000
0001
0010
1000
,
0000
0100
0010
0001
0000
1000
0001
0000
,
0001
0000
1000
0010
0100
0001
0000
1000
,
0100
0000
0010
0000
0001
0000
0100
0010
,
1001
0000
0010
0100
0000
1000
0001
0000
,
1000
0000
0010
0100
0000
1100
0110
0000
,
0100
0000
0000
0000
0010
0000
0000
0000
0001
0000
1000
0000
0000
0000
0010
0100
,
0010
0000
0001
0000
1000
0000
0010
0001
,
1000
0010
0100
0010
0100
0000
1000
0100
,
0001
0100
1000
0020
0000
0100
0130
0000
,
0001
0000
1000
0000
0010
0000
0100
0010
,
0000
0001
0000
0000
2000
0000
3000
0000
,
2002
0000
0000
0000
,
3003
0000
1000
0100
0010
0000
0001
1000
0001
0100
1000
0000
0001
0000
0110
0000
,
1001
0000
0010
0000
1000
0000
0010
0000
0001
0000
1000
0001
0000
0000
1000
0000
,
0010
0000
0100
0000
1000
0000
0001
0000
0010
0100
0000
1001
0000
0000
0000
0000
,
0010
0000
0100
0000
1000
0000
0001
0000
0100
0000
0001
0010
0000
0000
0110
0000
,
1000
0001
0100
0010
1000
0001
0010
0100
,
1000
0000
0000
1001
0000
0000
0100
0000
0000
0110
0000
0000
0100
0000
1001
0000
;
