
//----- song ID: skfs -----//
#TITLE:Media Prototype (Text "888" for reinabe);
#ARTIST:DV-i;
#GENRE:けものフレンズ×NonStopDance -フレンズの歌の音楽-;
#MUSIC:Media Prototype (Text 888 for reinabe).ogg;
#BANNER:Media Prototype (Text 888 for reinabe).png;
#BACKGROUND:Media Prototype (Text 888 for reinabe)-bg.png;
#CDTITLE:./CDTitles/NSD A3.png;
#SAMPLESTART:42.154;
#SAMPLELENGTH:15.000;
#SELECTABLE:YES;
#OFFSET:0.000;
#BPMS:0.000=148.000
,232.000=175.503
;
#STOPS:;
#BGCHANGES:;
#FGCHANGES:;

//--------------- dance-single - ----------------
#NOTES:
     dance-single:
     :
     Beginner:
     4:
     0,0,0,0,0:
0000
0000
0000
0000
,
0000
0000
0000
0000
,
0000
0000
0000
0000
,
0000
0000
0000
0000
,
0000
0000
0000
0000
,
0001
0000
0000
0000
,
1000
0000
0000
0000
,
0100
0000
0000
0000
,
0010
0000
0000
0000
,
1000
0000
0000
0000
,
0001
0000
0000
0000
,
0010
0000
0000
0000
,
0100
0000
0010
0000
,
1000
0000
0000
0000
,
0001
0000
0000
0000
,
0100
0000
0000
0000
,
0001
0000
1000
0000
,
1001
0000
0000
0010
,
0100
0000
1000
0000
,
0001
0000
0010
0000
,
0100
0000
1000
0000
,
1001
0000
0000
0100
,
0010
0000
1000
0000
,
0001
0000
0010
0000
,
1000
0000
0001
0000
,
0100
0000
0010
0000
,
1001
0000
0100
0000
,
0001
0010
0100
0000
,
1000
0000
0001
0000
,
0100
0010
0100
0000
,
1000
0000
0000
0000
,
0001
0000
0000
0000
,
0010
0000
0000
0000
,
1000
0000
0001
0000
,
0010
0000
0000
0000
,
0100
0000
0000
0000
,
0001
0000
0000
0000
,
1000
0000
0100
0010
,
1000
0000
0001
0000
,
0010
0000
0000
1000
,
0001
0000
0000
0010
,
0100
1000
0001
0000
,
0020
0000
0000
0000
,
0030
0000
0000
0000
,
1000
0000
0000
0001
0000
0000
0000
0000
,
0100
0000
0000
0010
0000
0000
0000
0000
,
1000
0000
0000
0001
0000
0000
0000
0000
,
0010
0000
0000
0100
0000
0010
0000
0000
,
1000
0000
0000
0001
,
0010
0000
0100
0001
,
1000
0000
0001
0000
,
0100
0000
1000
0000
,
0001
0000
0000
0100
,
0010
0000
1000
0000
,
0001
0000
0010
0000
,
0100
0000
0010
0000
,
2002
0000
0000
0000
,
0000
0000
0000
3003
,
0010
0000
0000
0000
,
0100
0000
0000
0000
,
1000
0000
0000
0000
,
0001
0000
0010
0000
,
0100
0000
1000
0000
,
0001
0000
0000
0000
,
0100
0000
0000
0000
,
0001
0000
0010
0000
,
0100
0000
1000
0000
,
0001
0000
0010
0100
,
0010
0000
1000
0000
,
0001
0000
0010
0001
,
1000
0000
1000
0100
,
0010
0000
0001
0000
,
0010
0000
0000
0100
,
1000
0000
0001
0000
,
1001
0000
0000
0000
,
0010
0000
0000
0000
,
0100
0000
1000
0000
,
0001
0010
0100
0000
,
0001
0000
1000
0100
,
0010
0000
0000
0010
,
0100
0000
0000
0001
,
0010
0000
1000
0000
,
0001
0000
0000
0000
,
0100
0000
0000
0000
,
1001
0000
0000
0000
;

//--------------- dance-single - ----------------
#NOTES:
     dance-single:
     :
     Easy:
     9:
     0,0,0,0,0:
0000
0000
0000
0000
,
0000
0000
0000
0000
,
0000
0000
0000
0000
,
0000
0000
0000
0000
,
0000
0000
0000
0000
,
0010
0100
1000
0000
,
0001
1000
0100
0000
,
0010
0100
0010
1000
,
0001
0000
0010
0000
,
1000
0001
0100
0010
,
1000
0000
0001
0010
,
0100
0010
1000
0001
,
0100
0000
0010
0000
,
0100
1000
0001
0100
,
0010
0000
0100
0001
,
0100
0000
1000
0001
,
0100
0000
0010
0000
,
1001
0000
0000
0100
0000
0000
1000
0000
,
0001
0000
0010
0100
,
1000
0001
0100
0010
,
1000
0000
0000
0001
1000
0000
0000
0000
,
0100
0000
0010
0100
0000
1000
0001
0000
,
0100
0000
0010
0100
,
0001
0010
0100
1000
,
0001
0000
0000
0100
0010
0000
0000
0000
,
1000
0000
0000
0001
0100
0000
0000
0000
,
1000
0010
0001
0010
,
0100
0000
0001
1000
0001
0000
0100
0000
,
0010
0100
1000
0001
,
0100
0000
0010
0100
1000
0000
0001
0000
,
1001
0000
0100
0010
,
0101
0000
0100
0000
,
1010
0000
0100
0000
,
0010
0100
0010
0000
,
1001
0100
0010
0100
,
1000
0000
0001
0010
0100
0000
1000
0000
,
0001
0100
0010
0100
,
1000
0001
0100
0010
,
1000
0000
0000
0001
0010
0000
0100
0000
,
1001
0000
0000
0010
,
0101
0000
0000
0010
,
0110
1000
0001
0100
,
2002
0000
0000
0000
,
3003
0000
0000
0000
,
0010
0000
0000
0100
0000
1000
0000
0000
,
0001
0000
0000
0010
0000
0100
0000
0000
,
0001
0000
0000
1000
0000
0001
0000
0000
,
0100
0000
0000
0010
0000
0100
0000
0000
,
1000
0000
0000
0001
,
0010
0100
0001
0100
,
1000
0001
0100
0010
,
0101
0000
1000
0000
,
0100
0010
0100
1000
,
0001
0000
0100
0000
,
0010
1000
0001
0100
,
0010
0000
0100
0000
,
2002
0000
0000
0000
,
0000
0000
0000
3003
,
0010
0000
0100
0000
,
1000
0000
0001
0010
,
0100
0000
0001
0000
,
1000
0000
0001
0010
,
0100
0000
1000
0001
,
0100
0000
0010
0000
,
0100
0000
1000
0000
,
0001
0010
0200
0000
,
1300
0010
0100
1000
,
0001
0000
0000
0000
0100
0000
0001
0010
,
0100
1000
0001
0010
,
0100
0000
0010
0100
,
1001
0000
0100
0010
,
0101
0000
1000
0000
,
0001
0000
0010
0000
,
0100
1000
0001
0100
,
1001
0000
0100
0000
,
0010
0000
0001
0010
,
0100
0001
1000
0001
,
0100
0000
0010
0100
,
1001
0000
0100
1000
,
0001
0000
0010
0000
,
1000
0000
0001
0010
,
0100
1000
0001
0010
,
2000
0000
0000
0000
,
3002
0000
0000
0000
,
2000
0000
0000
0000
,
0000
0000
0000
0000
,
0000
0000
0000
0000
,
0000
0000
0000
0000
,
3003
0000
0000
0000
;

//--------------- dance-single - ----------------
#NOTES:
     dance-single:
     :
     Medium:
     12:
     0,0,0,0,0:
0000
0000
0000
0000
,
0000
0000
0000
0000
,
0000
0000
0000
0000
,
0000
0000
0000
0000
,
0000
0000
0000
0000
,
0100
1000
0001
0100
,
0010
1000
0001
0100
,
0010
0000
0100
1000
0001
0000
0100
0000
,
0010
0000
0000
1000
0001
0000
0000
0000
,
0010
0100
0001
0100
,
2000
0000
3000
0001
0100
0010
0100
1000
,
0001
0010
0100
1000
,
0002
0000
0003
0100
1000
0000
0001
0100
,
0010
0100
1000
0001
,
0100
0000
0000
0010
1000
0001
0100
0010
,
0100
1000
0001
0010
,
2000
0000
0002
3003
,
1000
0010
1000
0010
0100
0001
0100
0000
,
0001
0010
0100
0000
1000
0010
0100
0000
,
0001
0100
0001
0100
0010
1000
0010
0000
,
1000
0000
0000
1000
0000
0000
1000
0000
0001
0000
0000
0001
0000
0000
0001
0000
,
1000
0010
1000
0010
0100
0001
0100
0000
,
0001
0010
0100
0000
1000
0010
0100
0000
,
0001
0100
0001
0100
0010
1000
0010
0000
,
1000
0000
0000
1000
0000
0000
1000
0000
0001
0000
0000
0001
0000
0000
0001
0000
,
1000
0000
0000
0100
0000
0000
0010
0000
0100
0000
0000
1000
0000
0000
0001
0000
,
0010
1001
0001
0110
,
0010
1000
0001
0100
0010
0000
0100
0000
,
1000
0011
0100
1010
,
1000
0001
0010
0100
1000
0000
1001
0000
,
0110
0000
0000
0100
1000
0001
0010
0100
,
2000
0000
0000
3001
0010
0100
1000
0001
,
0020
0000
0000
0130
0100
0100
0001
0010
,
0100
1000
2002
3003
,
0010
0100
0001
0010
,
0100
1000
0001
0010
0100
0000
0010
0000
,
1010
0000
0001
0000
1100
0000
0010
0100
,
1000
0001
1000
0010
0100
0001
1000
0010
,
0001
0000
0000
1000
0001
0010
0100
1000
,
0001
0000
0000
0010
0100
1000
0001
0010
,
0100
0000
0000
0001
1000
0001
0000
0010
,
0100
1000
1001
0010
,
0220
0000
0000
0030
,
0010
0000
0000
0301
,
1000
0000
0001
0010
0000
0100
0000
1000
,
0001
0000
0010
0100
0000
1000
0001
0010
,
0100
0000
0010
0100
0000
1000
0000
0001
,
0010
0000
0000
0100
0000
1001
0000
0000
,
1000
0010
1000
0010
0100
0001
0100
0000
,
0001
0010
0100
0000
1000
0010
0100
0000
,
0001
0100
0001
0100
0010
1000
0010
0000
,
1000
0000
0000
1000
0000
0000
1000
0000
0001
0000
0000
0001
0000
0000
0001
0000
,
1000
0010
1000
0010
0100
0001
0100
0000
,
0001
0010
0100
0000
1000
0010
0100
0000
,
0001
0100
0001
0100
0010
1000
0010
0000
,
2000
0000
0000
0000
,
0002
0000
0000
0000
,
0000
0000
3003
0000
,
1000
0100
0010
1000
,
0100
0000
0001
0010
0100
0000
1000
0000
,
0001
0100
0010
1000
,
0001
1000
0010
0100
1000
0000
0001
0000
,
0110
0000
1000
0000
0001
0010
0100
1000
,
0001
0000
0010
0000
0100
0000
1000
0001
,
0010
0100
0000
0010
1000
0000
0001
0010
,
0100
0010
2002
3003
,
0010
0001
1000
0010
,
0001
1000
0001
0100
0010
0000
0100
0000
,
1000
0001
0100
0010
,
1000
0001
0010
0100
1000
0000
1001
0000
,
0010
0000
0000
0100
1000
0001
0010
0100
,
2000
0000
0000
3001
0010
0100
1000
0001
,
0020
0000
0000
0130
0100
0100
0001
0010
,
0100
1000
2002
3003
,
0001
0100
0010
0100
0001
0010
0100
1000
,
0010
0100
0010
1000
0100
0010
0100
0010
,
0001
1000
0100
0010
0100
1000
0010
0100
,
0001
1000
0001
0100
0010
1000
0010
0100
,
0002
0023
0230
0320
,
0032
2003
3200
0320
,
0031
0000
0000
0100
0000
0000
0001
0000
1000
0000
0010
0000
0100
0000
0001
0000
,
1000
0000
0000
0010
0000
0000
1000
0000
0100
0000
0010
0000
0001
0000
0000
0000
,
2000
0000
0000
0000
,
0002
0000
0000
3003
,
0220
0000
0000
0000
,
0000
0000
0000
0000
,
0000
0000
0000
0000
,
0000
0000
0000
0000
,
0330
0000
0000
0000
;

//--------------- dance-single - ----------------
#NOTES:
     dance-single:
     :
     Hard:
     15:
     0,0,0,0,0:
0000
0000
0000
0000
,
0000
0000
0000
0000
,
0000
0000
0000
0000
,
0000
0000
0000
0000
,
0000
0000
0000
0000
,
0100
1000
0001
0010
,
0100
0010
1000
0001
,
0100
0000
0010
1000
0001
0000
0100
0000
,
0010
0000
1000
0000
0001
0010
0100
1000
,
0002
1003
0100
0010
,
2000
0000
3000
0001
0010
0100
1000
0001
,
0010
0100
0010
1100
,
1001
0000
0000
0010
0100
0000
1000
0001
,
0010
0100
0010
1100
,
0002
0000
0000
0103
1000
0001
0010
0100
,
0010
0000
0001
0100
1000
0001
0010
0100
,
2000
0000
0000
0000
0001
0010
3001
0000
,
1001
0000
0000
1000
0100
0010
0000
0001
0000
1000
0001
0000
0100
0000
0010
0000
,
1000
0000
0000
0001
0010
0100
0000
1000
0000
0010
0100
0000
0001
0000
0010
0000
,
0001
0000
0000
0100
0001
0010
0000
0100
0000
1000
0010
0000
0100
0000
0001
0000
,
1000
0000
0000
1000
0000
0000
1000
0000
0001
0000
0000
0001
0000
0000
0001
0000
,
0110
0000
0000
1000
0100
0010
0000
0001
0000
1000
0001
0000
0100
0000
0010
0000
,
1000
0000
0000
0001
0010
0100
0000
1000
0000
0010
0100
0000
0001
0000
0010
0000
,
0001
0000
0000
0100
0001
0010
0000
0100
0000
1000
0010
0000
0100
0000
0001
0000
,
1000
0000
0000
1000
0000
0000
1000
0000
0001
0000
0000
0001
0000
0000
0001
0000
,
0100
0000
0000
0100
0000
0000
0100
0000
0010
0000
0000
0010
0000
0000
0100
0000
,
0010
0000
0001
0000
1000
0001
0100
0000
0010
0000
1000
0000
0100
0000
0000
0000
,
0010
0000
0100
0000
1000
0100
0010
0000
0001
0000
1000
0000
0100
0000
0000
0000
,
0010
0000
0001
0000
0100
1000
0010
0000
0001
0000
1000
0000
0010
0000
0000
0000
,
0001
0100
0010
0000
1000
0000
0001
0000
0100
1000
0001
0000
0010
0000
0000
0000
,
0200
0000
0000
0000
1300
0000
0001
0010
0100
0000
0001
0000
1000
0000
0100
0000
,
0010
0000
0000
0000
1000
0000
0001
0000
0100
0000
0000
0000
0010
0001
1000
0000
,
0001
0000
0000
0000
1000
0000
0001
0000
0100
0000
1000
0100
0010
0000
0001
0010
,
0100
0001
1000
0010
0100
0001
0001
0010
,
0100
0000
1000
0000
0001
1000
0010
0000
0100
0000
0001
0000
0010
0000
0000
0000
,
0100
0000
0010
0000
0001
1000
0100
0000
1000
0000
0001
0000
0010
0000
0000
0000
,
0100
0000
1000
0000
0010
0001
0100
0000
1000
0000
0001
0000
0100
0000
0000
0000
,
1000
0000
0100
0010
0001
0000
1000
0000
0010
0100
1000
0000
0100
0000
0000
0000
,
0020
0000
0000
0000
0031
0000
1000
0100
0010
0000
1000
0000
0001
0000
0010
0000
,
0100
0000
0000
0000
0001
0000
1000
0000
0010
0000
0000
0000
0100
0010
0001
0000
,
1000
0000
0000
0000
0001
0000
1000
0000
0010
0000
0001
0010
0100
0000
1000
0001
,
0010
0100
1000
0010
0100
0010
0001
0010
,
0200
0000
0000
0000
0000
0000
0000
0000
0000
0000
0000
0000
0000
0000
0301
0010
,
0002
0000
0100
0100
,
1003
0000
0100
1001
0000
0100
0010
0001
,
1000
0010
0001
1000
0000
0011
0000
0100
,
1000
0001
0000
0100
0000
0001
1000
0100
,
0002
0000
0000
1003
0000
1000
0001
0010
,
0100
0001
1000
0000
0001
0010
0100
1000
,
0100
0000
0000
0010
0000
0000
0100
0000
0220
0000
0000
0000
0330
0000
0000
0000
,
1000
0000
0001
0000
0100
0001
0000
0010
0000
0000
0000
0000
0001
0000
0001
0000
,
2000
3020
0200
0330
,
1000
0000
0001
0000
1000
0100
0010
0000
0000
0110
0000
0000
0100
0000
0010
0000
,
0001
0000
0000
0100
0000
1000
0000
0000
0200
0000
0000
0000
0300
0000
0000
0000
,
0001
0000
1000
0000
0001
0100
0000
0001
0000
0000
1000
0000
0100
0000
0010
0000
,
0001
0000
0000
0011
0000
0000
0011
0000
1000
0000
1000
0000
0010
0100
0010
0100
,
0002
0000
2003
0000
,
3002
0000
0000
0000
,
1003
0100
0010
1000
,
0100
0000
0001
0010
0100
0000
1000
0000
,
0001
0100
0010
1000
,
0001
1000
0010
0100
1000
0000
0001
0000
,
0110
0000
1000
0000
0001
0010
0100
1000
,
0001
0000
0010
0000
0100
0000
1000
0001
,
0010
0100
0000
0010
1000
0000
0001
0010
,
0100
0010
2002
3003
,
0100
0000
1000
0000
0001
1000
0010
0000
0100
0000
0001
0000
0010
0000
0000
0000
,
0100
0000
0010
0000
0001
1000
0100
0000
1000
0000
0001
0000
0010
0000
0000
0000
,
0100
0000
1000
0000
0010
0001
0100
0000
1000
0000
0001
0000
0100
0000
0000
0000
,
1000
0000
0100
0010
0001
0000
1000
0000
0010
0100
1000
0000
0100
0000
0000
0000
,
0020
0000
0000
0000
0031
0000
1000
0100
0010
0000
1000
0000
0001
0000
0010
0000
,
0100
0000
0000
0000
0001
0000
1000
0000
0010
0000
0000
0000
0100
0010
0001
0000
,
1000
0000
0000
0000
0001
0000
1000
0000
0010
0000
0001
0010
0100
0000
1000
0001
,
0010
0100
1000
0010
0100
0010
0001
0010
,
1001
0000
0000
1000
0100
0010
0000
0001
0000
1000
0001
0000
0100
0000
0010
0000
,
1000
0000
0000
0001
0010
0100
0000
1000
0000
0010
0100
0000
0001
0000
0010
0000
,
0001
0000
0000
0100
0001
0010
0000
0100
0000
1000
0010
0000
0100
0000
0001
0000
,
1000
0000
0000
1000
0000
0000
1000
0000
0001
0000
0000
0001
0000
0000
0001
0000
,
0110
0000
0000
1000
0100
0010
0000
0001
0000
1000
0001
0000
0100
0000
0010
0000
,
1000
0000
0000
0001
0010
0100
0000
1000
0000
0010
0100
0000
0001
0000
0010
0000
,
0001
0000
0000
0100
0001
0010
0000
0100
0000
1000
0010
0000
0100
0000
0001
0000
,
1000
0000
0000
1000
0000
0000
1000
0000
0001
0000
0000
0001
0000
0000
0001
0000
,
0210
0000
0000
0000
0000
0000
0000
0000
0000
0000
0000
0000
0000
0000
0301
0010
,
0002
0000
0000
0003
,
2002
0000
0000
0000
,
0000
0000
0000
0000
,
0000
0000
0000
0000
,
0000
0000
0000
0000
,
3003
0000
0000
0000
;
