#TITLE:末路 in the dark;
#ARTIST:monogana;
#TITLETRANSLIT:Matsuro in the dark;
#GENRE:けものフレンズ×NonStopDance -フレンズの歌の音楽-;
#MUSIC:Matsuro in the dark.ogg;
#BANNER:Matsuro in the dark.png;
#BACKGROUND:Matsuro in the dark-bg.png;
#CDTITLE:./CDTitles/NSD A3.png;
#SAMPLESTART:48.052;
#SAMPLELENGTH:15.000;
#SELECTABLE:YES;
#OFFSET:-0.067;
#BPMS:0.000=170.000
,192.000=128.000
,272.000=170.000
;
#STOPS:;
#BGCHANGES:;
#FGCHANGES:;

//--------------- dance-single - ----------------
#NOTES:
     dance-single:
     :
     Beginner:
     4:
     0,0,0,0,0:
0000
0000
0000
0000
,
0000
0000
0000
0000
,
0000
0000
0000
0000
,
0000
0000
0000
0000
,
0000
0000
0000
0000
,
0001
0000
0000
0000
,
1000
0000
0000
0000
,
0010
0000
0000
0000
,
0100
0000
0000
0000
,
0001
0000
0000
0000
,
1000
0000
0000
0000
,
0010
0000
0000
0000
,
0100
0000
0000
0000
,
1000
0000
0000
0000
,
1000
0000
0000
0000
,
0001
0000
0000
0000
,
0001
0000
0000
0000
,
0010
0000
0000
0000
,
0010
0000
0000
0000
,
0100
0000
0000
0000
,
0100
0000
0000
0000
,
0001
0000
0000
0000
,
1000
0000
0000
0000
,
0010
0000
0000
0000
,
0100
0000
0000
0000
,
0100
0000
0000
0000
,
1000
0000
0000
0000
,
0001
0000
0000
0000
,
0010
0000
0000
0000
,
1000
0000
0000
0000
,
0001
0000
0000
0000
,
0010
0000
0000
0000
,
0100
0000
0000
0000
,
1000
0000
0000
0000
,
0001
0000
1000
0000
,
0001
0000
0000
0000
,
0010
0000
0100
0000
,
0010
0000
0000
0000
,
1000
0000
0001
0000
,
0010
0100
0010
0000
,
1000
0000
0001
0000
,
0010
0100
0001
0000
,
1000
0000
0000
0000
,
0001
0000
0000
0000
,
0100
0000
0000
0000
,
0010
0000
0000
0000
,
1000
0000
0001
0000
,
0100
0000
0001
0000
,
2002
0000
0000
0000
,
0000
0000
0000
3003
,
0010
0000
0000
0000
,
1000
0000
0000
0000
,
0001
0000
1000
0000
,
0001
0000
0000
0000
,
0010
0000
0100
0000
,
0010
0000
0000
0000
,
1000
0000
0001
0000
,
0010
0000
0000
0000
,
0100
0000
0010
0000
,
1000
0000
0000
0000
,
0001
0000
1000
0000
,
0001
0000
0010
0000
,
0100
0000
1000
0000
,
0001
0000
0010
0100
,
0010
0000
1000
0000
,
0001
1000
0001
0000
,
0010
0000
0100
0000
,
0001
1000
0001
0000
,
1001
0000
0000
0000
,
0000
0000
0000
0000
,
0010
0000
0100
0000
,
0001
0000
1000
0000
,
0001
0000
0010
0000
,
0100
0010
1000
0000
,
0001
0000
1000
0000
,
0001
0000
0100
0000
,
0010
0001
0010
0000
,
1000
0100
1000
0000
,
0010
0000
0100
0000
,
1000
0000
0001
0000
,
0010
0000
0100
0000
,
0010
0000
1000
0000
,
0001
0000
0010
0000
,
0100
0000
0000
0000
,
1000
0000
0001
0000
,
0010
0001
0100
2002
,
0000
0000
0000
3003
,
0000
0000
0000
0110
;

//--------------- dance-single - ----------------
#NOTES:
     dance-single:
     :
     Easy:
     7:
     0,0,0,0,0:
0000
0000
0000
0000
,
0000
0000
0000
0000
,
0000
0000
0000
0000
,
0000
0000
0000
0000
,
0000
0000
0000
0000
,
1000
0001
0100
0010
,
0100
0001
1000
0001
,
0100
0010
0100
0010
,
1000
0001
0100
0010
,
0001
0010
1000
0001
,
0100
0010
0100
1000
,
0001
0100
0010
0100
,
0001
1000
0001
0100
,
1000
0000
0001
0000
,
0100
0000
0010
0000
,
0001
0000
1000
0000
,
0001
0100
0010
1000
,
0001
0000
0100
0000
,
0010
0000
0100
0000
,
1000
0000
0001
0000
,
0100
0010
0001
1000
,
0100
0000
0010
0000
,
0001
1000
0001
0000
,
0100
0000
0010
0000
,
1000
0001
0100
0000
,
0010
0000
0100
0000
,
0010
0001
1000
0000
,
0010
0000
0100
0000
,
0010
0000
0100
0000
,
1001
0000
0100
0000
,
0010
0000
0000
0000
,
1000
0000
0001
0000
,
0010
0000
0100
0000
,
1000
0001
0100
0000
,
1001
0100
0010
0100
,
0001
1000
0001
0100
,
0010
1000
0001
0100
,
0010
0001
0100
0010
,
0100
0001
1000
0001
,
0100
0010
0100
0001
,
1000
0001
0100
0010
,
0100
0010
0110
0000
,
1000
0000
0001
0000
,
0100
0000
0010
0000
,
1000
0000
0001
0000
,
0010
0000
0100
0000
,
1000
0000
0001
0000
,
0010
0000
0000
0000
,
2001
0000
0000
0000
,
0001
0000
0000
3000
,
0010
0000
0100
0000
,
1000
0001
0100
0000
,
0010
0100
0010
1000
,
0001
0000
0100
0000
0010
0100
1000
0000
,
0001
0100
0010
0001
,
1000
0000
0001
0000
0100
0010
0100
0000
,
1000
0001
0100
0010
,
1000
0000
0001
0000
0100
0001
0100
0000
,
0010
1000
0001
0100
,
0010
1000
0001
0100
0010
0000
0100
0000
,
1000
0000
0001
0000
0100
0001
0100
0010
,
0100
0000
1000
0000
0001
0100
0010
0000
,
0001
0000
1000
0000
0001
0100
0010
0100
,
1000
0000
0001
0000
0100
1000
0010
0000
,
0100
0000
0010
0000
1000
0001
0100
0010
,
0100
0000
1000
0000
0001
0100
1000
0000
,
0001
0000
0100
0000
0010
1000
0001
0100
,
0010
0000
0100
0000
1000
0001
0100
0000
,
0020
0000
0000
0000
,
0000
0000
0000
0030
,
1001
0100
0010
0100
,
1000
0001
0100
0010
,
0001
1000
0001
0100
,
0010
0100
1000
0000
,
0001
1000
0001
0100
,
0010
1000
0001
0000
,
0100
0010
1000
0001
,
0100
0010
0100
1000
,
0001
0000
0100
0000
,
0010
0000
1000
0000
,
0001
0000
0100
0000
,
0010
0000
0100
0000
,
1000
0000
0001
0000
,
0100
0000
0000
0000
,
0010
0000
0100
0000
,
0010
0000
1000
0200
,
0001
0000
0010
0000
,
0310
1000
0000
1001
;

//--------------- dance-single - ----------------
#NOTES:
     dance-single:
     :
     Medium:
     10:
     0,0,0,0,0:
0000
0000
0000
0000
,
0000
0000
0000
0000
,
0000
0000
0000
0000
,
0000
0000
0000
0000
,
0000
0000
0000
0000
,
0001
1000
0010
1000
,
0100
0010
0100
0010
,
0100
1000
0010
1000
,
0001
0010
0100
1000
,
0010
0100
0001
1000
,
0001
0000
0010
0000
0001
0000
0100
1000
,
0010
0100
0010
0100
,
0001
0000
0010
0000
0100
0001
1000
0001
,
0100
1000
0001
0010
,
0100
0000
1000
0000
0001
0010
0100
0000
,
0001
0000
0100
0000
0001
0010
1000
0000
,
0100
0000
0010
1000
0001
0010
1000
0010
,
0100
0010
0001
0100
,
0010
0001
0100
0000
0001
0000
1000
0000
,
0001
0100
1000
0000
0010
0000
1000
0100
,
0010
0000
0100
0000
0001
0010
1000
0100
,
0010
1000
0001
0010
,
0100
0000
0010
0000
0100
0001
1000
0001
,
0100
0010
0001
0010
,
0001
0000
1000
0000
0001
0100
0010
0001
,
0100
0010
0001
0010
,
0100
0001
1000
0010
0001
0000
1000
0000
,
0001
0000
0010
0000
0001
0100
1000
0000
,
0001
1000
0000
0110
0000
0000
0100
1000
,
0001
0000
0100
0010
0000
0000
1000
0001
,
0100
1000
0100
0010
,
0100
0010
0001
0100
,
0010
0100
1000
0000
0010
0001
0100
0000
,
0001
1000
0010
0000
0001
0000
0010
0000
,
1001
1000
0010
1000
,
0010
0100
1000
0001
0100
0000
0010
0000
,
0001
0000
0010
0000
0100
0000
1000
0001
,
0100
0000
1000
0000
0001
0010
0100
0000
,
0010
1000
0010
1000
,
0011
1100
0110
0010
,
0100
0000
1000
0000
0010
0000
1000
0001
,
0100
0010
0001
1000
,
1001
0000
0000
0100
0000
0010
0100
0000
0000
1000
0000
0001
,
1000
0000
0000
0100
0000
0001
1000
0000
0000
0010
0000
0001
,
0100
0000
0000
1000
0000
0001
1000
0000
0000
0010
0000
0100
,
0010
0000
0000
1000
0000
0001
0100
0000
0000
0001
0000
0010
,
0001
1000
0001
0100
,
1000
0010
0110
1001
,
0120
1000
0100
0001
,
1000
0001
0100
0031
,
1000
0000
0010
0000
0100
1000
0001
0100
,
0010
0000
0100
0000
0010
1000
0001
0100
,
0010
0000
1000
0001
0100
0010
0001
0000
,
1000
0001
0100
0010
0100
1000
0001
0000
,
0100
0000
0010
1000
0001
0010
0100
0000
,
0010
0100
0001
1000
0001
0000
0110
0000
,
1000
0000
0001
0000
0100
0010
1000
0001
,
0100
0000
0010
0000
0100
0001
1000
0001
,
0100
0000
0010
0000
0100
1000
0001
0100
,
0010
0000
0001
0010
0100
1000
0001
0100
,
1000
0001
0100
1000
0001
0010
0100
0000
,
1000
0001
0100
0010
1000
0001
0000
0000
,
0100
1000
0001
0100
0010
0100
1000
0001
,
0100
0010
0001
1000
0001
0000
0000
0000
,
0100
1000
0001
0100
0010
0001
0010
0100
,
0001
0100
0010
1000
0001
0000
0000
0000
,
1000
0001
0100
0010
0100
1000
0001
0100
,
0010
0000
1000
0000
0001
0100
0010
1000
,
1002
0000
0000
0000
,
0000
0000
0000
0003
,
1001
1000
0010
1000
,
0010
0100
1000
0001
0100
0000
0010
1000
,
0001
0000
0010
0000
0100
0000
1000
0001
,
0100
0000
1000
0000
0001
0010
0100
0000
,
0010
1000
0010
1000
,
0011
1100
0110
0010
,
0100
0000
1000
0000
0010
0000
1000
0001
,
0100
0010
0001
1000
,
1001
0000
0000
0100
0000
0010
0100
0000
0000
1000
0000
0001
,
1000
0000
0000
0100
0000
0001
1000
0000
0000
0010
0000
0001
,
0100
0000
0000
1000
0000
0001
1000
0000
0000
0010
0000
0100
,
0010
0000
0000
1000
0000
0001
0100
0000
0000
0001
0000
0010
,
0001
1000
0001
0100
,
1000
0100
0010
0000
1000
0000
0001
0000
,
0100
0000
0010
0100
,
1000
0001
0100
2000
,
0000
0001
0000
3001
,
0010
0100
1000
1001
;

//--------------- dance-single - ----------------
#NOTES:
     dance-single:
     :
     Hard:
     16:
     0,0,0,0,0:
0000
0000
0000
0000
,
0000
0000
0000
0000
,
0000
0000
0000
0000
,
0000
0000
0000
0000
,
0000
0000
0000
0000
,
0010
0000
1000
0000
0100
1000
0010
0001
,
0100
0000
0010
0000
0100
0001
1000
0100
,
0010
0000
0100
0000
0010
1000
0100
0001
,
0010
0000
1000
0000
0001
0100
1000
0010
,
0001
0000
0100
0000
0010
0001
0100
1000
,
0001
0000
0100
0000
0001
1000
0010
0100
,
0001
0000
0100
0000
0010
0001
1000
0010
,
0100
0000
0010
0000
0100
0001
1000
0001
,
1001
0010
0001
0010
0001
1000
0010
1000
,
0001
1000
0001
0010
0001
0010
0100
0010
,
0001
1000
0001
1000
0010
0100
0001
0010
,
0001
0000
0100
0000
0001
0000
1000
0000
0100
1000
0010
0000
0001
0010
0100
0000
,
0010
0100
0001
1000
0010
0100
0010
1000
,
0010
1000
0100
0010
0100
0010
0100
1000
,
0010
1000
0100
0010
0001
1000
0100
0010
,
0001
0000
1000
0001
0100
0000
0010
0000
0100
1000
0010
0000
0100
0001
1000
0000
,
0110
1000
0100
1000
0100
0010
0001
0100
,
0001
0010
0100
0010
0100
1000
0100
0010
,
0001
0100
0001
1000
0001
0100
0010
0100
,
0010
0000
1000
0000
0010
0000
1000
0000
0100
0001
1000
0000
0001
1000
0010
0000
,
0001
1000
0100
0010
0001
1000
0010
0100
,
0010
1000
0001
0010
0001
1000
0001
1000
,
0010
0100
0001
0100
0010
0100
0001
1000
,
0100
0000
1000
0001
0100
0000
1001
0000
0000
0000
0100
0000
0010
0000
1000
0000
,
0100
0000
1000
0100
0000
0000
0110
0000
0001
0000
0010
0000
0100
0000
1000
0000
,
0100
1000
0100
0010
,
0001
0010
0100
0010
,
0001
0000
0010
0000
0100
0000
1000
0000
0010
0000
1000
0000
0100
0000
0010
1000
,
0002
0000
2003
3001
,
0110
0010
1000
0010
1000
0100
0010
0100
,
1000
0010
0100
0001
0100
0001
1000
0100
,
1000
0100
0010
0001
1000
0100
1000
0010
,
0100
0001
1000
0100
0010
0001
1000
0001
,
1000
0010
1000
0100
0010
0001
0010
0100
,
1000
0001
0100
0001
0010
0001
0100
0010
,
0100
0001
1000
0001
0010
0001
1000
0010
,
0100
0001
1000
0001
0010
0001
0100
0000
,
1001
0000
0000
0001
0000
0100
0001
1000
0010
1000
0001
0100
,
0010
0100
0001
1000
0100
0010
0001
0100
0001
1000
0001
0100
,
0010
0000
0000
0001
0000
0000
1000
0000
0000
0000
0001
0000
0010
0000
1000
0000
0001
0000
0100
0000
0010
0000
0100
0000
,
0010
0100
0001
0010
0100
1000
0001
0100
0001
1000
0010
1000
,
0200
0000
0010
0000
0302
0000
0103
1000
,
0100
0010
0100
0110
,
1002
1000
0100
0000
0010
1000
0010
0000
,
0100
0010
1000
0000
0100
0010
0103
0010
,
1000
0000
0001
0000
0100
0010
1000
0001
,
0100
1000
0100
0000
0010
0100
1000
0000
0001
0010
0100
0010
1000
0100
0001
0000
,
0200
0310
0010
0100
0001
0100
0001
0100
,
0010
1000
0100
0010
0001
1000
0100
0010
,
0100
1000
0001
0100
0001
1000
0100
1000
,
0100
1000
0001
0010
0100
1000
0001
0010
,
0001
0010
0100
0010
0100
1000
0001
0100
,
0010
0100
0010
0100
0001
0010
0001
0100
,
0010
0100
0001
1000
0010
0100
0001
0010
,
0100
0000
0010
0000
0100
0000
1000
0000
0001
0000
0100
1000
0010
0100
1000
0010
,
0001
1000
0010
0000
0100
0000
1000
0000
0100
0000
0010
0000
0001
0000
0100
0000
,
0010
0100
1000
0000
0001
0000
1000
0001
0100
0000
0010
0000
0100
0000
1000
0001
,
0100
0000
0010
0000
0001
0000
0100
0000
0001
0000
0010
1000
0001
0000
0010
0000
,
0100
0000
0010
1000
0001
0000
0100
0000
0010
0000
0100
0000
0010
0001
1000
0000
,
0100
0000
0010
0000
0100
0000
0010
1000
0001
0000
0010
0000
0001
0000
1000
0000
,
0010
0001
1000
0000
0100
0000
0010
0000
0100
0000
1000
0100
0001
0000
0010
0000
,
0100
0001
1000
0000
0010
0000
1000
0000
0010
0001
1000
0000
0100
0000
0010
0000
,
0001
1000
0010
0001
0100
1000
0010
0100
0001
1000
0100
0000
0010
0001
0100
0010
,
2000
0000
0000
0000
,
3002
0000
0000
0003
,
0110
0010
1000
0010
1000
0100
0010
0100
,
1000
0010
0100
0001
0100
0001
1000
0100
,
1000
0100
0010
0001
1000
0100
1000
0010
,
0100
0001
1000
0100
0010
0001
1000
0001
,
1000
0010
1000
0100
0010
0001
0010
0100
,
1000
0001
0100
0001
0010
0001
0100
0010
,
0100
0001
1000
0001
0010
0001
1000
0010
,
0100
0001
1000
0001
0010
0001
0100
0000
,
1001
0000
0000
0001
0000
0100
0001
1000
0010
1000
0001
0100
,
0010
0100
0001
1000
0100
0010
0001
0100
0001
1000
0001
0100
,
0010
0000
0000
0001
0000
0000
1000
0000
0000
0000
0001
0000
0010
0000
1000
0000
0001
0000
0100
0000
0010
0000
0100
0000
,
0010
0100
0001
0010
0100
1000
0001
0100
0001
1000
0010
1000
,
0200
0000
0010
0000
0302
0000
0103
1000
,
0100
0010
0100
1000
,
0010
0000
0100
0000
1000
0001
0100
0000
,
0010
1000
0001
0200
,
0000
0000
0000
0310
,
1000
0001
0100
0000
1000
0000
2002
0000
,
0000
0000
0000
0000
,
3003
0000
0000
0000
;
