#TITLE:まいにちがフレンズ;
#ARTIST:NAMCO Sound Team "KITTY";
#TITLETRANSLIT:Mainichi ga Friends;
#GENRE:ナムコオリジナル;
#MUSIC:Mainichi ga Friends.ogg;
#BANNER:Mainichi ga Friends.png;
#BACKGROUND:Mainichi ga Friends-bg.png;
#CDTITLE:./CDTitles/DDR Japari Park Festival.png;
#SAMPLESTART:30.272;
#SAMPLELENGTH:15.000;
#SELECTABLE:YES;
#OFFSET:0.000;
#BPMS:0.000=138.000;
#STOPS:;
#BGCHANGES:;
#FGCHANGES:;

//--------------- dance-single - ----------------
#NOTES:
     dance-single:
     :
     Beginner:
     3:
     0,0,0,0,0:
0000
0000
0000
0000
,
0000
0000
0000
0000
,
0000
0000
0000
0000
,
0000
0000
0000
0000
,
0000
0000
0000
0000
,
0000
0000
0000
0000
,
0000
0000
0000
0000
,
0001
0000
1000
0000
,
0001
0000
1000
0000
,
0000
0000
0010
0000
,
0100
0000
0010
0000
,
0000
0000
1000
0000
,
0001
0000
0100
0000
,
0000
0000
0010
0000
,
0100
0000
1000
0000
,
0001
0000
0010
0000
,
0100
0000
1000
0001
,
1000
0000
0010
0000
,
1000
0000
0001
0000
,
1000
0100
0010
0000
,
0000
0000
0001
1000
,
0001
0000
0010
0000
,
0100
0000
1000
0000
,
0001
1000
0001
0000
,
0000
0000
0010
0000
,
0100
0000
1000
0000
,
0001
0000
0010
0000
,
0010
0001
0010
0000
,
0000
0000
1000
0000
,
0001
0000
0100
0000
,
0010
0000
0001
1000
,
0001
0000
0110
0000
,
0000
0000
0000
0000
,
0000
0000
1000
0000
,
0010
0000
1000
0000
,
0000
0000
0001
0000
,
0010
0000
0001
0000
,
0000
0000
0010
0000
,
0100
0000
0010
0000
,
0000
0000
1000
0000
,
0001
0000
0100
0000
,
0000
1000
0000
0000
,
0010
0000
0001
0000
,
0100
0000
1000
0000
,
0100
0000
0010
0001
,
0010
0000
1000
0000
,
0001
0000
0100
1000
,
0100
0000
0010
0000
,
0000
0000
1000
0000
,
0000
0000
0001
0000
,
0010
0000
0100
1000
,
0001
0000
0010
0000
,
0000
0000
0100
0010
,
1000
0000
0001
0000
,
0100
0000
1000
0000
,
0001
0100
0010
0000
,
0000
0000
1000
0100
,
0010
0000
0001
0000
,
1000
0000
0001
0000
,
0010
0000
0100
0000
,
1000
0000
0001
0000
,
0010
0000
0100
0000
,
1000
0000
0001
0000
,
0010
0100
0010
0000
,
0000
0000
1000
0000
,
0001
0000
0010
0000
,
0000
0000
1000
0000
,
0000
0000
0001
0000
,
0000
0000
0001
0000
,
0000
0000
1000
0000
,
0001
0000
0100
0000
,
0000
0000
1000
0000
,
0000
0000
0001
0000
,
0100
0000
1000
0000
,
0000
0000
0001
0000
,
0010
0000
0100
0000
,
1000
0000
0001
0000
,
0000
0000
0010
0000
,
0100
0000
0010
0000
,
1000
0000
0001
0000
,
0010
0100
2002
0000
,
0000
3003
0100
0000
,
0000
0000
0010
0000
,
0000
0000
0100
0000
,
1001
0000
0000
0000
;

//--------------- dance-single - ----------------
#NOTES:
     dance-single:
     :
     Easy:
     5:
     0,0,0,0,0:
0000
0000
0000
0000
,
0000
0000
0000
0000
,
0000
0000
0000
0000
,
0000
0000
0000
0000
,
0000
0000
0000
0000
,
0000
0000
0000
0000
,
0000
0000
0000
0000
,
0001
0100
1000
0001
,
0100
0010
1000
0001
,
0100
0010
1000
0000
,
0001
0000
0100
0000
,
0001
1000
0001
0000
,
0100
0000
0010
1000
,
0001
0000
0010
0000
,
0100
0000
1000
0001
,
0100
0000
0010
0000
,
0100
0000
1000
0100
,
0010
0000
0010
0100
,
1000
0001
0100
0010
,
1000
0001
0010
0000
,
0100
0000
1000
0001
,
0100
0000
0010
0000
,
0100
0000
1000
0001
,
0100
0010
1000
0000
,
0000
0000
0001
0100
,
0010
0000
1000
0100
,
0001
0010
0100
1000
,
0001
0100
0010
1000
,
0001
0100
0010
0000
,
1000
0000
0001
0010
,
0001
1000
0001
0100
,
0010
1000
2002
0000
,
0000
3003
0010
0000
,
0100
0000
1000
0000
,
0001
0000
0100
0010
,
1000
0000
0001
0010
,
0100
0000
1000
0001
,
0100
0000
0010
0100
,
1000
0000
0001
0000
,
1000
0000
0001
0000
,
0100
0000
1000
0001
,
0100
0000
0010
0000
,
0100
0000
0010
0001
,
1000
0000
0001
0100
,
0010
0000
1000
0000
,
0001
0000
0100
0000
,
0010
0000
1000
0001
,
0100
0000
1000
0000
,
0001
0000
0100
0010
,
0100
0000
1000
0001
,
0100
0010
0100
1000
,
0001
0100
0010
0000
,
0000
0000
0100
1000
,
0001
0000
0010
0100
,
0001
1000
0001
0100
,
0010
1000
0001
0000
,
0010
0000
0100
0010
,
0100
0000
1000
0001
,
0100
0010
1000
0001
,
0100
0010
1000
0000
,
0001
0000
0010
0100
,
0010
1000
0001
0000
,
0010
0100
0010
1000
,
0001
0100
0220
0000
,
0000
0330
0010
0010
,
0010
0000
1000
0000
,
0001
0000
0010
0000
,
0100
0000
1000
0000
,
0001
0000
0010
0000
,
0100
0000
0010
0000
,
1000
0000
0001
0000
,
0010
0000
1000
0000
,
0001
0000
0010
0100
,
1000
0000
0010
0000
,
0100
0000
0001
1000
,
0001
0100
0010
0100
,
1000
0001
0100
0000
,
0010
0000
0100
0010
,
1000
0000
0001
0000
,
0010
0000
0100
0010
,
1000
0001
2002
0000
,
0000
3003
0010
0100
,
1000
0000
0001
1000
,
0001
0000
0100
0000
,
0110
0000
0000
0000
;

//--------------- dance-single - ----------------
#NOTES:
     dance-single:
     :
     Medium:
     8:
     0,0,0,0,0:
0000
0000
0000
0000
,
0000
0000
0000
0000
,
0000
0000
0000
0000
,
0000
0000
0000
0000
,
0000
0000
0000
0000
,
0000
0000
0000
0000
,
0000
0000
0000
0000
,
1000
0001
1000
0001
,
0010
0100
0001
1000
,
0001
0100
0010
1000
0001
0000
0010
0000
,
1000
0000
0010
0000
0100
0000
0010
1000
,
0001
0100
1000
0000
,
0001
0000
0010
0100
,
1000
0001
0100
0000
0010
0000
0000
0000
,
0100
0000
0000
0000
1000
0001
0100
0000
,
0010
1000
0001
0000
1001
0000
0000
0000
,
0100
0000
0010
1000
,
0001
0000
0100
0000
1000
0100
0000
0000
,
0001
0010
0000
0000
1000
0001
0000
0100
,
1000
0001
1001
0000
,
0010
0000
0000
0000
1000
0100
0010
0001
,
0000
0000
0000
0000
1000
0001
0000
0000
,
0010
0100
0000
0000
1000
0001
0100
0000
,
0010
0100
1001
0000
,
0010
0000
0100
1000
,
0001
0000
0000
0000
0001
0010
0000
0000
,
1000
0100
0000
0000
0001
0010
0000
1000
,
0100
0001
0110
0000
,
1000
0000
0001
0010
,
0100
0000
0000
0000
1000
0001
0000
0000
,
0100
0010
0000
0000
1000
0100
0000
0010
,
0100
1000
2002
0000
,
0000
3003
0010
0010
,
0010
1001
0100
1000
,
0001
0100
0010
0000
0100
0000
1000
0000
,
0001
0100
0010
0000
1000
0000
0001
0000
,
0010
0100
0001
0000
0100
0000
0010
0000
,
1000
0001
0100
0000
1000
0000
0000
0000
,
0001
0000
0100
1000
,
0001
0000
0000
1000
0000
0000
0010
0000
0000
0000
0000
1000
,
0001
0000
0000
0000
0000
0000
0100
0000
0000
0010
0000
1000
,
0001
0000
0000
0000
0000
0000
0100
0000
0000
0000
0000
0001
,
0010
0000
0000
0000
0000
0000
1000
0000
0000
0100
0000
0010
,
0100
1001
1000
0000
,
0010
0000
0100
0001
,
0100
0000
0010
0100
,
1000
0001
0100
0000
0010
0000
0010
0000
,
0100
0000
1000
0001
,
0100
0000
0010
0000
1000
0001
0100
0000
,
0010
0000
0000
0000
0001
1000
0010
0000
,
0100
0010
1000
0000
0001
0000
0100
0000
,
0010
1000
0001
0000
,
0010
0000
0000
0000
1000
0001
0000
0100
,
0010
0000
0000
0000
0010
0010
0000
0000
,
0100
0100
0000
0000
1000
0001
0000
1000
,
0001
0100
0110
0000
,
1000
0000
0001
0010
,
0100
1000
0001
0000
0100
0010
0000
0000
,
1000
0001
0000
0000
0010
0100
0000
1000
,
0001
0100
0010
0100
,
1000
0000
0001
0000
0100
1000
0000
0001
,
0000
0100
0000
0000
0010
1000
0001
0000
,
0100
0010
1000
0000
0001
0100
0000
0010
,
0100
1000
0022
0000
,
0000
0033
1000
0001
,
1000
1001
0100
0000
,
0010
0000
0100
1000
,
0001
0100
0010
0000
1000
0000
0001
0000
,
0100
0000
0010
0000
1000
0001
0100
1000
,
0001
0100
0010
0100
,
1000
0000
0001
0010
,
0001
0000
1000
0001
,
1000
0001
0100
0000
0010
0000
0100
0000
,
1000
0001
0100
0000
0010
0000
0100
0000
,
1000
0001
1001
0100
,
1100
0010
0110
0010
,
0100
1000
0001
0000
0100
0000
0010
0000
,
0100
0000
0000
0000
1000
0000
0001
0100
,
0000
0010
0100
0000
0001
1000
0010
0000
,
0100
0010
0001
0000
1000
0001
0000
0100
,
1100
0001
2002
0000
,
0000
3003
0010
0100
,
1000
0000
0001
1000
,
0001
0000
0010
0100
,
1001
0000
0000
0000
;

//--------------- dance-single - ----------------
#NOTES:
     dance-single:
     :
     Hard:
     14:
     0,0,0,0,0:
0000
0000
0000
0000
,
0000
0000
0000
0000
,
0000
0000
0000
0000
,
0000
0000
0000
0000
,
0000
0000
0000
0000
,
0000
0000
0000
0000
,
0000
0000
0000
0000
,
0001
1000
0001
0000
0100
0001
0100
0000
,
1000
0001
0100
0000
0010
1000
0001
0100
,
0010
1000
0001
0000
0100
1000
0100
0000
,
0001
0010
0001
0000
1000
0001
0100
0010
,
0100
0000
1000
0000
0000
0001
0000
0000
0010
0000
1000
0000
0010
0000
0000
0000
,
1000
0001
0100
0000
0010
1000
0001
0100
,
0010
1000
0000
0000
0001
0010
0000
0000
1000
0000
0010
0000
0100
0000
0000
0000
,
0001
1000
0001
0000
0100
1000
0001
0100
,
0010
1000
0001
0000
0001
1000
0001
0100
,
0010
0100
1000
0001
0100
0000
1000
0000
,
0001
0100
0110
0000
1000
0001
1001
0000
,
0100
0100
0110
0000
1000
0001
1000
0001
,
0100
0010
2002
0000
,
0000
0000
3003
0000
0001
0010
0100
2000
,
0000
0000
3001
0000
0010
0100
1001
0000
,
0100
1000
0011
0000
1000
0001
0100
0010
,
0100
0001
0202
0000
,
0000
0000
0303
0000
1000
0001
0100
0010
,
0000
0100
1000
0000
0001
0100
0110
0000
,
0010
0001
1100
0000
0001
1000
0001
0100
,
0010
0100
2200
0000
,
0000
0000
0000
0000
3300
0000
0000
0000
0001
0000
0000
0100
1000
0000
0001
0000
,
0000
1000
0001
0000
0100
0010
0011
0000
,
0010
0100
0110
0000
1000
0001
0100
0010
,
0100
0001
0010
0000
0220
0000
0000
0000
,
0000
0330
1000
1000
,
1001
0000
0101
0000
0010
0100
1000
0001
,
0100
0010
1000
0000
0001
0100
0010
0100
,
1000
0001
0100
0010
0100
0000
1000
0000
,
0001
0100
0010
0000
0100
1000
0001
0100
,
0010
0100
1000
0001
0100
0000
1000
0000
,
0001
0100
0010
1000
,
0001
0000
0000
0010
0000
0000
0100
0000
0000
1000
0000
0000
0001
0000
0000
0000
0000
0000
1000
0000
0000
0000
0001
0000
,
0100
0000
0000
0010
0000
0000
0100
0000
1000
0001
0000
0010
,
0100
0000
0000
0101
0000
0000
1000
0000
0001
0100
0000
0000
,
0001
0000
0100
1000
0000
0000
0001
0000
0010
0100
0000
1000
,
0001
0000
1001
0000
0010
0100
1000
0000
,
0001
0100
0010
0000
1000
0001
0100
0010
,
1000
0001
0100
0010
1000
0000
0001
0100
,
0010
0100
1000
0001
0100
0010
0100
1000
,
0001
0000
0100
0000
0010
1000
0001
0100
,
0010
0001
0010
0100
1000
0001
1000
0001
,
1000
0000
0110
0000
1000
0001
0110
0000
,
1000
0001
0110
0000
0001
0010
0100
1000
,
0001
0010
0220
0000
,
0000
0000
0330
0000
0001
0010
0100
1000
,
0000
0001
1000
0000
1001
0000
0100
0000
,
0110
0001
0101
1000
,
0001
0100
0010
0000
2020
0000
0000
0000
,
0000
3030
2000
3001
,
0200
0000
0310
0000
0001
0010
0101
0000
,
1000
0001
0110
0000
1000
0001
0010
0100
,
1000
0001
0202
0000
,
0000
0000
0000
0000
0303
0000
0000
0000
1000
0000
0000
0001
0100
0000
0010
0000
,
0000
0100
0000
1000
0010
0000
0001
0000
1000
0000
0001
0000
0110
0000
0000
0000
,
0010
0100
1001
0000
0001
1000
0001
0100
,
0010
0100
2002
0000
,
0000
3003
0101
1010
,
0101
0000
0110
0000
1000
0001
0100
0000
,
0010
1000
0001
0000
0100
0010
1000
0001
,
0100
0000
0010
0000
0100
0001
1000
0001
,
0100
0010
0001
1000
0001
0100
1000
0001
,
0100
0000
0010
0000
0100
1000
0001
0100
,
0010
0100
1000
0001
0100
0010
0100
1000
,
0001
0000
0000
0000
0100
0000
0000
0000
1000
0001
0000
0000
0010
0100
0000
0000
,
1000
0010
0000
0000
0001
1000
0000
0000
0001
0000
0000
0000
0110
0000
0000
0000
,
0001
0000
1000
0000
0001
0000
0100
0000
0010
0100
0000
0000
1000
0001
0000
0000
,
0001
0010
0000
0000
1100
0000
0000
0000
0001
0000
0010
0000
0110
0000
0000
0000
,
1000
0001
1001
0000
0100
0010
1000
0001
,
0100
0100
2002
0000
,
0000
0000
0000
0000
3003
0000
0000
0000
1000
0000
0000
0001
0010
0000
1000
0000
,
0000
0001
0000
0010
0100
1000
0001
0000
1000
0000
0100
0000
0110
0000
0000
0000
,
0001
0100
0110
0000
1000
0001
0100
0010
,
0100
1000
0001
0000
2002
0000
0000
0000
,
0000
0000
0000
0000
3003
0000
0000
0000
0001
0000
0000
1000
0000
0000
0001
0000
,
0000
0000
1000
0000
0001
1000
0000
0010
,
0100
0000
1000
0001
1000
0000
0010
0000
,
2002
0000
3003
0000
;
