
//----- song ID: mafa -----//
#TITLE:マジック・オブ・ファンタジー!!;
#ARTIST:Nofu feat. 天満ニア;
#TITLETRANSLIT:Magic of Fantasy!!;
#ARTISTTRANSLIT:Nofu feat. Amama Nia;
#GENRE:ナムコオリジナル;
#MUSIC:Magic of Fantasy!!.ogg;
#BANNER:Magic of Fantasy!!.png;
#BACKGROUND:Magic of Fantasy!!-bg.png;
#CDTITLE:./CDTitles/NSD A3.png;
#SAMPLESTART:63.481;
#SAMPLELENGTH:15.000;
#SELECTABLE:YES;
#OFFSET:0.000;
#BPMS:0.000=172.000;
#STOPS:;
#BGCHANGES:;
#FGCHANGES:;

//--------------- dance-single - ----------------
#NOTES:
     dance-single:
     :
     Beginner:
     3:
     0,0,0,0,0:
0000
0000
0000
0000
,
0000
0000
0000
0000
,
0000
0000
0000
0000
,
0000
0000
0000
0000
,
0000
0000
0000
0000
,
0000
0000
0000
0000
,
0000
0000
0000
0000
,
0000
0000
0000
0000
,
0000
0000
0000
0000
,
0000
0000
0000
0000
,
0001
0000
1000
0000
,
0001
0000
0100
0000
,
0010
0000
1000
0000
,
0001
0000
0100
0000
,
0010
0000
1000
0000
,
0100
0000
0010
0000
,
0002
0000
0000
0000
,
2000
0000
0000
0000
,
3003
0000
0000
0000
,
0010
0100
0100
0000
,
1000
0000
0000
0000
,
0001
0000
0000
0000
,
0100
0000
0000
0000
,
0010
0000
0000
0000
,
0000
0001
0000
0000
,
1000
0000
0000
0000
,
0100
0000
0000
0000
,
0010
0000
0000
0000
,
0100
0000
0000
0000
,
0010
0000
0000
0000
,
0100
0000
0000
0000
,
0001
0000
0000
0000
,
0000
0000
1000
0000
,
0000
0000
0001
0000
,
0100
0000
0010
0000
,
0100
0000
0000
0000
,
1001
0000
0000
0000
,
0000
0000
0000
0000
,
0110
0000
0000
0000
,
0000
0000
0000
0000
,
0101
0000
0000
0000
,
0000
0000
0000
0000
,
0100
0000
0000
0000
,
0010
0000
0000
0000
,
0100
0000
1000
0000
,
0001
0000
0000
0000
,
1001
0000
0000
0000
,
0100
0000
0010
0000
,
1000
0000
0000
0000
,
0010
0000
0100
0000
,
0010
0000
0000
0000
,
1000
0000
0001
0000
,
0100
0000
0010
0000
,
0100
0000
0001
0000
,
0000
1000
0000
0000
,
0001
0000
0100
0000
,
0010
0000
1000
0000
,
0001
0000
0100
0000
,
0010
0000
0000
0000
,
0100
0000
0000
0000
,
2000
0000
0000
0000
,
3000
0000
0000
0000
,
0002
0000
0000
0000
,
0003
0000
0000
0000
,
0200
0000
0000
0000
,
0300
0000
0000
0000
,
1001
0000
0000
0000
,
0000
0000
0000
0000
,
0010
0000
0000
0000
,
0000
0000
0100
0000
,
0100
0000
0000
0000
,
0000
0000
0000
0000
,
0001
0000
0001
0000
,
0000
0000
0000
0000
,
0100
0000
0010
0000
,
0100
0000
0000
0000
,
1000
0000
0001
0000
,
0100
0000
0000
0000
,
0001
0000
0010
0000
,
0100
0000
0000
0000
,
1000
0000
0001
0000
,
0100
0000
0000
0000
,
0000
1001
0000
0000
;

//--------------- dance-single - ----------------
#NOTES:
     dance-single:
     :
     Easy:
     7:
     0,0,0,0,0:
0000
0000
0000
0000
,
0000
0000
0000
0000
,
0000
0000
0000
0000
,
0000
0000
0000
0000
,
0000
0000
0000
0000
,
0000
0000
0000
0000
,
0000
0000
0000
0000
,
0000
0000
0000
0000
,
0000
0000
0000
0000
,
0000
0000
0000
0000
,
0010
0100
1000
0001
,
0100
0010
0001
0010
,
0100
1000
0001
0100
,
0010
0100
1000
0001
,
0100
0001
0010
0100
,
1000
0001
0100
0010
,
1000
0001
0100
0000
0010
0000
0100
0000
,
1000
0001
0100
0000
0010
0000
0001
0000
,
0010
0000
0000
0000
,
0100
0100
0001
0000
,
1001
0000
0100
0000
,
0010
0100
1000
0000
,
0001
0000
0100
0000
,
0010
0000
0100
0000
0000
0001
0000
1000
,
0000
0000
0010
0001
0000
0100
0000
0010
,
0000
1000
0000
0001
0010
0100
0000
0010
,
1000
0100
0000
1000
0000
0001
0000
0100
,
0010
0000
0000
0000
,
0100
1000
0001
0100
,
0010
0100
1000
0001
,
0100
0010
0001
0010
,
0100
0000
1000
0001
0000
0100
0000
0110
,
0000
1000
0001
0010
,
0100
0010
1000
0001
,
0100
0000
0010
0000
0100
0000
1000
0002
,
0000
0000
0000
1003
0000
0000
0000
0000
,
2000
0000
3001
0000
,
0010
0100
0010
0000
,
0002
0000
1003
0000
,
0100
0010
0100
0000
,
0001
0100
2000
3000
,
0100
0010
0002
0003
,
0100
1000
0010
0001
,
0100
0010
1000
0001
,
1000
0001
0100
0000
0010
0000
0100
0000
,
0000
0000
0000
0000
,
1001
0100
0010
0100
,
1000
0001
0100
0001
,
0010
0100
1000
0001
,
0100
0010
0001
0010
,
0100
0010
0100
1000
,
0001
0100
0010
1000
,
0001
1000
0001
0000
0100
0000
0010
0000
,
0001
1000
0001
0000
0000
0100
0000
1001
,
0000
0110
0010
0100
,
1000
0001
0100
0010
,
0100
1000
0001
0100
,
0010
0100
1000
0001
,
0100
0000
0010
0000
,
0001
0000
1000
0000
,
0001
0010
0100
1000
,
0001
0000
1000
0000
,
0001
0100
0010
0000
,
1000
0001
0100
0000
,
0010
0100
1000
0001
,
0100
0000
0000
0000
,
0110
0000
0000
0000
,
1000
0000
0001
0000
,
0100
0000
0000
0000
,
0010
0000
0100
0000
,
0001
0000
0000
0000
,
1000
0000
0001
0000
,
0100
0000
0000
0000
,
0010
0000
0100
0001
,
1000
0000
0001
0000
,
0100
0010
0001
0000
,
1000
0000
0001
0000
,
0100
0010
0100
0000
,
1000
0000
0001
0000
,
0100
0000
0010
0000
,
1000
0001
0010
0000
,
0100
0000
0010
0100
,
0000
1001
0000
0000
;

//--------------- dance-single - ----------------
#NOTES:
     dance-single:
     :
     Medium:
     13:
     0,0,0,0,0:
0000
0000
0000
0000
,
0000
0000
0000
0000
,
0000
0000
0000
0000
,
0000
0000
0000
0000
,
0000
0000
0000
0000
,
0000
0000
0000
0000
,
0000
0000
0000
0000
,
0000
0000
0000
0000
,
0000
0000
0000
0000
,
0000
0000
0000
0000
,
1000
0001
0100
0000
1000
0000
0001
0000
,
0100
0010
0100
0000
1000
0000
0001
0000
,
0100
0010
0100
0000
1000
0001
0100
0000
,
0010
0000
0100
0000
0010
1000
0001
0000
,
0100
1000
0001
0000
0100
0001
0010
0000
,
0100
1000
0001
0000
0010
0100
0010
0000
,
1000
0001
0010
0100
0001
0010
0100
1000
,
0001
0010
0100
1000
0010
0100
1000
0001
,
0020
0000
0000
0130
0020
0000
0000
0130
,
0010
1000
0001
0100
0010
0100
1000
0001
,
1000
0000
0100
0010
0001
1000
0100
0010
,
0001
1000
0010
0200
0000
1300
0010
0002
,
0000
0103
1000
0100
0010
0001
0100
1000
,
0010
1000
0100
0001
0000
0100
0000
2002
,
0000
3003
0010
0100
0001
1000
0010
0100
,
0001
1000
0100
0010
0100
1000
0001
1000
,
0010
0100
0001
0100
0010
0100
0001
1000
,
0000
0001
0000
0100
0010
0100
1000
0001
,
0100
1000
0001
0100
0001
0010
0100
1000
,
0100
0010
0001
1000
0000
0100
0010
1000
,
0001
1000
0100
1000
0100
0010
0100
1000
,
0001
1000
0010
0100
0000
1000
0000
2002
,
0000
3003
0100
1000
0010
0100
0010
1000
,
0010
1000
0001
0100
0010
1000
0001
0010
,
0001
0100
0001
0010
0100
1000
0001
0100
,
0001
0100
0001
0010
0100
1000
0100
1000
,
0020
0130
2000
3001
,
0200
0310
0002
1003
,
0200
0301
0020
1030
,
0200
1300
0020
0031
,
1000
0001
0000
0110
0000
1000
0001
0100
,
0010
0000
1000
0110
0000
0001
0010
1000
,
0001
0100
0010
1000
,
0001
0100
1000
0000
0001
0100
0010
0000
,
0010
1000
0100
0010
0001
0010
0100
0010
,
0000
1000
0001
0000
0100
0000
0010
0000
,
1001
0001
0010
0100
0010
0001
0100
0010
,
0100
0010
1000
0010
1000
0100
1000
0100
,
0010
0100
0010
0001
0100
0010
1000
0010
,
0100
0001
0100
0010
1000
0010
1000
0001
,
1000
0010
0100
0001
0010
0100
0010
0001
,
0100
0001
1000
0001
0100
0010
0100
0001
,
0010
0100
1000
0100
1000
0001
0100
0010
,
0100
0010
0100
0001
1000
0100
0000
0110
,
0000
1001
0000
0100
1000
0001
1000
0100
,
1000
0100
0010
0100
0010
0001
1000
0100
,
0010
0100
0010
0001
0010
0001
1000
0001
,
0010
0100
1000
0100
0010
0100
0010
0001
,
0100
0010
0100
0001
1000
0100
1000
0010
,
1000
0100
0010
0001
0100
0010
1000
0010
,
1000
0100
1000
0010
0100
0001
0010
0100
,
1000
0001
0100
0001
0100
0001
0010
0100
,
0010
0001
0010
0001
0100
0010
0100
0010
,
1000
0001
0010
0001
1000
0100
1000
0100
,
1000
0001
0100
0001
1000
0001
1000
0010
,
1000
0010
0100
0000
0000
0010
1000
0001
,
0100
1000
0001
0010
,
0100
1000
0001
0100
,
0010
0001
0010
0100
,
1000
0001
0100
0010
,
0100
0001
1000
0001
,
0100
0010
1000
0001
,
0100
0010
0001
0010
,
0100
0000
1000
0000
0001
0100
0001
0010
,
1000
0001
0010
0000
1000
0000
0001
0000
,
0010
0100
0010
0000
1000
0000
0001
0000
,
0010
0100
0010
0000
1000
0001
0010
0000
,
0100
0000
0010
0000
0100
1000
0001
0000
,
0010
1000
0001
0000
0010
0001
0100
0000
,
0010
1000
0001
0000
0100
0010
0100
0000
,
1000
0001
0100
0010
0001
0100
0010
1000
,
0001
0100
0010
1000
0100
0010
1000
0001
,
0100
0010
0100
0000
0000
0000
0000
0000
,
1001
0000
0000
0000
;

//--------------- dance-single - ----------------
#NOTES:
     dance-single:
     :
     Hard:
     16:
     0,0,0,0,0:
0000
0000
0000
0000
,
0000
0000
0000
0000
,
0000
0000
0000
0000
,
0000
0000
0000
0000
,
0000
0000
0000
0000
,
0000
0000
0000
0000
,
0000
0000
0000
0000
,
0000
0000
0000
0000
,
0000
0000
0000
0000
,
0000
0000
0000
0000
,
0010
0000
0100
0000
0010
0000
0100
1000
0000
0010
1000
0000
0001
0000
1000
0100
,
0010
0000
1000
0000
0100
0000
0010
1000
0000
0100
0010
0000
0001
0010
0100
1000
,
0010
0000
1000
0000
0010
0000
1000
0000
0001
0010
1000
0100
0010
0000
0100
0001
,
0010
0000
0100
0000
0001
0000
1000
0001
0000
0100
0010
0000
0100
0000
1000
0100
,
0010
0000
0100
0000
0001
0000
0010
0100
0000
0010
1000
0000
0100
0000
1000
0001
,
0010
0000
0100
0000
0001
0000
0100
0010
0000
0100
1000
0000
0010
0000
0100
1000
,
0010
0000
1000
0000
0001
0000
0010
1000
0000
0100
0010
0000
0001
0000
0100
0010
,
0001
0000
1000
0000
0001
0000
0010
0100
0000
0100
0010
0000
0001
0000
0100
0000
,
0002
0000
1003
0100
0020
0000
1030
0100
,
0010
0001
1000
0001
0100
0010
0100
1000
,
0000
0000
0001
0000
0100
0001
1000
0000
0100
0000
0010
0100
0001
0000
1000
0010
,
0100
1000
0100
0010
0100
1000
0001
2000
,
0000
0000
3001
0000
0100
1000
0010
0000
0100
0000
1000
0010
0001
0000
1000
0010
,
0100
0000
1000
0100
0001
0000
0010
0000
0000
0000
1001
0000
0000
0000
0220
0000
,
0330
0000
0001
0000
0100
0000
1000
0000
0100
0001
1000
0000
0100
0000
0010
0000
,
0001
0000
0010
1000
0001
0000
0010
0001
0100
0000
1000
0010
0001
0000
0100
1000
,
0001
0010
0100
1000
0001
0010
0100
1000
,
0020
0100
1030
1010
,
0100
0000
1000
0000
0100
0000
1000
0001
0100
0000
0010
0100
0001
0000
1000
0010
,
0100
1000
0001
0100
0001
0100
0010
0200
,
0000
0000
1300
0000
0001
0000
0100
0000
0001
0010
1000
0000
0100
1000
0010
0000
,
0001
1000
0001
1000
0000
0101
0000
2002
,
3003
0000
0010
0000
0100
0010
0001
0000
0100
0000
0010
1000
0100
0000
0010
0000
,
1000
0001
0100
0000
1000
0000
0010
0001
0100
0000
0010
0000
1000
0100
0010
0000
,
0100
0000
0001
0010
1000
0000
0001
0000
1000
0001
0100
0000
0010
0000
0002
0000
,
0000
0000
2003
0000
0000
0000
3001
0000
0001
0100
0010
1000
0001
0100
0010
1000
,
0200
0000
0000
0000
0000
0301
0000
1000
,
0200
0000
0302
0000
,
2003
0000
0000
0100
0000
3001
0000
0020
,
0000
0000
0000
1030
0000
0001
0100
0010
,
0100
1000
0000
1001
0000
0001
0100
0001
,
1000
0010
0100
0010
1000
0001
1000
0001
,
1000
0100
0010
0001
1000
0001
0100
0010
,
1000
0001
1000
0001
1000
0100
0010
0001
,
0100
1000
0010
0001
0100
1000
0010
0001
1000
0010
0100
0001
0010
1000
0001
0000
,
0000
0100
0010
0000
0002
0000
0003
0000
,
1001
0000
0010
0000
1000
0001
0010
0000
1000
0000
0100
0001
0000
1000
0010
0000
,
0100
0000
0010
0000
0100
1000
0001
0000
0100
0010
0001
0000
1000
0000
0100
0001
,
0010
0000
0001
0000
0010
0000
0001
1000
0000
0001
0100
0000
0010
0000
0001
0100
,
1000
0000
0001
0010
0100
0000
0010
1000
0100
0000
0010
0000
1000
0000
0001
0000
,
0010
0000
0100
0000
0010
0001
0100
0000
1000
0010
0001
0000
1000
0100
0001
0000
,
0010
0100
0001
0000
1000
0001
0010
0000
0100
0000
0001
0010
0100
1000
0010
0100
,
1000
0000
0100
0000
0010
1000
0001
0000
0010
0001
0100
0000
1000
0001
0100
0000
,
0010
1000
0100
0001
0010
0100
0001
1000
0100
0010
0001
0000
0000
0000
1001
0000
,
0000
0000
0110
0000
0001
0000
0010
1000
0001
0000
1000
0000
0100
0001
0010
0000
,
0001
0000
1000
0010
0100
0000
0010
0000
0001
1000
0100
0000
0010
0000
0100
0001
,
0010
0000
1000
0001
0100
0000
0010
0000
0100
1000
0010
0000
0100
0000
1000
0001
,
0010
0000
1000
0000
0001
0010
0100
0000
0001
0000
1000
0010
0001
0100
1000
0100
,
0010
0001
1000
0010
0100
1000
0010
0000
0001
0000
1000
0010
0001
0000
0100
1000
,
0010
0001
1000
0100
0010
0100
1000
0010
0001
0000
1000
0000
0010
0001
0100
0000
,
0010
1000
0100
0000
0010
0100
1000
0001
0100
1000
0010
0100
0001
0000
0100
0010
,
0001
0000
1000
0000
0100
0001
0010
0000
0100
0000
1000
0100
0010
0000
1000
0100
,
0001
0000
0100
0010
0001
0000
1000
0000
0010
0000
1000
0001
0100
0000
1000
0000
,
0100
1000
0010
0000
0100
0000
0010
0000
0001
0100
1000
0000
0001
0000
0100
0000
,
0001
0010
0100
1000
0010
0001
1000
0100
0010
0001
1000
0100
0010
1000
0100
0010
,
0001
0010
0200
0000
0000
0310
1001
0000
,
0010
0000
1000
0000
0001
0010
0000
2000
,
0000
0000
3100
0010
0000
0001
1000
0000
,
0100
0000
0010
0000
0100
0010
0000
2000
,
0000
3001
0100
0000
0010
1000
0100
0001
,
1000
0000
0001
0000
0100
1000
0000
0020
,
0000
0130
1000
0100
0001
0010
0100
1000
,
0010
0000
0100
0000
0010
1000
0001
0000
,
0010
0000
0000
0000
0100
0000
0001
0000
1000
0000
0000
0000
0001
1000
0010
0100
,
0010
0000
0100
0000
0010
0000
0100
0001
0000
0010
0001
0000
1000
0000
0001
0100
,
0010
0000
0001
0000
0100
0000
0010
0001
0000
0100
0010
0000
1000
0010
0100
0001
,
0010
0000
0001
0000
0010
0000
0001
0000
1000
0010
0001
0100
0010
0000
0100
1000
,
0010
0000
0100
0000
1000
0000
0001
1000
0000
0100
0010
0000
0100
0000
0001
0100
,
0010
0000
0100
0000
1000
0000
0010
0100
0000
0010
0001
0000
0100
0000
0001
1000
,
0010
0000
0100
0000
1000
0000
0100
0010
0000
0100
0001
0000
0010
0000
0100
0001
,
0010
0000
0001
0000
1000
0000
0010
0001
0000
0100
0010
0000
1000
0000
0100
0010
,
1000
0000
0001
0000
1000
0000
0010
0100
0000
0100
0010
0000
1000
0000
0100
0000
,
0000
0001
2000
0000
0000
0000
0000
0000
,
0002
0000
0000
0000
,
0000
0000
0000
0000
,
0000
0000
0000
0000
,
3003
0000
0000
0000
;
