
//----- song ID: lumi -----//
#TITLE:Lumiere;
#ARTIST:7mai;
#GENRE:ナムコオリジナル;
#MUSIC:Lumiere.ogg;
#BANNER:Lumiere.png;
#BACKGROUND:Lumiere-bg.png;
#CDTITLE:./CDTitles/NSD A3.png;
#SAMPLESTART:85.888;
#SAMPLELENGTH:15.000;
#SELECTABLE:YES;
#OFFSET:0.000;
#BPMS:0.000=190.000
,328.000=179.250
,332.000=182.430
,336.000=190.000
,360.000=189.000
,369.000=190.000
;
#STOPS:;
#BGCHANGES:;
#FGCHANGES:;

//--------------- dance-single - ----------------
#NOTES:
     dance-single:
     :
     Beginner:
     5:
     0,0,0,0,0:
0000
0000
0000
0000
,
0000
0000
0000
0000
,
0000
0000
0000
0000
,
0000
0000
0000
0000
,
1000
0000
0000
0001
0000
0000
0000
0100
,
0000
0000
0000
1000
0000
0000
0000
0100
,
0000
0000
0000
0001
0000
0000
0000
0000
,
1001
0000
0000
0100
0000
0000
0000
0000
,
1000
0001
0000
0100
,
0010
0000
0000
0100
0000
0000
1000
0000
,
0001
0000
0000
0100
0000
0000
0010
0000
,
0100
0000
0000
1000
0000
0000
0001
0000
,
0100
0000
0000
0010
0000
1000
0000
0000
,
0001
0000
0000
0100
0000
0000
0010
0000
,
0100
0000
0000
1000
0000
0000
0001
0000
,
0100
0000
0000
0010
0000
0000
0001
0000
,
1000
0001
0000
0100
1000
0000
0001
0000
,
0100
0000
0000
1000
0000
0000
0001
0000
,
0000
1000
0000
0100
0000
1000
0000
0000
,
0001
0000
0000
0010
0000
0000
0100
0000
,
0000
0010
0000
0000
0000
0000
1000
0000
,
0100
0000
0010
0000
0000
0000
0001
0010
,
1000
0000
0000
0100
0000
0000
0001
0000
,
0100
0000
0000
0010
0000
0000
0000
0000
,
1000
0000
0001
0100
,
0010
0000
0000
1000
0000
0000
0001
0000
,
0000
0100
0010
1000
,
0001
0000
0000
0010
0000
0000
0000
0000
,
0000
0010
0000
0000
0100
0000
1000
0000
,
0001
0100
0000
0000
,
0100
0000
1000
0000
0000
0000
0001
1000
,
0000
0010
0000
0000
0000
1000
0001
0000
,
0000
0100
0000
0010
,
0100
0000
0000
0000
,
1000
0000
0000
0000
,
0001
0000
0000
0000
,
0010
0000
0000
0000
,
0100
0000
0000
0000
,
0010
0000
0000
0000
,
1000
0000
0000
0000
,
0001
0000
0000
0000
,
0010
0000
0000
0000
,
1000
0000
0001
0000
,
0100
0000
0000
0000
,
0010
0000
0001
0000
,
1000
0000
0000
0000
,
0010
0000
0100
0000
,
0010
0000
0000
0000
,
1000
0000
0000
0000
,
0001
0000
0000
0000
,
0010
0000
0100
0000
,
1000
0000
0000
0001
0000
0000
0000
0000
,
0000
0000
0100
0000
1000
0000
0000
0001
,
0000
1000
0000
0000
,
0010
0000
0000
0100
0000
0000
0000
1000
,
0000
0001
0000
0100
,
1000
0000
0001
0000
0000
1000
0000
0000
,
0110
0000
0001
0000
1000
0000
0000
0100
,
0000
0001
0000
1000
,
0000
0100
0000
0010
0000
1000
0000
0000
,
0001
0000
0000
0100
0000
0000
0000
0000
,
1000
0001
0100
0000
,
1000
0000
0000
0001
0000
0000
0100
0000
,
0000
0000
0010
0000
0000
0000
0000
0000
0100
0000
0000
1000
0000
0000
0001
0000
,
0000
0000
0000
1000
0000
0000
0000
0001
,
0000
0000
0000
0010
0000
0000
0000
0100
,
0000
0000
1000
0000
,
0001
0000
0200
0000
,
0310
0001
0010
0000
,
1000
0000
0001
0100
,
0010
0000
0000
0000
,
1000
0000
0001
0000
,
0100
0000
0001
0000
,
0010
0000
0100
1000
,
0001
0000
0100
0000
,
0010
0000
0001
1000
,
0001
0000
0100
0000
,
0010
0000
1000
0000
,
0001
0000
0000
0000
,
0010
0000
0000
0000
,
0100
0000
1000
0000
,
0001
0000
0000
0000
,
0100
0000
0000
0000
,
0010
0000
0000
0000
,
1000
0000
0000
0010
0000
0000
0000
0001
,
0000
0000
0000
1000
0000
0000
0001
0000
,
0000
0100
0000
0000
,
0010
0000
0000
1000
0000
0000
0000
0001
,
0000
0000
0000
0100
0000
0000
0000
0010
,
0000
0000
0000
1000
0000
0000
0000
0000
,
0002
0000
0000
0000
,
0000
0000
0000
0000
,
0000
1003
0000
0000
;

//--------------- dance-single - ----------------
#NOTES:
     dance-single:
     :
     Easy:
     8:
     0,0,0,0,0:
0000
0000
0000
0000
,
0000
0000
0000
0000
,
0000
0000
0000
0000
,
0000
0000
0000
0000
,
0001
0000
0000
0001
0000
0000
0000
0100
,
0000
0000
0000
1000
0000
0000
0000
0100
,
0000
0000
1000
0001
0000
0000
0000
0000
,
1001
0000
0000
0100
0000
1000
0000
0000
,
1000
0001
0000
0100
,
0010
0000
0001
0100
0000
0000
1000
0000
,
0001
0000
1000
0100
0000
0000
0010
0000
,
0100
0000
0001
1000
0000
0000
0001
0000
,
0100
0000
0001
0010
0000
1000
0000
0000
,
0001
0000
0001
0100
0000
0000
0010
0000
,
0100
0000
0001
1000
0000
0000
0001
0000
,
0100
0000
1000
0010
0000
0000
0001
0000
,
1000
0001
0000
0100
1000
0000
0001
0000
,
0100
0000
0000
1000
0000
0000
0001
0000
,
0010
1000
0000
0100
0000
2000
0000
0000
,
3001
0100
0000
0010
0000
0000
0100
0000
,
0000
0020
0000
0000
0000
0000
1030
0000
,
0100
0000
0010
0000
1000
0000
0001
0010
,
1000
0000
0000
0100
0000
0000
0001
0000
,
0100
0000
0000
0010
0000
0001
0010
0000
,
1000
0100
0001
0100
,
0010
0000
0001
1000
0000
0000
0001
0000
,
0000
1000
0100
0000
0010
0000
1000
0000
,
0001
0000
1000
0010
0000
0000
1001
0000
,
0000
0010
0000
0000
0100
0000
1000
0000
,
0001
0000
0100
0000
0000
0001
1000
0000
,
0100
0000
1000
0000
0000
0010
0001
1000
,
0000
0010
0000
0000
0000
1000
0001
0000
,
0010
0100
1000
0010
,
0100
0000
0010
0000
,
1000
0100
0010
0000
,
0001
0000
1000
0000
,
0010
0001
0010
0000
,
0100
0000
1000
0000
,
0010
0001
0010
0000
,
1000
0000
0100
0000
,
0001
0000
1000
0000
,
0010
0100
1000
0000
,
1000
0010
0001
0000
,
0100
0001
1000
0000
,
0010
1000
0001
0100
,
1000
0000
0010
0000
0000
1000
0000
0000
,
0010
0001
0100
0000
,
0010
0000
0000
1000
0000
0000
0001
0000
,
1000
0000
0000
0010
0000
0000
0000
0000
,
0001
0000
0000
1000
0000
0000
0000
0000
,
0010
0000
0100
0000
,
1000
0000
0000
0001
0000
1000
0000
0001
,
1000
0000
0100
0000
1000
0000
0000
0001
,
0100
1001
0100
0000
,
0010
0000
0000
0100
0000
0000
0000
1000
,
0000
1001
0000
0100
,
1000
0000
0001
0000
0000
1000
0000
0000
,
0110
0000
0001
0000
1001
0000
0000
0100
,
0000
1001
0010
1000
,
0000
0100
0000
0010
0000
1000
0000
0000
,
0101
0000
0000
0100
0000
0001
0000
0100
,
1000
0001
0100
0000
,
1000
0000
0100
0001
0000
0000
0100
0000
,
0000
0000
0010
0000
1000
0000
0000
0000
0100
0000
0000
1000
0000
0000
0001
0000
,
0000
0000
0000
1000
0000
0000
0000
0001
,
0000
1000
0000
0010
0000
0000
0000
0100
,
0000
0000
0000
0000
1000
0000
0000
0010
,
0001
0000
0200
0000
,
0310
0001
0010
0100
,
1000
0100
0001
0100
,
0010
1000
0100
0001
,
1000
0010
0001
1000
,
0100
0010
0001
1000
,
0010
0001
0100
1000
,
0001
0010
0100
1000
,
0010
0100
0001
1000
,
0001
0010
0100
1000
,
0010
0001
1000
0100
,
0001
1000
0010
0001
,
0010
0100
0001
1000
,
0100
0001
1000
0000
,
0001
0000
0100
0000
,
0200
0000
0000
0000
,
0320
0000
0000
0000
,
1030
0000
0000
0010
0000
0000
0000
0001
,
0000
0000
0000
1000
0000
0000
0001
0000
,
0000
0100
0000
0000
,
0010
0000
0000
1000
0000
0000
0000
0001
,
0000
0000
0000
0100
0000
0000
0000
0010
,
0000
0000
0000
1000
0000
0000
0000
0000
,
0002
0000
0000
0000
,
0000
0000
0000
0000
,
0000
2003
0000
0000
,
0000
0000
0000
0002
,
0000
0000
0000
0000
,
0000
0000
0000
0000
,
0000
0000
0000
3003
0000
0000
0000
0000
;

//--------------- dance-single - ----------------
#NOTES:
     dance-single:
     :
     Medium:
     12:
     0,0,0,0,0:
0000
0000
0000
0000
,
0000
0000
0000
0000
,
0000
0000
0000
0000
,
0000
0000
0000
0000
,
0100
0000
0000
0011
0000
1000
0000
0110
,
0000
0000
0001
1000
0010
0001
1000
0100
,
0000
0000
0010
0001
0000
0100
0001
0100
,
1000
0001
0010
0100
0000
1001
0000
0110
,
1000
0000
0101
1000
0100
0000
0100
0000
,
0010
1000
0001
0100
0000
0100
1000
0000
,
0001
1000
0001
0100
0000
1000
0010
0000
,
0100
0001
0010
1000
0000
0100
0001
0000
,
0100
1000
0001
0010
0000
1000
0100
0000
,
0001
1000
0001
0100
0000
1000
0010
0000
,
0100
0001
0010
1000
0000
0100
0001
0000
,
0100
0000
1000
0000
0001
0000
0010
0000
0000
0000
0100
0000
0001
0000
0010
0100
,
1000
0000
0001
0000
0010
0000
0100
0000
1000
0010
0100
0000
0001
0000
1000
0000
,
0100
0000
0010
1001
0000
0000
0002
0000
,
0000
1003
0000
0100
0010
2000
0000
0000
,
3001
0000
0000
0110
0000
0000
0100
0000
,
0000
0020
0000
0000
0000
0000
1030
0000
,
0100
0000
0010
0000
0000
1000
0001
0010
,
1000
0000
0001
0100
0000
1000
0001
0000
,
0100
0000
1000
0000
0001
0100
0001
0000
,
1000
0000
0100
1000
0001
1000
0100
0000
,
0010
0000
0100
1100
0000
0010
0001
0000
,
0000
0001
0100
1000
0010
0001
0000
0100
,
0001
0000
0000
0010
0000
0000
1000
0000
0000
0000
0000
0000
1000
0000
0000
0000
,
0000
0010
0000
0000
0100
0000
1000
0010
,
0001
0000
0100
0000
0000
1000
0001
0000
,
0100
0001
1000
0000
0010
0100
0001
1000
,
0000
0010
1000
0001
0000
1000
0001
0000
,
0010
0000
0100
1000
0001
0100
0010
0000
,
0100
1000
0001
0100
,
1000
0010
0100
1000
,
0001
0100
1000
0000
0010
0000
0100
0000
,
0010
0001
1000
0010
0000
0100
0000
1000
,
0100
0001
0010
0100
,
0010
0001
0010
0000
0100
0000
0001
0000
,
1000
0001
0100
1000
0000
0001
0100
0000
,
0001
0000
1000
0001
0000
0010
0100
0000
,
0010
1001
0001
0100
,
1000
0010
0001
1010
,
0100
0000
0001
0000
0010
0100
1000
0000
,
0011
0001
0001
0100
,
1000
0000
0001
1000
0001
0000
0100
0000
,
1010
0100
0101
0010
,
0010
0100
1000
0000
0000
0001
0010
0100
,
1000
0000
0000
1000
0000
0001
0010
0000
,
0001
0000
0000
1000
0001
0010
0000
0000
,
0010
0000
1000
0001
0100
0010
0100
0000
,
1000
0000
0000
0001
0000
1000
0000
0001
,
0000
0000
0100
0000
1000
0000
0100
0001
,
0100
1000
0010
0100
,
0010
0000
0000
0100
0000
0000
0000
1001
,
0000
0001
0010
0100
,
1000
0000
0001
0000
0000
1000
0000
0000
,
0110
0000
0001
0000
1000
0000
0000
0100
,
0000
0001
0100
1000
,
0000
0100
0000
0010
0000
1000
0000
0100
,
0001
0000
0000
0100
0000
0000
0001
0000
,
1000
0000
0001
0000
0100
0010
0000
0000
,
1000
0000
0000
0001
0000
0000
0100
0000
,
0000
0000
0010
0000
1000
0000
0000
0000
0100
0000
0000
1000
0000
0000
0001
0000
,
0000
0100
0000
1000
0000
0100
0000
0001
,
1000
0100
0000
0010
0000
0001
0000
0100
,
0000
1000
0000
0000
1000
0000
0000
0100
,
0001
0000
0200
0000
,
0310
0000
0001
0000
0010
0000
0100
0001
,
1000
0100
0010
0000
0001
0000
0100
0000
,
0010
1000
0001
0000
1000
0000
0010
0001
,
1000
0000
0010
0000
0001
1000
0010
0000
,
0100
0000
0001
0000
0001
0100
1000
0000
,
0010
0000
0001
1000
0100
0000
1000
0000
,
0001
1000
0010
0000
0100
0001
1000
0000
,
0010
0000
0100
0000
0001
0010
1000
0000
,
0001
0000
0010
0000
0100
0001
1000
0000
,
0010
0100
0001
0000
1000
0001
0100
0000
,
0001
1000
0001
0000
0100
0000
1000
0000
,
0010
0100
0001
0010
1000
0000
0001
0000
,
0100
1000
0010
0001
1000
0000
0100
0000
,
0001
0010
1000
0000
0100
0010
0001
0000
,
0100
0000
1000
0000
0001
0000
0010
0000
0100
0000
1000
0000
,
0010
0000
0100
0000
1000
0000
0001
0000
1000
0000
0010
0000
,
2000
0000
0000
3010
0000
0100
0000
0002
,
0000
0000
0103
1000
0000
0000
0001
0000
,
1000
0000
0100
0000
0010
0001
1000
0000
,
0010
0000
0100
1000
0000
0100
0000
0001
,
0000
1000
0000
0100
0000
0001
0000
0010
,
0000
0000
0100
1000
0000
1000
0000
0100
,
0002
0000
0000
1003
0000
0000
0002
0000
,
0000
0103
0000
0000
0020
0000
0000
0130
,
0000
1002
0000
0023
,
0000
0230
0000
0002
,
0000
0000
0000
0000
,
0000
0000
0000
0000
,
0000
0000
0000
0303
0000
0000
0000
0000
;

//--------------- dance-single - ----------------
#NOTES:
     dance-single:
     :
     Hard:
     16:
     0,0,0,0,0:
0000
0000
0000
0000
,
0000
0000
0000
0000
,
0000
0000
0000
0000
,
0000
0000
0000
0000
,
1000
0000
0100
0001
0000
1000
0000
0100
,
0001
0000
0010
1000
0001
1000
0000
0100
,
0000
0010
0000
0000
1000
0000
0001
0000
0100
0000
0001
0000
0000
0000
0010
0000
,
1001
0000
0000
0000
0010
0000
0100
0000
0001
0000
1000
0000
0100
0010
0001
0000
,
1000
0000
0100
0010
0001
0000
1000
0000
0100
0001
1000
0010
0100
1000
0100
0001
,
0010
0000
0100
0000
0010
1000
0100
0000
0010
0001
0100
0000
0001
0000
1000
0000
,
0010
0001
0100
0000
0001
0000
1000
0010
0100
0000
0010
0000
0001
0000
1000
0100
,
0010
0000
1000
0010
0001
0000
0010
0000
0100
0000
0010
1000
0100
0000
0010
0000
,
0001
0000
0100
0001
0010
0000
0100
0000
0001
1000
0010
0000
0100
0000
0010
0001
,
0100
0000
0010
0000
0001
0000
0100
1000
0001
0000
0010
0000
0001
0000
0100
0001
,
0010
0000
1000
0100
0001
0000
1000
0000
0010
0001
0100
0000
0010
0000
1000
0001
,
0100
0000
1000
0000
0100
1000
0010
0000
0100
0000
0010
0000
0001
0010
0100
1000
,
0001
0010
0100
0000
0010
1000
0100
0000
0010
0001
1000
0010
0100
1000
0010
0001
,
0200
0000
0000
1300
0000
1000
0002
0000
,
1003
0020
0000
0230
0000
2300
0000
0000
,
3001
0100
1000
0010
0000
0000
0200
0000
,
0000
0320
0000
0000
0000
0000
1030
0001
,
0100
1000
0010
0000
1000
0100
0001
0010
,
1000
0010
0001
0100
0010
1000
0002
0000
,
0103
0000
1000
0000
0100
0001
0010
0000
1000
0000
0001
0000
0010
0000
0001
0000
,
1000
0000
0100
0001
0000
1000
0000
0010
0001
0000
1000
0000
0100
0000
0001
0000
,
0010
0100
0010
1000
0000
0000
0002
0000
,
0000
1003
0100
0001
0010
0100
1000
0000
,
1001
0000
0000
0001
0000
0000
0110
0000
0000
0000
1000
0000
0200
0000
0000
0000
,
0000
0310
0002
0000
0203
0000
2300
0000
,
3001
0010
0200
0000
0001
1300
0001
0010
,
0100
0001
1000
0100
0001
0010
0001
1000
,
0001
0000
0010
0000
0100
0000
1000
0000
0001
0000
1000
0000
0001
0000
0000
1000
,
0001
0000
0010
0000
0100
0000
1000
0001
0100
0010
1000
0001
0010
1000
0001
0010
,
0100
0000
1000
0000
0001
0000
0010
0001
0100
0000
1000
0000
0010
1000
0100
0000
,
0001
0010
0100
0000
0001
0000
0010
1000
0100
0000
0010
0100
0001
0000
0010
0001
,
0100
0000
1000
0000
0010
0001
0100
0000
0010
0100
1000
0000
0100
0010
1000
0100
,
0001
1000
0010
0000
0100
0000
1000
0000
0001
1000
0010
0000
0001
0010
0100
0000
,
0001
1000
0100
0000
0010
0000
0100
0001
0010
0100
1000
0000
0010
0000
0100
0000
,
0001
0010
1000
0000
0010
0001
0100
0000
0010
0001
1000
0000
0001
0000
0100
0000
,
1000
0100
0001
0000
0100
0000
1000
0000
0010
0000
0001
0000
1000
0000
0010
0000
,
0001
0000
0001
0100
1000
0000
0001
0000
0100
0000
1000
0001
0100
0000
0001
0000
,
0010
0100
1000
0000
0001
0000
0100
0000
0010
0000
0100
1000
0001
0000
0010
0100
,
1000
0100
1000
0010
0001
0000
1001
0000
,
0100
1000
0100
0001
0010
0000
1000
0001
,
0010
1000
0000
0010
0001
1000
0010
0100
,
0001
1000
0001
0000
0010
0100
0010
1000
,
0100
1000
0100
1000
0001
0000
0001
0100
,
0010
0100
0001
1000
0100
1000
0100
0010
,
0100
0010
0001
0100
0010
1000
0100
0010
,
0010
1000
0001
0100
0010
0100
0010
1000
,
0001
0010
0100
1000
0100
0010
0001
0010
,
1100
0000
0000
1001
0000
0001
0010
1000
,
0010
1000
0001
0000
0100
0000
0010
0000
1001
0000
0000
0000
0100
0000
0001
0000
,
0010
0000
0100
0001
1000
0000
0000
0000
0100
0000
0001
0100
1000
0000
0100
0001
,
0010
0000
1000
0110
0000
0001
0000
1001
,
0000
0000
0101
0000
0000
0010
0101
0000
,
1010
0000
0101
0000
0000
1001
0000
0000
,
0110
0000
0000
0000
0001
1000
0000
0000
0100
0000
0001
0000
0000
0000
1100
0000
,
0000
0000
0100
0000
0101
0000
0000
0000
0002
0000
0000
0000
1003
0000
0010
0100
,
0010
1000
0100
0000
0001
0000
0010
0000
0000
0000
1001
0000
0000
0000
0100
0000
,
1001
0000
0000
0000
0001
0000
0110
0000
0000
0000
0001
0010
0100
0000
0000
0000
,
1001
0000
0000
0000
0101
0000
0000
0000
0100
0010
0001
0000
0000
0000
0100
0000
,
1100
0000
0010
0101
0000
0010
0110
0000
,
1000
0000
0010
1000
0001
0000
0010
0000
0100
0000
0000
1000
0000
0000
0001
0000
,
0000
0100
0000
1000
0000
0010
1000
0001
,
0000
1000
0001
0010
0100
0001
1000
0100
,
0000
1000
0000
0000
0010
0000
0001
0000
1000
0000
0100
0000
1000
0000
0010
0000
,
0001
0000
0010
1000
0100
0000
0001
0000
0200
0000
0000
0000
0000
0000
0000
0000
,
0310
0000
0001
0000
1000
0100
0001
0000
0100
0000
0010
1000
0100
0000
0001
0000
,
1000
0000
0100
0001
1000
0000
0100
0000
1000
0000
0010
0000
0100
0000
0010
0000
,
0100
0001
0010
0100
1000
0000
0100
0000
0010
0001
0100
1000
0010
0000
0001
0000
,
0010
0000
0001
0010
0100
0000
0001
0000
1000
0000
0100
0001
0010
0000
0100
0000
,
1000
0000
0100
0000
0010
1000
0001
0000
0100
0000
0001
0000
0100
0010
0001
0000
,
1000
0000
0010
0000
1000
0000
0010
0100
1000
0000
0001
0000
0100
0000
0001
0000
,
0010
1000
0001
0000
0010
0000
0100
0000
0010
0001
0100
0000
1000
0001
0010
0000
,
1000
0000
0010
0000
1000
0000
0100
0000
0010
0000
0001
0010
0100
0000
0001
0010
,
1000
0000
0010
0000
0100
0000
0010
0000
1000
0000
0100
0000
0010
0000
0001
1000
,
0100
0000
0001
0000
0100
0000
0001
0000
0010
0000
0100
0001
1000
0000
0001
0000
,
0100
0000
0010
0000
0100
0000
0010
0001
1000
0000
0010
0100
1000
0000
0100
0000
,
1000
0001
0100
0000
0010
0000
0100
0000
0010
0000
0001
1000
0100
0000
0010
0000
,
1000
0000
0010
0000
1000
0000
0100
0001
1000
0000
0100
0000
0010
0000
0001
0000
,
0010
0000
0001
0010
1000
0000
0100
0000
1000
0000
0100
0000
1000
0000
0010
0000
,
1000
0001
0100
0000
1000
0000
0100
0000
0010
0001
0100
0000
,
1010
0000
0001
0000
1000
0000
0010
0000
0000
0100
0000
0000
,
2000
0000
3100
0010
0000
2000
0000
3001
,
0000
0010
0100
2000
0000
0000
3001
0100
,
2000
0000
3100
0001
0010
1000
0001
0100
,
0020
0000
0130
1000
0000
0200
0000
0301
,
0000
1000
0001
0200
0000
0301
0000
0010
,
1000
0000
0100
1000
0000
0100
0000
1000
,
0001
0000
0000
1000
0000
0000
0100
0000
0000
0010
0000
0000
1000
0000
0000
0001
,
0000
0000
0010
0000
0000
1000
0000
0000
0001
0000
0000
0100
0000
0000
0020
0000
,
0000
2000
0000
0000
,
0000
0000
0000
0000
,
0000
0000
0000
0000
,
0000
0000
0000
0000
,
0000
0000
0000
3030
0000
0000
0000
0000
;
