#TITLE:Love You;
#ARTIST:BEMANI Sound Team "KE!JU";
#GENRE:けものフレンズ×NonStopDance -フレンズの歌の音楽-;
#MUSIC:Love You.ogg;
#BANNER:Love You.png;
#BACKGROUND:Love You-bg.png;
#CDTITLE:./CDTitles/NSD A3.png;
#SAMPLESTART:17.520;
#SAMPLELENGTH:15.000;
#SELECTABLE:YES;
#OFFSET:0.000;
#BPMS:0.000=128.000;
#STOPS:;
#BGCHANGES:;
#FGCHANGES:;

//--------------- dance-single - ----------------
#NOTES:
     dance-single:
     :
     Beginner:
     2:
     0,0,0,0,0:
0000
0000
0000
0000
,
0000
0000
0000
0000
,
0000
0000
0000
0000
,
0000
0000
0000
0000
,
0000
0000
0000
0000
,
0000
0000
0000
0000
,
0100
0000
0000
0000
,
0100
0000
0000
0000
,
0010
0000
0010
0000
,
0010
0000
0000
0000
,
1001
0000
0100
0000
,
0010
0000
0001
0010
,
0100
0000
1000
0000
,
0001
0000
0100
0000
,
0010
0000
0100
0000
,
1000
0000
0001
0000
,
0010
0000
0100
0000
,
0010
0000
1000
1000
,
1000
0000
1001
0000
,
0100
0000
0010
0000
,
0001
0000
0010
0000
,
0100
0000
1000
0000
,
0010
0000
0100
0000
,
0010
0000
0001
0000
,
0100
0000
1000
0000
,
0010
0000
0100
0100
,
0010
0000
0000
0000
,
0000
0000
0000
0000
,
0000
0000
0000
0000
,
0000
0000
0000
0000
,
2002
3003
0000
0000
,
0100
0000
0000
0010
0000
0000
0000
0000
,
1000
0000
0000
0001
0000
0000
0200
0000
,
0000
0000
0000
0300
,
0010
0000
0100
0000
,
1000
0000
0001
0000
,
0010
0000
0100
0000
,
0010
0000
0001
0000
,
1000
0000
1000
0000
,
0001
0000
0001
0000
,
1000
0100
0010
0001
,
0100
0000
0000
0000
,
0110
0000
1000
0000
,
0001
0000
0010
0100
,
1000
0000
0010
0000
,
0001
0000
0100
0010
,
0100
0000
1000
0000
,
0001
0000
0010
0000
,
0100
0000
0001
0000
,
1000
0000
0100
0100
,
0001
0000
0010
0000
,
0100
0000
1000
0001
,
0100
0000
0010
0000
,
0100
0000
1000
0000
,
0001
0000
0010
0000
,
0100
0000
1000
0001
,
0100
0000
0010
0000
,
0001
0000
0010
0010
,
0100
0000
0000
0000
;

//--------------- dance-single - ----------------
#NOTES:
     dance-single:
     :
     Easy:
     5:
     0,0,0,0,0:
0000
0000
0000
0000
,
0000
0000
0000
0000
,
0000
0000
0000
0000
,
0000
0000
0000
0000
,
0000
0000
0000
0000
,
0000
0000
0000
0000
,
0100
0000
0001
0000
,
0100
0000
1000
0000
,
0010
1000
0010
0001
,
0010
0000
0000
0000
,
1001
0010
0100
1000
,
0010
0100
0001
0010
,
0100
1001
1000
0100
,
0001
0010
0100
1000
,
0010
0001
0100
0010
,
1000
0100
0001
1000
,
0010
0001
0100
1000
,
0010
0001
1000
1000
,
1000
0000
1001
0010
,
0100
1000
0010
1000
,
0001
0100
0010
0001
,
0100
0010
1000
0100
,
0010
0001
0100
1000
,
0010
0100
0001
0010
,
0100
0010
1000
0001
,
0010
0000
0100
0100
,
0010
0000
0000
0000
,
0000
0000
0000
0000
,
0000
0000
0000
0000
,
0000
0000
0000
0000
,
2002
3003
0000
0000
,
0010
0000
0000
0010
0000
0000
0100
0000
,
1000
0000
0000
0001
0000
0000
0220
0000
,
0000
0000
0000
0330
,
0010
0001
0100
0000
,
1000
0100
0001
0000
,
0010
0001
0100
0000
,
0010
1000
0001
0000
,
1000
0010
1000
0100
,
0001
1000
0001
0100
,
1000
0001
0100
0000
0010
1000
0001
0000
,
0100
0000
0000
0000
,
0110
0001
1000
0100
,
0001
0100
0010
0100
,
1000
0001
0010
0100
,
0001
0010
0100
0010
,
0100
0001
1000
0010
,
0001
0100
0010
1000
,
0100
0010
0001
0010
,
1000
0001
0100
0100
,
0001
0100
0010
0001
,
0100
0001
1000
0001
,
0100
0110
0010
1000
,
0100
0001
1000
0100
,
0001
1000
0010
0001
,
0100
0010
1000
0001
,
0100
1000
0010
1000
,
0001
1000
0010
0010
,
0110
0000
0000
0000
;

//--------------- dance-single - ----------------
#NOTES:
     dance-single:
     :
     Medium:
     9:
     0,0,0,0,0:
0000
0000
0000
0000
,
0000
0000
0000
0000
,
0000
0000
0000
0000
,
0000
0000
0000
0000
,
0000
0000
0000
0000
,
0000
0000
0000
0000
,
0010
0100
1000
0001
,
0010
0100
0001
0010
,
0100
1000
0001
0010
0100
0001
1000
0010
,
0100
0000
0000
0000
,
1001
0000
0100
1000
0010
0000
0001
0010
,
0100
0000
0010
0001
1000
0000
0100
0000
,
0110
0000
1001
0000
0001
1000
0010
0000
,
1000
0001
0100
0000
0010
1000
0001
0010
,
0100
0000
1001
0000
0010
0001
0100
0000
,
0001
1000
0010
0000
1000
0100
0001
0010
,
0100
0000
1001
0000
0010
1000
0001
0000
,
0100
0010
1000
0001
2000
0000
3002
0000
,
1003
0010
1001
0100
,
0010
1000
0001
0000
0100
0010
0001
0000
,
2000
0000
3010
0001
0100
0000
1000
0100
,
0010
0000
0100
1000
0001
0000
0010
0000
,
0100
0000
1010
0000
0010
1000
0001
0000
,
0100
0001
0010
0100
1000
0000
0100
0000
,
0010
1000
0100
0010
0001
0000
1000
0010
,
0100
1000
0010
0010
,
0200
0000
0000
0000
,
0000
0000
0000
0000
,
0300
0000
0000
0000
,
0000
0000
0000
0000
,
2002
3003
0000
0000
,
0110
0000
0000
0110
0000
0000
0020
0000
,
0032
0000
0003
2000
0000
3000
0220
0000
,
0000
0000
0000
0330
,
0100
0000
1000
0000
0010
1000
0100
0000
,
0001
0000
0010
0000
1000
0010
0001
0010
,
0100
1000
0010
1000
,
0100
0000
0001
0000
1000
0010
0100
0010
,
0001
0100
0001
0010
,
1000
0001
1000
0010
,
0001
1000
0010
0001
0100
0001
1000
0100
,
0010
0000
0010
0010
,
0110
0000
1000
0100
0001
1000
0010
0000
,
1000
0001
0010
1000
0100
0000
0010
0000
,
0001
0000
1010
0001
0100
0001
0010
0100
,
1000
0000
0100
0000
0010
1000
0200
0000
,
0310
0000
1001
0010
0001
1000
0100
0010
,
1000
0100
0010
0000
0100
1000
0001
0100
,
0020
0000
0130
0001
1000
0010
0100
1000
,
0001
0100
1000
0100
0010
0000
0010
0000
,
1000
0000
0000
0010
0000
1000
0100
0000
0000
1000
0000
0001
,
0010
0000
0000
1000
0000
0010
0001
0000
0010
0000
1000
0000
,
0010
0000
0000
0110
0000
1000
0100
0000
0000
0001
0000
1000
,
0010
0000
0000
1000
0000
0010
0001
0000
0010
0000
0100
0000
,
1000
0000
0010
0001
0000
0010
0100
0000
0010
1000
0000
0100
,
0010
0000
0001
0100
0000
1000
0001
0000
0010
0000
1000
0000
,
0010
0000
0000
0001
0010
0000
0100
0000
1000
0001
0000
0000
,
1000
0000
0010
0001
0000
0000
0100
0000
0000
0100
0000
0000
,
1001
0000
0000
0000
;

//--------------- dance-single - ----------------
#NOTES:
     dance-single:
     :
     Hard:
     13:
     0,0,0,0,0:
0000
0000
0000
0000
,
0000
0000
0000
0000
,
0000
0000
0000
0000
,
0000
0000
0000
0000
,
0000
0000
0000
0000
,
0000
0000
0000
0000
,
0001
0010
1000
0001
,
0100
0010
1000
0001
,
0100
0000
0010
0000
1000
0000
0001
0000
0010
0100
0010
0100
0010
0100
0010
0100
,
0020
0000
0000
0030
,
0110
0000
1001
0010
1000
0001
0100
0002
,
0000
1003
0001
0010
1000
0001
0100
0010
,
0100
0000
0110
0001
1000
0001
0100
0020
,
0000
0130
1000
0002
0000
0103
0010
1000
,
0101
0000
0110
1000
0001
0100
0010
0200
,
0000
1300
0001
0200
0000
1300
0001
0010
,
0100
0000
0110
1000
0001
0100
0010
0200
,
0000
1300
0001
0000
0100
0000
0100
0000
,
0110
0000
1000
0001
0010
0100
1000
0002
,
0000
0103
1000
0010
0001
0100
0010
0100
,
0110
0000
1001
0100
0010
0001
0010
0200
,
0000
0310
1000
0001
0100
0010
0100
1000
,
0001
0000
0110
0001
1000
0001
0100
0020
,
0000
0130
1000
0002
0000
0103
0010
1000
,
0001
0000
0110
1000
0001
0100
0010
0100
,
1000
1000
1000
0001
,
2002
0000
0000
0000
,
0000
0000
0000
0000
,
3003
0000
0000
0000
,
0000
0000
0000
0001
1000
0000
1000
0000
,
0220
0330
0000
0000
,
2002
0000
3003
1000
1100
0000
0110
0000
,
0202
0000
0303
0202
0000
0303
2002
0000
,
0000
0000
3003
0100
0010
0000
0010
0000
,
0110
0000
1000
0000
0100
0000
0010
1000
,
0001
0000
0010
0001
0100
0000
1000
0010
,
0100
0000
0010
0000
0001
0000
0010
1000
,
0001
0000
1000
0100
0001
0000
0100
0010
,
0100
0010
1000
0001
0100
0010
1000
0001
,
0100
0010
0100
1000
0001
0010
0100
1000
,
0001
1000
0001
0000
1000
0001
1000
0000
0001
1000
0001
0000
1000
0001
1000
0000
,
0220
0000
0330
1000
0001
0000
0001
0000
,
0110
0000
1001
0010
1000
0001
0100
0002
,
0000
1003
0001
0010
1000
0001
0100
0010
,
0100
0000
0110
0001
1000
0001
0100
0020
,
0000
0130
1000
0002
0000
0103
0010
1000
,
0101
0000
0110
1000
0001
0100
0010
0200
,
0000
1300
0001
0200
0000
1300
0001
0010
,
0100
0000
0110
1000
0001
0100
0010
0200
,
0000
1300
0001
0010
0100
0000
0100
0000
,
0110
0000
0000
0001
0100
0001
0100
0000
0000
1000
0010
0001
,
1000
0000
0000
0001
1000
0001
0010
0000
0100
0000
1000
0000
,
0110
0000
0000
1000
0001
0010
0200
0000
0000
1300
0001
0010
,
0200
0000
0000
1300
0100
0010
0200
0000
0301
0000
0010
0000
,
0110
0000
0000
1000
0001
0010
0200
0000
0000
1300
0001
0010
,
0200
0000
0000
0310
0100
1000
0001
0000
0010
0000
0100
0000
,
1000
0000
0000
0010
0001
0100
2000
0000
0000
3001
0100
0010
,
0002
0000
0000
1003
0100
0010
0001
0000
0010
0000
1000
0000
,
2002
0000
0000
0000
,
3003
0000
0000
0000
;
