#TITLE:Lost Dream;
#ARTIST:Tatsunoshin;
#GENRE:jubeat;
#MUSIC:Lost Dream.ogg;
#BANNER:Lost Dream.png;
#BACKGROUND:Lost Dream-bg.png;
#CDTITLE:./CDTitles/jubeat Ave.png;
#SAMPLESTART:87.993;
#SAMPLELENGTH:15.000;
#SELECTABLE:YES;
#OFFSET:0.000;
#BPMS:0.000=180.000
,296.000=720.000
,300.000=180.000
,338.000=360.000
,340.000=180.000
,360.000=184.000
,364.000=180.000
;
#STOPS:;
#DISPLAYBPM:180.000;
#BGCHANGES:;
#FGCHANGES:;

//--------------- dance-single - ----------------
#NOTES:
     dance-single:
     :
     Beginner:
     4:
     0,0,0,0,0:
0000
0000
0000
0000
,
0000
0000
0000
0000
,
0000
0000
0000
0000
,
0000
0000
0000
0000
,
0000
0000
0000
0000
,
0000
0000
0000
0000
,
0100
0000
0001
0000
,
0100
0000
0000
0000
,
1000
0000
0001
0000
,
0100
0000
0000
0000
,
1001
0000
0000
0000
,
0100
0000
0000
0000
,
0010
0000
0000
0000
,
0001
0000
0000
0000
,
1000
0000
0001
0000
,
0100
0000
0010
0000
,
2002
0000
0000
0000
,
3003
0000
0000
0000
,
0110
0000
0001
0000
,
1000
0000
0100
0000
,
0010
0000
0001
0000
,
1000
0000
0002
0000
,
1003
0000
0010
0000
,
0100
0000
1000
0000
,
0001
0000
0100
0000
,
0020
0000
0000
0000
,
0130
0000
0000
0000
1000
0000
0000
0001
,
0000
0000
0000
0000
0100
0000
0000
0010
,
0000
0000
0000
0000
1000
0000
0000
0001
,
0000
0000
0100
0000
,
0010
0000
0100
0000
,
1000
0000
0001
0000
,
1000
0100
0010
0001
,
0010
0000
0000
0000
,
0110
0000
1000
0001
,
0100
0010
0100
1000
,
0001
0100
0010
0001
,
0010
0000
0000
0100
0000
0000
1000
0000
0000
0001
0000
0000
1000
0000
0000
0000
,
0100
0010
1000
0001
,
0100
0010
0100
1000
,
0001
0100
0010
0001
,
2000
0000
0000
0000
,
3001
0000
0000
0000
,
0010
0000
0000
0000
,
0100
0000
0000
0000
,
0001
0000
0000
0000
,
0100
0000
0000
0000
,
1000
0000
0000
0000
,
0001
0000
0000
0000
,
0010
0000
0100
0000
,
2000
0000
0000
3000
,
0000
0000
0000
0000
,
0002
0000
0000
0003
,
0000
0000
0000
0000
,
0020
0000
0000
0030
,
0000
0000
0000
0000
,
0200
0000
0000
0000
,
0300
0000
0000
0000
,
1001
0000
0000
0100
0000
0000
0000
0000
,
0100
0000
0000
1000
0000
0000
0000
0000
,
0001
0000
0000
0100
0000
0000
0001
0000
,
0100
0000
0010
0000
,
1000
0000
0001
0000
,
0100
0000
0010
0000
,
0001
0010
0100
1000
,
0000
0000
0000
0000
,
1001
0000
0100
0000
,
0010
0000
0001
0000
,
0100
0000
1000
0000
,
0001
0000
0000
0000
,
0100
0000
0010
0000
,
1000
0000
0001
0000
,
0100
0000
0010
0000
,
0001
0000
0000
0000
,
0000
0000
0000
0000
,
1000
0000
0001
0000
,
0100
0000
0000
0010
,
0000
0100
0000
0010
,
0000
0001
1000
0001
,
0000
0100
0000
0010
,
0000
1000
0000
0001
,
0000
0100
0000
1000
,
0001
0100
0000
0020
,
0000
0000
0000
0000
,
0030
0000
0000
0000
,
1001
0100
0010
0000
,
0001
1000
0001
0000
,
0100
0000
0010
0000
,
0001
0000
1000
0000
,
0001
0100
0010
1000
,
0001
0000
0000
0000
,
1001
0000
0000
0000
;

//--------------- dance-single - ----------------
#NOTES:
     dance-single:
     :
     Easy:
     6:
     0,0,0,0,0:
0000
0000
0000
0000
,
0000
0000
0000
0000
,
0000
0000
0000
0000
,
0000
0000
0000
0000
,
0000
0000
0000
0000
,
0000
0000
0000
0000
,
0100
0000
0001
0000
,
0100
0000
1000
0001
,
1000
0000
0001
0000
,
0100
0010
2000
3001
,
2002
3003
0000
0002
,
0203
0000
0300
0010
,
0120
0000
1030
0100
,
0002
0000
0013
0100
,
1000
0100
0001
0010
,
0100
0001
0010
1000
,
2002
0000
0000
0000
,
3003
0000
0000
0000
,
0110
1000
0001
0100
,
1000
0010
0100
0001
,
0010
1000
0001
0100
,
1000
0010
0002
0000
,
1003
0100
0010
0001
,
0100
1000
0001
0100
,
0001
0010
0100
0001
,
0020
0000
0000
0000
,
0130
0000
0001
0000
1000
0000
0000
0001
,
0000
0000
1000
0000
0100
0000
0000
0010
,
0000
0000
0001
0000
1000
0000
0000
0001
,
0000
0010
0100
1000
,
0010
0001
0100
0001
,
1000
0100
0001
0010
,
1000
0001
0100
0000
0010
1000
0001
0000
,
0010
0200
0020
0330
,
0110
0001
1000
0001
,
0100
0000
0010
0000
0100
0000
1000
0010
,
0001
0000
0100
0000
0010
1000
0001
0000
,
0010
0000
0000
0100
0000
0000
1000
0000
0000
0001
0000
0000
1000
0000
0000
0000
,
0100
0010
1000
0001
,
0100
0000
0010
0000
0100
0000
1000
0010
,
0001
0000
0100
1000
0010
0000
0001
0100
,
2000
0000
0000
0000
,
3001
0000
0100
0000
,
0010
0000
0000
0000
,
0100
0000
0001
0000
,
1000
0000
0000
0000
,
0100
0000
0010
0000
,
1000
0000
0000
0000
,
0001
0000
0010
0000
,
0001
0000
0000
0000
,
2000
0000
0000
3010
,
0100
0000
1000
0000
,
0002
0000
0000
1003
,
0100
0000
0010
0000
,
0020
0000
0000
1030
,
0100
0000
0010
0000
,
0200
0000
0000
0001
,
0310
0000
0001
0000
,
1001
0000
0000
0100
0000
0000
1000
0000
,
0100
0000
0000
1000
0000
0000
0100
0000
,
0001
0000
0000
0100
0000
0000
0001
0000
,
0100
0000
0000
1000
0000
0000
0001
0000
0000
0010
0000
0000
0100
0000
0000
0000
,
1000
0000
0001
0000
,
0100
0000
0010
0000
,
0001
0010
0100
1000
,
0020
0000
0000
0130
,
1001
0001
0100
1000
,
0010
0000
0100
0000
0001
0000
1000
0001
,
0100
0001
1000
0100
,
0001
0000
0010
0000
0100
0000
1000
0001
,
0100
0001
0010
0100
,
1000
0100
0001
1000
,
0100
0000
0010
0000
0001
0000
1000
0100
,
0001
1000
0100
0010
,
0000
0000
0000
0000
,
1001
0100
0001
0010
,
0100
0001
1000
0010
,
0001
0100
0010
0001
,
1000
0000
0001
0000
1000
0100
0001
0000
,
1000
0100
0001
0010
,
0100
1000
0010
0001
,
0100
0010
0000
1000
0000
0001
1000
0000
,
0001
0100
1000
0020
,
0000
0000
0000
0000
,
1030
0100
0010
0000
,
1001
0100
0010
1000
,
0001
1000
0001
0010
,
0100
1000
0010
1000
,
0001
0100
1000
0010
,
0001
1000
0100
0000
0010
0001
1000
0000
,
0001
0000
0000
0000
,
2002
0000
0000
0000
,
3003
0000
0000
0000
;

//--------------- dance-single - ----------------
#NOTES:
     dance-single:
     :
     Medium:
     12:
     0,0,0,0,0:
0000
0000
0000
0000
,
0000
0000
0000
0000
,
0000
0000
0000
0000
,
0000
0000
0000
0000
,
0000
0000
0000
0000
,
0000
0000
0000
0000
,
0100
1000
0001
1000
,
0100
0001
1000
0001
,
1000
0100
0001
1000
,
0100
0010
2000
3001
,
2002
3003
0100
0002
,
0203
0000
0000
0000
1300
0001
0010
0000
,
0120
0000
0000
0000
1030
0001
0100
0000
,
0002
0000
0000
0000
0013
1000
0100
0000
,
1000
0100
0001
0010
,
0100
0001
0010
1000
,
0100
1000
0100
0010
0001
0010
1000
0001
,
0020
0000
0000
0130
,
0110
0000
1000
0000
0001
1000
0100
0000
,
1000
0000
0010
0000
0100
0010
0001
0000
,
0010
0001
1000
0000
0001
0010
0100
0000
,
1000
0001
0010
0000
0002
0000
0023
0000
,
1030
0001
0100
0000
0010
0000
0001
0000
,
0100
0010
1000
0000
0001
0000
0100
0000
,
0001
1000
0010
0000
0100
1000
0001
0000
,
0020
0000
0100
0000
0100
0100
0100
0000
,
0130
0000
0001
0000
1000
0100
1000
0001
,
0000
0000
1000
0000
0100
0001
1000
0010
,
0000
0000
0001
0100
1000
0001
0100
0001
,
0000
0000
0010
1000
0100
0000
1000
0000
,
0010
1000
0001
0000
0100
0010
0001
0000
,
1000
0001
0100
0000
0001
1000
0010
0000
,
1000
0001
0100
1000
0010
1000
0001
1000
,
0010
0200
0020
0330
,
0110
1000
0001
0100
1000
0000
0101
0000
,
0110
0000
1010
0000
0101
0000
1000
0010
,
0001
0000
1100
0000
0010
1000
0001
1000
,
0010
0000
0000
0100
0000
0000
1000
0000
0000
0001
0000
0000
1000
0000
0000
0000
,
0100
0010
1000
0001
,
0100
1000
0010
0000
0100
0000
1000
0010
,
0001
1000
0100
1000
0010
1000
0001
0100
,
2000
0000
0000
0000
,
3001
0010
0100
1000
,
0010
1000
0000
0001
,
0100
1000
0001
0100
,
1000
0010
0000
0100
,
0100
1000
0010
0001
,
1000
0010
0100
0000
,
0001
1000
0010
1000
,
0001
0100
0001
0010
,
2100
0000
0001
3010
,
0100
0000
1000
0000
,
0002
1000
0000
1003
,
0100
0001
0010
1000
,
0020
0000
0000
1030
,
0100
1000
0010
0001
,
0200
0000
0000
0001
,
0310
0000
0001
0000
,
0001
0000
0000
0110
0000
0000
1000
0000
,
0101
0000
0000
1000
0001
0000
0100
0000
,
0001
0000
1000
0110
0000
0000
1001
0000
,
0100
0000
0000
1000
0000
0000
0001
0000
0000
0010
0000
0000
0100
0000
0000
0000
,
1000
0100
0001
0010
,
0100
0001
0010
1000
,
0001
1000
0010
0001
0100
0010
1000
0100
,
0020
0000
0000
0130
,
1001
0000
0001
0000
0100
0001
1000
0000
,
0010
0000
0100
0000
0001
0010
1000
0001
,
0100
0000
0001
0000
1000
0001
0100
0000
,
0001
1000
0010
0000
0100
0010
1000
0001
,
0100
0000
0001
0000
0010
0000
0100
0001
,
1000
0000
0100
0000
0001
0010
1000
0000
,
0100
1000
0010
0000
0001
0100
1000
0100
,
0001
0000
1000
0000
0100
0001
0010
1000
,
0100
0000
0000
0000
,
1001
0000
0100
0000
0001
0000
0010
1000
,
0100
0000
0001
0000
1000
0001
0010
0000
,
0001
0000
0100
0001
0010
0000
0001
0100
,
1000
0000
0001
0100
1000
0100
0001
0000
,
1000
0000
0100
0000
0001
1000
0010
0000
,
0100
0000
1000
0001
0010
0000
0001
1000
,
0100
0010
0000
1000
0000
0001
1000
0000
,
0001
0100
1000
0020
,
0000
0100
0000
0100
,
1030
0000
0100
1000
0010
0000
0000
0000
,
1001
0000
0100
0000
0010
0001
1000
0000
,
0001
0000
0000
0100
0000
0000
1000
0000
0000
0001
0000
0000
0010
0000
1000
0000
,
0100
0001
1000
0000
0010
0001
1000
0000
,
0001
1000
0100
0000
1000
0001
0010
0000
,
0001
1000
0100
1000
0010
0001
1000
0100
,
0001
0000
0000
0000
,
2002
0000
0000
0000
,
3003
0000
0000
0000
;

//--------------- dance-single - ----------------
#NOTES:
     dance-single:
     :
     Hard:
     17:
     0,0,0,0,0:
0000
0000
0000
0000
,
0000
0000
0000
0000
,
0000
0000
0000
0000
,
0000
0000
0000
0000
,
0000
0000
0000
0000
,
0000
0000
0000
0000
,
2000
0001
0000
0001
,
3002
0000
1000
0000
0000
0000
1000
1000
,
2003
3020
0000
0230
,
0001
0320
2030
3200
,
0301
1000
0010
0100
2002
3003
0020
0000
,
0130
0010
1000
0001
2020
3030
0020
0000
,
0130
0001
1000
0001
0220
0330
0002
0000
,
1003
0001
0010
0100
0022
0033
2000
0000
,
3001
1000
0100
0010
1000
0001
0010
0100
,
1000
0001
0010
0100
0001
0010
0100
0001
,
1000
0100
1000
0000
0001
0100
0001
0000
1000
0001
1000
0001
1000
0001
1000
0001
,
2000
0000
0000
3001
,
0110
0000
1000
0000
0100
0000
0010
1000
0100
0000
0010
0000
0001
0000
0100
0000
,
0001
0000
0100
0000
0001
0000
0010
1000
0100
0000
0010
0000
0100
0000
0010
0000
,
0001
0000
0100
0000
0010
0000
1000
0010
0001
0000
0100
0000
0010
0000
1000
0000
,
0010
0000
1000
0100
0010
0000
0100
0000
0002
0000
0000
0000
0013
0000
0100
0000
,
0010
0000
1000
0000
0001
0000
1000
0000
0010
0000
0100
1000
0001
0000
0010
0000
,
0001
0000
1000
0000
0100
0000
0010
0000
0100
0000
1000
0001
0100
0000
1000
0000
,
0001
1000
0100
0000
0001
0010
0100
0000
0001
1000
0010
0001
0100
0010
1000
0100
,
0010
0001
0010
0000
1000
0100
1000
0000
0010
0001
0100
1000
0001
0010
0100
1000
,
0010
0000
0100
0000
0010
0000
1000
0000
0001
0000
1000
0000
0100
0000
1000
0001
,
0100
0000
0010
0000
0100
0000
0010
0000
0001
0000
0100
0000
0001
0000
0100
1000
,
0010
1000
0100
1000
0100
1000
0001
0010
,
0001
0010
0100
0020
0000
0000
0000
0000
,
0130
1000
0010
0100
1000
0010
1000
0001
,
0010
0100
0010
0100
1000
0010
1000
0010
,
1000
0001
1000
0000
0010
0100
0010
0000
1000
0001
0010
0100
0001
0100
0010
1000
,
0200
0320
0130
0110
,
0001
1000
0001
1000
0001
0000
1000
0000
2200
3300
0000
0000
0202
0303
0000
0000
,
2020
3030
0000
0000
0202
0303
0000
0000
2002
3003
0000
0000
0012
0000
0010
0000
,
0013
0000
0000
0000
2002
3003
0000
0000
0100
0010
0000
1000
0100
0000
0001
1000
,
0001
0000
0000
0220
0330
0000
2002
3003
0000
0202
0303
0000
2002
0000
3003
0000
,
0010
1000
0001
0010
0001
1000
0100
0010
,
0001
0000
1000
0000
0010
0000
0100
0000
0010
0100
1000
0010
0001
0000
1000
0000
,
0100
0001
1000
0000
0010
1000
0100
0000
0010
0100
1000
0010
0001
0100
1000
0010
,
0200
0000
0000
0320
,
2030
0100
0000
0010
,
3002
1000
0000
0010
,
0203
0010
0000
1000
,
0320
0100
0000
1000
,
0032
0100
0000
1000
,
0203
0010
0000
1000
,
0320
0100
0000
1000
,
0230
0001
0000
0010
,
0310
0000
1000
0010
0100
0100
0001
0000
,
0100
0000
1000
0010
0100
0100
0001
0000
,
0100
0000
1000
0001
0100
0100
0001
0000
,
0010
0100
1000
0000
0100
0100
0001
0000
,
0010
0100
0010
1000
0100
0010
0001
1000
0001
0100
0010
1000
,
0001
0100
0010
0000
0001
0010
0100
0000
,
1000
0001
0010
1000
0100
0100
0001
0000
,
2000
0000
3002
0000
0103
0100
0001
0000
,
2002
0000
3003
0220
0000
0000
0330
0000
,
2200
0000
3300
0000
0000
0000
0101
0000
0100
1000
0100
0000
1000
0001
1000
0010
,
0200
0000
0000
0301
0000
0000
1001
0000
,
0110
0000
0000
1000
0000
0000
0001
0000
0000
1000
0000
0000
0100
0000
0001
0000
,
0010
1000
0000
0001
0100
0000
1000
0001
,
0010
0100
0000
0001
0010
0000
0100
1000
,
0001
1000
0010
0000
0100
0001
1000
0000
0001
1000
0001
1000
0001
1000
0001
1000
,
0002
0000
1003
1001
,
0100
0000
1000
0010
0001
0000
0100
0000
0010
0000
0100
0000
0010
0000
0100
0000
,
0001
0010
1000
0000
0001
0000
0010
0000
0001
0000
0100
1000
0010
0000
1000
0000
,
0010
0000
0100
0010
0001
0000
1000
0010
0001
0000
0010
1000
0100
0000
1000
0000
,
0010
0000
1000
0001
0100
1000
0010
0000
0100
0000
0010
1000
0001
0000
1000
0100
,
0001
0000
1000
0001
0010
0000
1000
0000
0001
0000
0010
0000
0001
0000
0010
1000
,
0001
0000
1000
0000
0100
0000
0010
0000
0001
1000
0010
0000
0100
0001
1000
0000
,
0100
1000
0010
0000
0100
0000
0010
0000
0001
0000
1000
0000
0001
0000
1000
0000
,
0001
0000
0010
1000
0100
0000
0010
0100
0001
0000
1000
0000
0001
0010
0100
0000
,
1000
0000
0000
0000
,
1001
0000
0001
0000
0010
0000
0001
0000
0010
0000
0100
1000
0010
0000
0001
0000
,
1000
0000
0100
0001
0010
0000
0100
0000
1000
0001
0100
0000
1000
0000
0010
0000
,
0100
0000
0010
0000
1000
0100
0000
0001
1000
0000
0100
0000
0010
0000
0001
0000
,
0010
0000
0001
0010
0100
0000
0010
1000
0100
0010
0001
0100
1000
0000
0010
0000
,
0100
1000
0001
0000
0010
0000
0100
0000
0010
0000
0001
1000
0010
0000
0100
0000
,
1000
0100
0010
0000
1000
0010
0001
0000
1000
0000
0101
0000
2002
0000
3003
0000
,
0000
0000
0202
0303
0000
0000
2002
3003
0000
0000
0220
0330
2000
0000
0000
0000
,
0000
0000
3001
0110
,
1000
0001
1000
0000
0110
0000
0000
0000
0001
1000
0001
0000
0110
0000
0000
0000
,
0001
0000
1000
0000
0010
0000
0001
0100
1000
0000
0100
0000
0001
0000
0000
0000
,
1001
0000
0010
0000
0100
0000
0001
0000
1000
0001
0010
1000
0100
0000
1000
0000
,
0101
0000
0000
1001
0000
0000
0110
0000
0000
1001
0000
0000
0101
0000
1000
0001
,
0100
0000
0010
0000
0100
0000
0010
0000
0001
0000
1000
0100
0010
0000
1000
0100
,
0010
0000
0100
0000
0001
0000
0100
0000
0001
0000
0010
0100
0001
0000
0010
1000
,
0001
1000
0001
1000
0001
1000
0001
1000
0001
1000
0001
1000
0001
1000
0001
1000
,
0002
0000
0000
0003
,
2002
0000
0000
0000
,
3003
0000
0000
0000
;
