#TITLE:Live It!;
#ARTIST:Amateras Records feat. miko;
#GENRE:東方Projectアレンジ曲;
#MUSIC:Live It!.ogg;
#BANNER:Live It!.png;
#BACKGROUND:Live It!-bg.png;
#CDTITLE:./CDTitles/Beat Square Plus.png;
#SAMPLESTART:72.216;
#SAMPLELENGTH:15.000;
#SELECTABLE:YES;
#OFFSET:-0.023;
#BPMS:0.000=216.035;
#STOPS:;
#BGCHANGES:;
#FGCHANGES:;

//--------------- dance-single - ----------------
#NOTES:
     dance-single:
     :
     Beginner:
     2:
     0,0,0,0,0:
0000
0000
0000
0000
,
0000
0000
0000
0000
,
0000
0000
0000
0000
,
0000
0000
0000
0000
,
0000
0000
0000
0000
,
0000
0000
0000
0000
,
0000
0000
0000
0000
,
0000
0000
0000
0000
,
0000
0000
0000
0000
,
1000
0000
0000
0000
,
0000
0000
0000
0000
,
1000
0000
0000
0000
,
0000
0000
0000
0000
,
0001
0000
0000
0000
,
0000
0000
0000
0000
,
0001
0000
0000
0000
,
0001
0000
0000
0000
,
0010
0000
0000
0000
,
0010
0000
0000
0000
,
0100
0000
0000
0000
,
0010
0000
0000
0000
,
1000
0000
0000
0000
,
0001
0000
0000
0000
,
0100
0000
0000
0000
,
0010
0000
0000
0000
,
1000
0000
0000
0000
,
0001
0000
0000
0000
,
0010
0000
0000
0000
,
0100
0000
0000
0000
,
0010
0000
0000
0000
,
0100
0000
0000
0000
,
0020
0000
0000
0000
,
0030
0000
0000
0000
,
1000
0000
0000
0000
,
0001
0000
0000
0000
,
0010
0000
0000
0000
,
0100
0000
0000
0000
,
1000
0000
0000
0000
,
0001
0000
0000
0000
,
0010
0000
0000
0000
,
0100
0000
0000
0000
,
0100
0000
0000
0000
,
0010
0000
0000
0000
,
0100
0000
0000
0000
,
1000
0000
0000
0000
,
0001
0000
0000
0000
,
0010
0000
0000
0000
,
0100
0000
0000
0000
,
0100
0000
0000
0000
,
0001
0000
0000
0000
,
0000
0000
0000
0000
,
0001
0000
0000
0000
,
0000
0000
0000
0000
,
1000
0000
0000
0000
,
0000
0000
0000
0000
,
1000
0000
0000
0000
,
0000
0000
0000
0000
,
0010
0000
0000
0000
,
0000
0000
0000
0000
,
0010
0000
0000
0000
,
0000
0000
0000
0000
,
0100
0000
0000
0000
,
0000
0000
0000
0000
,
0100
0000
0000
0000
,
0010
0000
0000
0000
,
0001
0000
0001
0000
,
0001
0000
0000
0000
,
1000
0000
1000
0000
,
1000
0000
0000
0000
,
0010
0000
0100
0000
,
0010
0000
0000
0000
,
0001
0000
0000
0000
,
1000
0000
0000
0000
,
0010
0000
0010
0000
,
0010
0000
0000
0000
,
0100
0000
0100
0000
,
0100
0000
0000
0000
,
1000
0000
0001
0000
,
1000
0000
0000
0000
,
0010
0000
0000
0000
,
0110
0000
0000
0000
,
1000
0000
0000
0000
,
0000
0000
0000
0000
,
0001
0000
0000
0000
,
0000
0000
0000
0000
,
0100
0000
0000
0000
,
0000
0000
0000
0000
,
0010
0000
0000
0000
,
0000
0000
0000
0000
,
1000
0000
0000
0000
,
0001
0000
0000
0000
,
0010
0000
0000
0000
,
0100
0000
0000
0000
,
0010
0000
0000
0000
,
1000
0000
0000
0000
,
0001
0000
0000
0000
,
0010
0000
0100
0000
,
0001
0000
0001
0000
,
0001
0000
0000
0000
,
1000
0000
1000
0000
,
1000
0000
0000
0000
,
0010
0000
0100
0000
,
0010
0000
0000
0000
,
0001
0000
0000
0000
,
1000
0000
0000
0000
,
0010
0000
0010
0000
,
0010
0000
0000
0000
,
0100
0000
0100
0000
,
0100
0000
0000
0000
,
1000
0000
0001
0000
,
1000
0000
0000
0000
,
0010
0000
0000
0000
,
0110
0000
0000
0000
,
0010
0000
0000
0000
,
1000
0000
0000
0000
,
0001
0000
0000
0000
,
0010
0000
0000
0000
,
0100
0000
0000
0000
,
1000
0000
0000
0000
,
0001
0000
0000
0000
,
0010
0000
0000
0000
,
1000
0000
0000
0000
,
0010
0000
0000
0000
,
0100
0000
0000
0000
,
0010
0000
0000
0000
,
0100
0000
0000
0000
,
1000
0000
0000
0000
,
0001
0000
0000
0000
,
0000
0000
0000
0000
,
1001
0000
0000
0000
;

//--------------- dance-single - ----------------
#NOTES:
     dance-single:
     :
     Easy:
     3:
     0,0,0,0,0:
0000
0000
0000
0000
,
0000
0000
0000
0000
,
0000
0000
0000
0000
,
0000
0000
0000
0000
,
0000
0000
0000
0000
,
0000
0000
0000
0000
,
0000
0000
0000
0000
,
0000
0000
0000
0000
,
0000
0000
0000
0000
,
0000
0000
1000
0000
,
0000
0000
0001
0000
,
0000
0000
0100
0000
,
0000
0000
0010
0000
,
0000
0000
0100
0000
,
0000
0000
1000
0000
,
0000
0000
0001
0000
,
0010
0000
0100
0000
,
1000
0000
0001
0000
,
0010
0000
0100
0000
,
1000
0000
0001
0000
,
0010
1000
0001
0000
,
0100
0000
0010
0000
,
0100
0000
1000
0000
,
0002
0000
0000
0000
,
0003
0000
0100
0000
,
1000
0000
0000
0000
,
0100
0000
0000
0000
,
0001
0000
0010
0000
,
0100
0000
1000
0000
,
0001
0000
0000
0000
,
0100
0000
0010
0000
,
0200
0000
0000
0000
,
0310
0000
0000
0000
,
0001
0000
1000
0000
,
0001
0000
0100
0000
,
0010
0000
0100
0000
,
1000
0000
0001
0000
,
0010
0000
0100
0000
,
1000
0000
0001
0000
,
0100
0000
0010
0000
,
0100
0000
1000
0000
,
0001
0000
0100
0000
,
0010
0000
1000
0000
,
0001
0000
0010
0000
,
0100
0000
0001
0000
,
1000
0000
0001
0000
,
0010
0000
0100
0000
,
0010
0000
0100
0000
,
1000
0000
0000
0000
,
0001
0000
0010
0000
,
0000
0000
1000
0000
,
0000
0000
0001
0000
,
0000
0000
0010
0000
,
0000
0000
0100
0000
,
0000
0000
0010
0000
,
0000
0000
0100
0000
,
0000
0000
0010
0000
,
0000
0000
1000
0000
,
0000
0000
0001
0000
,
0000
0000
0010
0000
,
0000
0000
0100
0000
,
0000
0000
0010
0000
,
0000
0000
1000
0000
,
0001
0000
0010
0000
,
0100
1000
0001
0000
,
0100
0010
0100
1000
,
0001
0000
0100
0000
,
0001
1000
0001
0100
,
0010
0000
0001
0000
,
0010
0100
0010
1000
,
0001
0000
0100
0000
,
0001
1000
0001
0100
,
0010
0000
0100
0000
,
1000
0001
0100
0010
,
0100
0000
1000
0000
,
0001
0100
0001
0100
,
0010
0100
1000
0000
,
0010
1000
0010
1000
,
0100
0001
0100
0010
,
1000
0000
0000
0000
0001
0000
0000
1001
,
0000
0000
0000
0000
,
1000
0000
0001
0000
,
0000
0000
0010
0000
,
0000
0000
0100
0000
,
0000
0000
1000
0000
,
0000
0000
0001
0000
,
0000
0000
0010
0000
,
0000
0000
0100
0000
,
0000
0000
1000
0000
,
0001
0000
0100
0000
,
0000
0000
1000
0000
,
0001
0000
0100
0000
,
0000
0000
1000
0000
,
0001
0000
0100
0000
,
0000
0000
0010
0000
,
0100
0000
1000
0000
,
0001
0000
0100
0000
,
0010
0100
0010
0100
,
1000
0001
0100
0000
,
0001
0100
0001
0100
,
1000
0001
0100
0000
,
0010
0100
1000
0001
,
0100
0010
0100
0000
,
1000
0000
0001
0000
,
1001
0000
0100
0000
,
0010
0100
0001
0100
,
1000
0001
0100
0000
,
0010
0100
0010
0100
,
0001
0010
0000
0000
,
0010
0001
0100
1000
,
0001
0000
0100
0000
,
1000
0000
0001
0000
0100
0000
0000
1001
,
0000
0000
0000
0000
,
1000
0000
0001
0000
,
0010
0000
0100
0000
,
0010
0000
1000
0000
,
0001
0000
0010
0000
,
0100
0000
1000
0000
,
0001
0000
0010
0000
,
0100
0000
0010
0000
,
1000
0000
0001
0000
,
0010
0000
0100
0000
,
1000
0000
0001
0000
,
0100
0000
0010
0000
,
1000
0000
0001
0000
,
0100
0000
0010
0000
,
0100
0000
0001
0000
,
0100
0000
1000
0000
,
0001
0000
0000
0000
,
1001
0000
0000
0000
;

//--------------- dance-single - ----------------
#NOTES:
     dance-single:
     :
     Medium:
     7:
     0,0,0,0,0:
0000
0000
0000
0000
,
0000
0000
0000
0000
,
0000
0000
0000
0000
,
0000
0000
0000
0000
,
0000
0000
0000
0000
,
0000
0000
0000
0000
,
0000
0000
0000
0000
,
0000
0000
0000
0000
,
0000
0000
0000
0000
,
0100
0000
0010
0000
,
0100
0000
1000
0000
,
0001
0000
0010
0000
,
0100
0000
0001
0000
,
1000
0000
0010
0000
,
0100
0000
0001
0000
,
1000
0000
0001
0000
,
0010
0100
1000
0001
,
0110
0000
1000
0001
,
0100
0010
1000
0001
,
0100
0000
0010
0100
,
1000
0000
0001
0100
,
0010
0000
0100
1000
,
0001
0100
0010
1000
,
0002
0000
0000
0000
,
1003
0100
0000
1000
,
0001
0000
0100
1000
,
0001
0100
0010
1000
,
0001
0000
0100
0000
,
0010
0100
1000
0001
,
0100
0000
0010
0100
,
0001
1000
0001
0100
,
0020
0000
0000
0000
,
0230
0000
0000
0300
,
0001
1000
0001
0100
,
0010
0100
1000
0000
,
0001
0100
0001
0010
,
0100
1000
0001
0100
,
0000
0010
1000
0001
,
0100
0010
0100
0000
,
1000
0001
0100
0010
,
1000
0001
0100
0010
,
0100
1000
0001
0100
,
0010
0001
0010
0000
,
1000
0001
0100
0010
,
0100
1000
0001
0100
,
0000
1000
0001
0100
,
0010
0100
0001
1000
,
0001
0100
0010
1000
,
1001
0000
0100
0000
,
0110
0000
1000
0000
,
0000
0000
0001
0000
,
0000
0000
0010
0000
,
0000
0000
0100
0000
,
0000
0000
0010
0000
,
0000
0000
0100
0000
,
0000
0000
1000
0000
,
0000
0000
0001
0000
,
0000
0000
0010
0000
,
0000
0000
0100
0000
,
0000
0000
1000
0000
,
0000
0000
0001
0000
,
0000
0000
0010
0000
,
0000
0000
0100
0000
,
1000
0000
0001
0000
,
0010
0100
1000
0001
,
0100
1000
0001
0100
,
0010
1000
2001
0000
,
3010
0100
1000
0001
,
0010
0100
0120
0000
,
1030
0001
0100
0010
,
1000
0001
0100
0010
,
0100
1000
0001
0010
,
0200
0000
1300
0000
,
0001
0100
1000
0001
,
0100
0010
2000
0000
,
3001
0100
0010
0100
,
1000
0001
0200
0000
,
0310
0001
1000
0001
,
0100
0010
1000
0001
,
0100
0000
0010
0000
1000
0000
0000
0002
,
0000
0000
0000
0000
,
1003
0000
0010
0000
,
0000
0000
0100
0000
,
0000
0000
1000
0000
,
0000
0000
0001
0000
,
0000
0000
0010
0000
,
0000
0000
0100
0000
,
0000
0000
0001
0000
,
0000
0000
1000
0000
,
0001
0000
0010
0000
,
0000
0000
0100
0000
,
1000
0000
0001
0000
,
0000
0000
0010
0000
,
0100
0000
0010
0000
,
0000
0000
1000
0000
,
0001
0000
0100
0000
,
0010
0100
1000
0000
,
0001
0100
0010
1000
,
0001
0100
1002
0000
,
0103
0010
1000
0001
,
0100
0010
0102
0000
,
1003
0001
0100
0010
,
1000
0001
0100
0010
,
1000
0001
0100
0010
,
0200
0000
0310
0000
,
1000
0001
0100
0010
,
0100
1000
0002
0000
,
0013
0100
1000
0001
,
0100
0010
2000
0000
,
3001
0100
0001
1000
,
0010
0100
1000
0001
,
0010
0000
1000
0000
0100
0000
0000
1002
,
0000
0000
0000
0000
,
1003
0000
0010
0000
,
0100
0000
0001
0000
,
0100
0000
1000
0000
,
0001
0000
0010
0000
,
0100
0000
1000
0000
,
0001
0000
0100
0000
,
0001
0000
0100
0000
,
1000
0000
0001
0000
,
0100
0000
0010
0000
,
1000
0000
0001
0000
,
0100
0000
0000
0000
,
1000
0000
0001
0000
,
0100
0000
0010
0000
,
0010
0000
0100
0000
,
0100
0000
1000
0000
,
0001
0000
0000
0000
,
1001
0000
0000
0000
;

//--------------- dance-single - ----------------
#NOTES:
     dance-single:
     :
     Hard:
     13:
     0,0,0,0,0:
0000
0000
0000
0000
,
0000
0000
0000
0000
,
0000
0000
0000
0000
,
0000
0000
0000
0000
,
0000
0000
0000
0000
,
0000
0000
0000
0000
,
0000
0000
0000
0000
,
0000
0000
0000
0000
,
0000
0000
0000
0000
,
0100
1000
0100
0010
,
0001
1000
0010
1000
,
0001
1000
0001
0010
,
0100
1000
0010
0100
,
0001
0010
0100
1000
,
0100
1000
0010
1000
,
0010
0100
0001
1000
,
0010
0000
0100
0000
1000
0010
0001
0000
,
1001
0010
0100
1000
,
0001
0000
0100
1000
0010
0001
0100
0000
,
0200
0000
0000
0300
,
0002
0000
1003
0100
,
1000
0000
0001
0100
0000
0010
0000
1000
,
0001
0000
0100
0000
1000
0000
0001
0100
,
0020
0000
0000
0030
,
0100
0000
0100
0000
0001
0000
0100
0010
,
2000
0000
0000
0000
3000
0000
0010
0100
,
1000
0000
0001
0000
0100
0000
1000
0010
,
0002
0000
1003
0000
,
0001
0000
0100
1000
0001
0000
0100
0000
,
0020
0000
0000
0000
0030
0000
0001
1000
,
0001
0000
0010
0000
0100
1000
0001
0000
,
0210
0000
0000
0000
,
0320
0000
0000
0130
,
1000
0000
0001
0010
0100
1000
0010
0000
,
0100
1000
0001
0100
,
0010
0000
1000
0010
0001
1000
0100
0000
,
0010
0001
0100
0001
,
1000
0000
0001
0010
0100
1000
0010
0000
,
0100
1000
0001
0100
,
0010
1000
0001
0000
0010
0000
0100
0000
,
0010
0001
0100
0000
1000
0010
0001
0000
,
0100
0000
0010
0100
0001
0010
1000
0000
,
0001
0100
0010
0001
,
0100
0000
1000
0010
0001
1000
0100
0000
,
0010
0100
0001
1000
,
0001
0000
0100
0001
0010
0100
1000
0000
,
0001
0100
0010
0001
,
0100
0010
1000
0000
0001
0000
0100
0000
,
1000
0010
0001
0000
0100
1000
0010
0000
,
1001
0000
2000
0000
,
3000
0000
0002
0000
,
0003
0000
0200
0000
,
0300
0000
0020
0000
,
0030
0000
0200
0000
,
0300
0000
2000
0000
,
3000
0000
0002
0000
,
0003
0000
0020
0000
,
1030
0000
0200
0000
,
0300
0000
2000
0000
,
3010
0000
0002
0000
,
0003
0000
0020
0000
,
0130
0000
2000
0000
,
3000
0000
0200
0000
,
0320
0000
0032
0000
,
0013
0100
1000
0001
,
0110
0010
0100
1000
,
0001
0100
1001
0000
,
1000
0001
0010
0100
,
1000
0001
1001
0000
,
0100
0010
1000
0001
,
0100
0010
0100
0001
,
0100
0010
0100
1000
,
2001
0000
3001
0000
,
0010
0100
1000
0001
,
0100
0010
0110
0000
,
1000
0001
0100
0010
,
0001
0100
1001
0000
,
0001
0010
1000
0010
,
0001
0010
1000
0010
,
0100
0000
0000
0000
0110
0000
0000
2002
,
0000
0000
0000
3003
,
1001
0000
0002
0000
,
0003
0000
2000
0000
,
3000
0000
0020
0000
,
0030
0000
0200
0000
,
0300
0000
0020
0000
,
0030
0000
0002
0000
,
0003
0000
2000
0000
,
3000
0000
0200
0000
,
0301
0000
0020
0000
,
0030
0000
0002
0000
,
0103
0000
2000
0000
,
3000
0000
0200
0000
,
0310
0000
0002
0000
,
0003
0000
0020
0000
,
0230
0000
2300
0000
,
3100
0010
0001
1000
,
0110
0100
0010
0001
,
1000
0010
1001
0000
,
0001
1000
0100
0010
,
0001
1000
1001
0000
,
0010
0100
0001
1000
,
0010
0100
0010
1000
,
0010
0100
0010
0001
,
1002
0000
1003
0000
,
0100
0010
0001
1000
,
0010
0100
0110
0000
,
0001
1000
0010
0100
,
1000
0010
1001
0000
,
1000
0100
0001
0100
,
1000
0100
0001
0100
,
0010
0000
0000
0000
0110
0000
0000
2002
,
0000
0000
0000
3003
,
0001
0010
0100
1000
,
0001
0000
0010
1000
,
0001
0100
0010
0000
,
1000
0001
0100
0010
,
1000
0000
0001
0100
,
0010
1000
0001
0000
,
0100
0010
1000
0001
,
0100
1000
0001
0100
,
0010
0000
0100
1000
,
0001
0000
0100
0001
,
0100
0000
1000
0001
,
0100
0000
0010
0000
,
1000
0000
0001
0100
,
0010
0000
1000
0001
,
0100
0000
0010
0000
,
1000
0000
0000
0000
,
2002
0000
0000
0000
,
3003
0000
0000
0000
;
