#TITLE:Lava Flow;
#ARTIST:BEMANI Sound Team "S-C-U & SYUNN";
#GENRE:jubeat;
#MUSIC:Lava Flow.ogg;
#BANNER:Lava Flow.png;
#BACKGROUND:Lava Flow-bg.png;
#CDTITLE:./CDTitles/jubeat festo.png;
#SAMPLESTART:51.788;
#SAMPLELENGTH:15.000;
#SELECTABLE:YES;
#OFFSET:0.000;
#BPMS:0.000=190.000
,84.000=95.000
,88.000=47.500
,92.000=95.000
,112.000=190.000
,120.000=380.000
,128.000=760.000
,144.000=190.000
,152.000=380.000
,264.000=190.000
;
#STOPS:;
#DISPLAYBPM:47.500:380.000;
#BGCHANGES:;
#FGCHANGES:;

//--------------- dance-single - ----------------
#NOTES:
     dance-single:
     :
     Beginner:
     4:
     0,0,0,0,0:
0000
0000
0000
0000
,
0000
0000
0000
0000
,
0000
0000
0000
0000
,
0000
0000
0000
0000
,
0100
0000
0000
0000
,
1000
0000
0000
0000
,
0010
0000
0000
0000
,
0001
0000
0000
0000
,
0100
0000
0000
0000
,
1000
0000
0000
0000
,
0010
0000
0000
0000
,
0001
0000
0000
0000
,
0100
0000
0000
0000
,
1000
0000
0000
0000
,
0010
0000
0000
0000
,
0001
0000
0000
0000
,
0100
0000
0000
0000
,
1000
0000
0000
0000
,
0010
0000
0000
0000
,
0001
0000
0000
0000
,
0100
0000
0000
0000
,
1000
0000
0010
0000
,
0001
0000
0100
0000
1000
0000
0001
0100
,
1000
0001
0100
0010
,
1000
0001
0010
0100
,
1000
0001
0010
0100
,
1000
0001
0100
0010
,
1000
0001
0010
0100
,
0001
0000
1000
0000
,
0001
0000
0100
0000
,
1000
0000
0000
0000
,
0001
0000
0000
0000
,
0100
0000
0000
0000
,
0000
0000
0000
0000
,
0000
0000
0000
0000
,
0000
0000
0000
0000
,
2002
0000
0000
0000
,
0000
0000
3003
0000
,
0010
0000
0000
0000
,
1000
0000
0000
0000
,
0100
0000
0000
0000
,
0001
0000
0000
0000
,
0010
0000
0000
0000
,
1000
0000
0000
0000
,
0100
0000
0000
0000
,
0001
0000
0000
0000
,
0010
0000
0000
0000
,
1000
0000
0000
0000
,
0100
0000
0000
0000
,
0001
0000
0000
0000
,
0010
0000
0000
0000
,
1000
0000
0000
0000
,
0100
0000
0000
0000
,
0001
0000
0000
0000
,
0010
0000
0000
0000
,
1000
0000
0000
0000
,
0100
0000
0000
0000
,
0001
0000
0000
0000
,
0010
0000
0000
0000
,
1000
0000
0000
0000
,
0100
0000
0000
0000
,
0001
0000
0000
0000
,
0010
0000
0000
0000
,
1000
0000
0000
0000
,
0100
0000
0000
0000
,
0001
0000
0000
0000
,
0010
0000
1000
0000
,
0100
0000
0001
0000
,
0010
0000
1000
0000
,
0100
0000
0001
0000
,
0010
0000
1000
0000
,
0100
0000
0010
0000
,
0001
0000
0010
0000
,
1000
0000
0000
0000
,
0001
0000
0010
0000
,
1000
0000
0100
0000
,
0001
0000
0010
0000
,
1000
0000
0100
0000
,
0001
0000
0010
0000
,
1000
0000
0100
0000
,
0010
0000
0001
0000
,
0010
0000
1000
0000
,
0220
0000
0000
0000
,
0000
0000
0000
0000
,
0330
0000
0000
0000
;

//--------------- dance-single - ----------------
#NOTES:
     dance-single:
     :
     Easy:
     9:
     0,0,0,0,0:
0000
0000
0000
0000
,
0000
0000
0000
0000
,
0000
0000
0000
0000
,
0000
0000
0000
0000
,
1001
0000
0000
0000
,
0001
0000
0100
0000
,
1000
0000
0001
0100
,
1000
0100
0010
0001
,
0001
1000
0001
0000
,
0010
1000
0100
0001
,
0010
1000
0100
0001
,
0010
1000
0100
0001
,
0010
1000
0100
0001
,
0010
1000
0100
0001
,
0010
1000
0100
0001
,
0010
1000
0100
0001
,
0010
1000
0100
0001
,
0100
0001
0010
1000
,
0100
0001
0010
1000
,
0100
0001
0010
1000
,
0100
0001
0010
1000
,
1000
0100
0001
0010
0100
1000
0010
0001
,
0001
0010
1000
0100
0001
0000
0000
0000
1000
0000
0010
0000
0001
1000
0001
0100
,
0010
0001
1000
0100
0001
1000
0010
0001
,
0100
0010
1000
0100
0001
1000
0010
0001
,
0100
0000
0010
0000
1000
0000
0100
0000
0001
0100
1000
0001
0010
0000
1000
0000
,
0100
0010
1000
0010
0001
0010
0100
0010
,
0010
0010
0001
0010
1000
0010
0001
0010
,
1000
0010
0001
0010
,
0010
0010
0100
0010
,
1000
0000
0010
0000
,
0001
0000
0100
0000
,
0100
0000
0010
0000
,
0001
0000
0000
0000
,
1001
0000
0000
0000
,
0000
0000
0000
0000
,
2002
0000
0000
3003
0000
0110
0000
0000
,
0101
0000
0000
1000
0001
0100
0000
0000
,
0010
0000
1000
0000
,
0100
0000
0001
0000
,
0010
0000
1000
0000
,
0100
0000
0001
0000
,
0010
0000
1000
0000
,
0100
0000
0001
0000
,
0010
0000
1000
0000
,
0100
0000
0001
0000
,
0010
0000
1000
0000
,
0100
0000
0001
0000
,
0010
0000
1000
0000
,
0100
0000
0001
0000
,
0100
0000
0001
0000
,
0010
0000
1000
0000
,
0100
0000
0001
0000
,
0010
0000
1000
0000
,
0100
0000
0001
0000
,
0010
0000
1000
0000
,
0002
0000
0023
0000
,
2030
0000
0000
3200
0000
0000
0301
0000
,
0010
0000
1000
0000
,
0100
0000
0001
0000
,
0010
0000
1000
0000
,
0100
0000
0001
0000
,
0010
0000
1000
0000
,
0100
0000
0001
0000
,
0010
1000
0100
0001
,
0010
1000
0100
0001
,
0010
1000
0100
0001
,
0010
1000
0100
0001
,
0010
1000
0100
0001
,
0010
1000
0100
0001
,
0010
1000
0100
0001
,
0010
1000
0100
0001
,
0010
1000
0100
0001
,
0010
1000
0100
0001
,
1000
0100
0001
0010
,
1000
0100
0001
0010
,
1000
0100
0001
1000
,
0100
0001
0010
1000
,
0100
0001
0010
1000
,
0100
0001
0100
1000
,
0001
1000
0001
0000
1000
0001
1000
0000
,
0010
0100
1000
0001
,
2002
0000
0000
0000
,
0000
0000
0000
0000
,
3003
0000
0000
0000
;

//--------------- dance-single - ----------------
#NOTES:
     dance-single:
     :
     Medium:
     12:
     0,0,0,0,0:
0000
0000
0000
0000
,
0000
0000
0000
0000
,
0000
0000
0000
0000
,
0000
0000
0000
0000
,
1000
0100
0001
0010
,
1000
0100
0001
0010
,
1000
0100
0001
0010
,
1000
0100
0001
0010
,
0100
0000
0010
0000
1000
0001
0100
0000
,
0001
0010
1000
0000
0001
0010
0000
0100
,
1000
0000
0001
0000
0100
0010
0100
0000
,
1000
0001
0100
0010
0000
1000
0001
0000
,
0100
0010
0100
0000
1000
0000
0001
0100
,
0010
1000
0001
0100
0000
1000
0001
0000
,
0010
0000
1000
0001
0100
0000
0010
0000
,
0100
1000
0001
0010
0000
0100
1000
0001
,
0010
0000
0100
1000
0001
0010
0100
0000
,
1000
0000
0000
0000
0001
0000
0000
0000
0100
0000
0000
0010
0000
0000
1000
0000
,
0001
0000
0100
0000
0000
0000
0001
0000
1000
0000
0000
0001
0000
0000
0100
0000
,
1000
0000
0100
0000
1000
0000
0010
0000
0001
0000
0000
0010
0000
0000
0100
0000
,
1000
0000
0000
0000
0100
0000
0010
0000
0001
0000
0000
1000
0000
0000
0001
0000
,
0100
0000
0000
0000
0010
0000
0000
0000
1000
0000
0000
0001
0000
0000
0100
0000
1000
0000
0010
0000
0000
0000
0100
0000
0001
0000
0000
0010
0000
0000
0100
0000
,
1000
0001
1000
0001
1000
0001
1000
0001
2002
0000
0000
3003
0000
0000
0000
0000
0220
0000
0000
0000
0330
0000
0000
0000
0001
1000
0001
1000
0001
1000
0020
0000
,
0130
1000
0100
0010
1000
0001
0010
0100
,
0001
0010
0100
1000
0001
0100
0010
0001
,
0010
0100
1000
0001
0010
0100
1000
0001
,
0100
0010
0100
1000
0001
0100
0010
0001
,
0010
0100
1000
0001
0010
1000
0001
0100
,
1000
0001
0100
0010
,
1000
0001
0010
0100
,
1000
0001
0010
0100
,
1000
0001
0010
0100
,
1001
0000
0000
0000
,
0000
0000
0000
0000
,
0000
0000
0000
0000
,
0000
0000
0000
0000
,
1000
0100
0010
0001
0000
1000
0001
0100
,
0010
1000
0001
0100
0010
1000
0001
0010
,
0100
0000
1000
0000
,
0001
0010
0100
0000
,
0010
1000
0100
0001
,
1000
0000
0001
0000
,
0100
1000
0001
0010
,
0000
0100
1000
0001
,
0000
0010
0100
0000
,
1000
0000
0001
0010
,
0100
0000
1000
0001
,
0000
0000
1002
0000
,
0100
0000
0000
0100
,
0000
0000
1003
0000
,
0010
0000
1000
0000
,
0001
0010
0100
1000
,
0000
0001
0010
0000
,
0100
0000
1000
0001
,
0000
0010
0100
0000
,
1000
0000
0000
0000
0010
0000
0001
1000
,
0020
0000
0230
0000
,
2300
0000
0000
3002
0000
0000
2003
0000
,
3010
0000
0000
0100
0000
0000
1000
0000
,
0000
0001
0100
1000
,
0001
0000
0010
0000
,
0100
1000
0001
0000
,
0010
0000
1100
0000
,
0010
0001
0010
0100
,
0000
1000
0001
0010
,
0100
1000
0001
0000
,
0110
0000
1000
0000
0001
1000
0010
0000
,
0100
0000
1000
0010
0001
0000
0100
0010
,
0000
0100
1000
0000
0001
0000
0010
0100
,
1000
0001
1000
0010
0001
0100
1000
0000
,
0010
0100
0001
1000
0010
1000
0100
0001
,
1000
0010
0100
0001
1000
0000
0010
1000
,
0002
0000
0000
2003
0000
3000
2002
0000
,
0000
0000
0000
3003
,
0001
1000
0001
0010
0000
0100
0000
1000
,
0000
0001
0010
0000
0100
1000
0000
0001
,
0000
0010
0100
0000
1000
0001
0000
0010
,
0000
0100
1000
0001
0010
0100
1000
0001
,
0010
0000
0100
0000
1000
0001
0000
0010
,
0000
0100
1000
0001
0010
0000
0100
0000
,
1000
0001
0010
0000
0100
1000
0001
0000
,
0010
0100
1000
0001
0010
0100
1000
0001
,
2002
0000
0000
0000
,
0000
0000
0000
0000
,
3003
0000
0000
0000
;

//--------------- dance-single - ----------------
#NOTES:
     dance-single:
     :
     Hard:
     16:
     0,0,0,0,0:
0000
0000
0000
0000
,
0000
0000
0000
0000
,
0000
0000
0000
0000
,
0000
0000
0000
0000
,
1000
0000
0001
0000
1000
0000
0001
0010
,
1000
0100
0001
0010
1000
0100
0001
0010
,
1000
0100
0001
0010
1000
0100
0001
0010
,
1000
0100
0010
0000
0001
1000
0001
0000
0110
0000
1001
0000
0000
0000
0110
0000
,
0001
1000
0100
1000
0001
0100
0001
0100
,
0001
0000
1000
0000
0100
1000
0010
0100
0001
0000
0010
0000
0001
0000
0100
0000
,
0010
0000
0100
0000
0001
0000
0010
0000
0100
0000
1000
0000
0010
0000
1000
0001
,
0100
0000
1000
0000
0100
0000
0010
0000
0001
0000
0100
0010
0001
1000
0010
0000
,
0100
0010
0001
0010
0001
1000
0100
0010
,
0100
1000
0001
1000
0100
0010
0100
0010
,
0100
0000
1000
0000
0010
0000
0100
0000
0001
0000
0100
0000
0001
0010
0100
1000
,
0010
0000
0000
0001
0100
0000
1000
0000
0100
0000
1000
0000
0001
0000
0010
0000
,
0001
1000
0010
1000
0100
0010
0001
0100
,
1000
0000
0100
0000
0001
0000
0010
0000
0100
0000
0000
0010
0000
0000
1000
0000
,
0001
0000
0100
0000
0010
0000
0001
0000
1000
0000
0000
0001
0000
0000
0100
0000
,
1000
0000
0100
0000
1000
0000
0010
0000
0001
0000
0000
0010
0000
0000
0100
0000
,
1000
0000
0001
0000
0100
0000
0010
0000
0001
0000
0000
1000
0000
0000
0001
0000
,
0100
0000
1000
0000
0010
0000
0001
0000
1000
0000
0000
0001
0000
0000
0100
0000
1000
0000
0010
0000
1000
0000
0100
0000
0001
0000
0000
0010
0000
0000
0100
0000
,
1000
0001
1000
0001
1000
0001
1000
0001
1000
0001
1000
0001
1000
0001
1000
0001
1000
0000
0100
0000
0000
0000
0010
0000
0001
0000
0010
0000
1000
0000
0001
0000
0220
0000
0000
0000
0000
0000
0000
0000
0330
0000
0000
0000
0000
0000
0000
0000
0001
0000
1000
0000
0001
0000
1000
0000
0001
0000
1000
0000
0020
0000
0000
0000
,
0130
0000
1000
0000
0100
0000
0010
0000
0001
0000
0010
0000
1100
0000
0000
0000
0100
0000
0000
0000
0101
0000
0000
0000
0100
0000
0010
0000
0001
0000
0100
1000
,
0100
0010
0001
0010
1000
0000
1100
0000
0100
0000
0101
0000
0100
0000
1100
0000
,
0100
0000
0000
0000
0101
0000
0000
0000
0100
0000
0000
0000
1100
0000
0000
0000
0100
0000
0010
0000
0100
0000
1000
0000
0100
0000
0000
0010
0000
0100
1000
0100
,
0010
0101
0010
1100
0010
0101
0010
1100
,
0010
0101
0010
1100
0010
0101
0010
1100
,
0010
1000
0001
0100
,
1000
0001
0100
0010
,
1000
0001
0010
0100
,
1000
0001
0010
0100
,
1000
0001
1000
0001
,
1000
0001
1000
0001
,
1000
0001
1000
0001
,
1000
0001
0010
1000
,
0100
0000
0010
0000
0100
0001
1000
0010
0001
0000
0010
0000
0001
0000
0010
0000
,
0001
0000
0100
0000
0010
0000
1000
0000
0010
0000
1000
0000
0100
1000
0010
0001
,
0010
0000
0100
0000
0010
0000
0100
0010
,
0001
1000
0010
0000
0001
0000
0010
1000
,
0001
0010
0100
0000
0010
0000
0100
0000
,
0001
0100
1000
0001
0010
0000
0100
0000
,
0010
0000
1000
0000
0010
0000
0100
0010
,
0001
0100
1000
0000
0010
0000
1000
0000
,
0010
0000
1000
0000
0001
0010
0100
1000
,
0010
0100
0010
1000
,
0010
0000
1000
0000
0001
0100
1000
0000
,
0001
0010
0100
1000
,
0100
1000
0010
0000
0001
0010
0100
0000
,
0001
1000
0010
0100
0001
0000
0100
1000
,
0010
0000
0100
0000
0001
0000
0010
0001
,
0100
0000
1000
0000
0001
0100
1000
0000
,
0010
1000
0001
0100
,
0001
1000
0010
0000
0001
0000
0100
0001
,
0010
0100
1000
0000
0001
0000
0010
0000
,
0001
0000
0010
0000
0100
0000
0010
0100
,
0001
1000
0001
1000
,
0001
0010
0000
1000
0010
0000
1000
0001
,
0010
0000
0100
0000
0010
1000
0100
0000
,
0001
0000
0010
0000
0100
1000
0010
0100
,
0001
0100
0001
1000
,
0001
0100
1000
0010
0100
0000
1000
0000
,
0100
1000
0010
0000
0001
1000
0010
1000
,
0010
1000
0001
1000
0010
0100
0010
1000
,
0010
1000
0100
0010
0001
0100
0001
0100
,
0010
0100
0001
1000
0010
0100
0001
1000
,
0001
0000
1000
0100
0001
0000
1000
0000
0010
1000
0000
0001
0100
0000
0010
0000
,
0100
0010
0001
0100
0010
1000
0100
0010
,
0000
1000
0100
0000
0010
0000
0100
0000
0001
0010
0100
0000
0010
0000
1000
0000
,
0010
0000
1000
0000
0001
1000
0010
0000
0001
0000
0010
0000
0001
0010
0000
1000
,
0000
0010
1000
0000
0001
0100
0000
1000
0010
0000
0100
0000
0001
0000
0100
0000
,
0010
0000
1000
0100
0001
0000
0010
0000
0001
0000
0010
0000
0100
0000
1000
0000
,
0100
0000
1000
0000
0001
0000
0010
1000
0100
0000
1000
0000
0010
0000
0100
0000
,
0001
0000
0010
0000
0100
0000
0010
0000
0001
0100
1000
0001
0010
0100
1000
0100
,
0001
0000
1000
0000
0001
0000
0010
0000
1000
0000
0100
0000
0001
0010
1000
0000
,
0100
0000
0001
0000
0010
0000
0001
0000
0100
0000
1000
0000
0010
0000
0001
0100
,
0000
1000
0010
0000
0100
0000
0000
0000
2000
0000
3002
0000
0000
0000
0023
0000
,
0000
0000
0130
0000
1000
0100
0001
0000
0010
0001
0100
0000
1000
0000
0001
0000
,
0010
0000
1000
0000
0100
0000
0001
0000
1000
0000
0001
0000
0100
1000
0010
0000
,
0001
0000
0100
0000
1000
0000
0001
0000
0010
0000
1000
0000
0100
0010
0001
0000
,
0100
1000
0001
0100
0010
1000
0100
1000
0100
1000
0001
0010
0001
0100
0001
0010
,
0100
1000
0100
1000
0010
0100
0001
0010
0001
1000
0010
0100
0001
0100
0001
0010
,
2002
0000
0000
0000
,
0000
0000
0000
0000
,
3003
0000
0000
0000
;
