#TITLE:LOVE TOGETHER -パラッパラッパーMIX-;
#SUBTITLE:TVアニメ「パラッパラッパー」;
#ARTIST:ノーナリーブス;
#TITLETRANSLIT:LOVE TOGETHER -PaRappa The Rapper MIX-;
#SUBTITLETRANSLIT:TV Anime「PaRappa The Rapper」;
#ARTISTTRANSLIT:Nona Reeves;
#GENRE:アニメ;
#MUSIC:LOVE TOGETHER -PaRappa The Rapper MIX-.ogg;
#BANNER:LOVE TOGETHER -PaRappa The Rapper MIX-.png;
#BACKGROUND:LOVE TOGETHER -PaRappa The Rapper MIX--bg.png;
#CDTITLE:./CDTitles/beatmania eclale.png;
#SAMPLESTART:9.791;
#SAMPLELENGTH:15;
#SELECTABLE:YES;
#OFFSET:0.000;
#BPMS:0.000=121.919;
#STOPS:;
#BGCHANGES:;
#FGCHANGES:;

//--------------- dance-single - ----------------
#NOTES:
     dance-single:
     :
     Beginner:
     1:
     0,0,0,0,0:
0000
0000
0000
0000
,
0000
0000
0000
0000
,
0000
0000
0000
0000
,
0000
0000
0000
0000
,
0000
0000
0000
0000
,
0001
0000
0000
0000
,
1000
0000
0000
0000
,
0010
0000
0000
0000
,
0100
0000
0000
0000
,
0001
0000
0000
0000
,
1000
0000
0000
0000
,
0001
0000
0000
0000
,
0000
0000
0010
0000
,
0000
0000
0000
0000
,
1000
0000
0000
0000
,
1000
0000
0000
0000
,
0001
0000
0000
0000
,
0001
0000
0000
0000
,
0010
0000
0000
0000
,
0100
0000
0000
0000
,
0010
0000
0000
0000
,
1000
0000
0000
0000
,
0010
0000
0000
0000
,
0100
0000
0000
0000
,
0010
0000
0000
0000
,
0100
0000
0000
0000
,
1000
0000
0000
0000
,
0001
0000
0000
0000
,
0010
0000
0100
0000
,
1001
0000
0000
0000
,
0010
0000
0000
0000
,
0100
0000
0000
0000
,
0010
0000
0000
0000
,
0100
0000
0000
0000
,
1000
0000
0000
0000
,
0001
0000
0000
0000
,
0001
0000
0000
0000
,
0100
0000
0000
0000
,
0010
0000
0100
0010
,
0100
0000
1000
0000
,
0001
0000
0010
0000
,
0100
0000
1000
0000
,
0001
0000
0100
0000
,
1000
0000
0001
0000
,
0010
0000
0100
0000
,
0010
0000
0100
0000
,
0010
0000
0100
0000
,
0010
0000
0100
0000
,
1000
0000
0001
0000
,
0010
0000
0100
0000
,
1000
0000
0001
0000
,
1000
0000
0000
0000
;

//--------------- dance-single - ----------------
#NOTES:
     dance-single:
     :
     Easy:
     3:
     0,0,0,0,0:
0000
0000
0000
0000
,
0000
0000
0000
0000
,
0000
0000
0000
0000
,
0000
0000
0000
0000
,
0000
0000
0000
0000
,
1000
0001
0100
0010
,
0100
0001
0010
0100
,
0010
1000
0001
0100
,
0010
0000
1000
0000
0001
1000
0000
0000
,
0100
0010
0100
0010
,
0100
1000
0001
0100
,
0010
0100
0001
1000
,
0001
0100
0010
1000
,
2000
0000
3002
0000
,
0103
0010
0100
1000
,
0001
0100
0010
0001
,
1000
0000
0000
0000
,
0001
1000
0100
0000
,
0010
0100
1000
0001
,
0100
0010
1000
0001
,
0100
1000
0001
0000
,
0100
1000
0001
0000
,
0100
0000
0010
0100
,
1000
0000
0001
1000
,
0001
0000
0010
0100
,
1000
0001
0100
0010
,
0100
1000
0000
0000
,
0001
1000
0001
0000
,
0010
0100
0001
1000
,
0001
0000
0000
0000
,
0100
0000
0000
0010
0000
0000
0000
0000
,
1001
0000
0100
0000
,
0010
1000
0001
0000
,
0010
0100
0001
1000
,
0001
0000
0100
0000
0010
1000
0000
0000
,
0100
0010
0001
1000
,
0001
0100
0010
0100
,
0001
1000
0001
0100
,
0010
1000
0001
0100
,
1000
0001
0100
0000
0010
0100
1000
0000
,
0001
0100
0010
1000
,
0001
1000
0001
0010
,
0100
0010
0001
1000
,
0001
0100
0010
0100
,
0001
0100
0010
0100
,
0010
0001
1000
0001
,
0100
0010
1000
0001
,
0100
0010
0100
1000
,
0001
0000
0001
0000
,
1000
0001
1000
0000
,
0010
0000
0010
0000
,
0100
0010
0100
0000
;

//--------------- dance-single - ----------------
#NOTES:
     dance-single:
     :
     Medium:
     7:
     0,0,0,0,0:
0000
0000
0000
0000
,
0000
0000
0000
0000
,
0000
0000
0000
0000
,
0000
0000
0000
0000
,
0000
0000
0000
0000
,
0001
0010
0100
0000
1000
0001
0100
0000
,
0010
0100
1000
0001
,
0100
0010
1000
0001
,
0100
1000
0001
0100
1000
0001
0000
0000
,
0100
0010
0100
1000
,
0001
0100
1000
0000
0001
0000
0100
0000
,
0010
1000
0001
0000
0100
0000
0010
0000
,
0100
0001
1000
0001
0100
0000
0010
0000
,
2000
0000
3002
0000
,
0103
1000
0001
0100
,
0010
0000
0100
0000
0001
0000
1000
0001
,
0100
0010
0100
1000
,
0001
0100
0010
0100
,
0001
1000
0001
0010
,
0100
1000
0001
0100
,
0010
0000
0100
0000
0010
0000
0100
1000
,
0100
0001
0100
1000
,
0001
0100
1000
0000
0010
0000
0001
0000
,
1000
0000
0001
0100
0000
0010
1000
0001
,
0000
0000
0100
0000
1000
0000
0001
0100
,
0001
0000
0100
1000
0010
0000
0001
0000
,
0100
1000
0001
0000
0010
0000
0100
0000
,
0001
1000
0001
0000
0100
0000
0010
0000
,
0100
1000
0001
0000
0100
1000
0001
0000
,
0200
0000
0010
0010
,
0310
0000
0000
0010
0000
0000
0100
0000
,
1000
0001
0100
0010
,
0100
1000
0001
0000
0100
0000
0010
0000
,
0100
0010
0100
0001
,
1000
0000
0001
0000
0100
0010
0000
0000
,
1000
0001
0100
0000
1000
0001
0100
0000
,
0010
0000
1000
0000
0001
0000
0000
0010
,
0100
1000
0001
0000
0100
0010
1000
0000
,
0001
0100
0010
0100
,
1000
0001
0100
0010
1000
0001
0100
0010
,
0100
1000
0001
0100
0010
0100
1000
0000
,
0001
0100
1000
0001
0100
0000
0010
0000
,
0100
0010
0100
1000
0001
0100
0000
0000
,
0010
0100
0000
1000
0001
0000
0100
0000
,
0010
0100
1000
0001
0100
0010
0000
0000
,
0001
1000
0001
0100
1000
0000
0001
0000
,
0100
0000
0010
0000
0100
1000
0001
0000
,
0100
1000
0000
0001
0100
0000
0010
0000
,
1000
0110
0001
0110
,
1000
0000
0001
0100
0000
0010
0100
1000
,
0001
0110
1000
0110
,
0001
0000
1000
0001
0000
0000
0000
0000
;

//--------------- dance-single - ----------------
#NOTES:
     dance-single:
     :
     Hard:
     10:
     0,0,0,0,0:
0000
0000
0000
0000
,
0000
0000
0000
0000
,
0000
0000
0000
0000
,
0000
0000
0000
0000
,
0000
0000
0000
0000
,
0001
0000
1000
0001
0000
0000
0100
0000
1000
0000
0100
0001
0000
0000
1000
0000
,
0010
0100
1000
0001
0100
0000
1000
0001
,
0100
0010
0100
1000
0100
0001
0100
1000
,
0001
0100
0010
0100
1000
0001
0000
0000
,
0001
0000
1000
0001
0000
0000
0100
0000
1000
0000
0100
0001
0000
0000
1000
0000
,
0010
0100
1000
0001
0100
0000
0010
0000
,
0100
1000
0001
0100
0010
0100
1000
0001
,
0100
0010
0100
1000
1001
0000
0110
0000
,
2000
3002
0203
0320
,
1030
0001
0100
0010
0000
0000
0001
0100
,
1000
0001
0100
0010
0000
1000
0001
0200
,
0000
1000
0001
0310
,
1000
0000
0001
0000
0100
0010
0100
0000
,
1000
0000
0001
0100
0010
0000
0100
0000
,
1000
0001
0100
0010
0000
0100
1000
0002
,
0000
0000
1000
0000
0103
0000
1000
0001
,
0100
0000
0010
0100
1000
0001
0100
0000
,
1000
0000
0000
0010
0001
0000
0000
0000
0000
0000
1000
0000
0100
0000
0001
0000
,
1000
0001
0100
0010
0000
1000
0001
0200
,
0000
0320
0032
0023
,
0230
2300
3002
2003
,
3010
0100
1000
0000
0011
0000
0110
0000
,
1000
0001
0100
0000
1100
0000
0110
0000
,
0001
0010
0100
0000
1000
0001
0100
0000
,
2002
0000
0000
3003
,
0001
0010
0000
0000
0000
0000
1000
0100
0000
0000
0000
0000
0000
1001
0000
0000
,
0001
0000
1000
0001
0000
0000
0100
0000
1000
0000
0100
0001
0000
0000
1000
0000
,
0010
0100
1000
0001
0100
0000
0000
1000
,
0001
0100
0010
0100
1000
0001
0100
0010
,
0100
1000
0001
0010
0100
0010
0000
0000
,
0001
0000
1000
0001
0000
0000
0100
0000
1000
0000
0100
0001
0000
0000
1000
0000
,
0010
0100
1000
0001
0100
0000
0000
1000
,
0001
0100
0010
0100
1000
0001
0100
0010
,
0100
1000
0100
0001
0110
0000
1001
0000
,
0010
0100
1000
0001
0100
0010
1000
0001
,
0100
1000
0001
0100
1000
0001
0000
0000
,
0010
0000
0100
0001
1000
0000
0001
0000
0100
0000
0000
0000
1000
0000
0000
0000
,
0001
0000
0010
0100
1000
0000
0000
0000
1001
0000
0100
0000
0001
0000
0000
0000
,
1000
0001
0100
1000
1001
0000
0010
0000
,
0100
1000
0001
0100
1000
0001
0000
0000
,
0100
0000
1000
0100
0000
0000
0010
0000
0100
0000
0000
0000
1000
0000
0000
0000
,
0001
0000
0010
0100
0000
0000
1000
0000
0001
0000
0100
0000
0000
0000
0000
0000
,
0001
0000
1000
0001
0000
0100
0000
0001
1000
0000
0000
0000
0010
0000
0000
0000
,
1001
0110
1001
0110
,
1000
0000
0001
0010
0000
1000
0001
0100
,
0110
1001
0110
1001
,
0100
0000
1000
0001
0100
0000
0000
0000
;
