#TITLE:LIVEMODE!!;
#ARTIST:こはる。;
#ARTISTTRANSLIT:Koharu,;
#GENRE:けものフレンズ×NonStopDance -フレンズの歌の音楽-;
#MUSIC:LIVEMODE!!.ogg;
#BANNER:LIVEMODE!!.png;
#BACKGROUND:LIVEMODE!!-bg.png;
#CDTITLE:./CDTitles/NSD A3.png;
#SAMPLESTART:58.404;
#SAMPLELENGTH:15.000;
#SELECTABLE:YES;
#OFFSET:-0.187;
#BPMS:0.000=136.000;
#STOPS:;
#BGCHANGES:;
#FGCHANGES:;

//--------------- dance-single - ----------------
#NOTES:
     dance-single:
     :
     Beginner:
     2:
     0,0,0,0,0:
0000
0000
0000
0000
,
0000
0000
0000
0000
,
0000
0000
0000
0000
,
0000
0000
0000
0000
,
0000
0000
0000
0000
,
0001
0000
0000
0000
,
0010
0000
0000
0000
,
0100
0000
0010
0000
,
1000
0000
1000
0000
,
0001
0000
0001
0000
,
0010
0000
0010
0000
,
0100
0000
0010
0000
,
0001
0000
0000
0000
,
0010
0000
0000
0000
,
1000
0000
0000
0000
,
0001
0010
0100
0000
,
1000
0000
0000
0000
,
0001
0000
0000
0000
,
0010
0000
0000
0000
,
0100
0000
0000
0000
,
0010
0000
0000
0000
,
0100
0000
0000
0000
,
1000
0000
0000
0000
,
0001
0000
0010
0100
,
1000
0000
0000
0000
,
0001
0000
0000
0000
,
0010
0000
0000
0000
,
0100
0000
0000
0000
,
1000
0000
0000
0000
,
0001
0000
0000
0000
,
0010
0000
0010
0000
,
0100
0000
0100
0000
,
1000
0000
0001
0000
,
1000
0000
0001
0000
,
0010
0000
0100
0000
,
1000
0000
0001
0000
,
0010
0100
0010
0000
,
1000
0000
0001
0000
,
0010
0000
0100
0000
,
0010
0000
1000
0000
,
0001
0010
0100
0000
,
1000
0001
0100
0000
,
0010
1000
0001
0000
,
0010
0000
0100
0000
,
1000
0001
0010
0000
,
1000
0002
0000
0000
,
0003
1000
0000
0010
,
0100
0000
1000
0000
,
0001
0000
0010
0000
,
0100
0000
0001
0000
,
1000
0000
0001
0000
,
0010
0000
0100
0000
,
1000
0000
0001
0000
,
0010
0000
0100
0000
,
0100
1000
0001
0000
,
0010
1000
0001
0000
,
0010
1000
0001
0000
,
0010
0000
0000
0000
0000
0000
0000
1001
0000
0000
0000
0000
0000
0000
0000
0000
;

//--------------- dance-single - ----------------
#NOTES:
     dance-single:
     :
     Easy:
     4:
     0,0,0,0,0:
0000
0000
0000
0000
,
0000
0000
0000
0000
,
0000
0000
0000
0000
,
0000
0000
0000
0000
,
0000
0000
0000
0000
,
0001
0000
0100
0000
,
1000
0000
0001
0000
,
0100
0000
1000
0001
,
0110
1000
0001
0100
,
0010
0100
1000
0001
,
0010
0100
0001
1000
,
0001
0000
0100
0000
0010
0000
1000
0001
,
0100
0010
0100
0010
,
1000
0001
0010
0100
,
0001
1000
0001
0010
,
0100
0000
0001
0000
0100
0000
1000
0001
,
0100
1000
0001
0000
,
0010
0001
1000
0000
,
0020
0000
0130
0000
,
2000
0000
3001
0000
,
0010
0100
1000
0000
,
0001
0010
1000
0000
,
0002
0000
1003
0000
,
0200
0000
0301
0000
,
1000
0000
0001
0000
0100
0000
0000
0100
,
1000
0100
0010
0000
,
1000
0000
0001
0000
0100
0000
0000
0100
,
0010
1000
0001
0100
,
1000
0010
0100
0000
,
0001
1000
1000
0000
,
0001
0010
0100
0000
,
0010
0000
1000
0000
0000
0001
1000
0000
,
0001
0000
0100
0000
,
1000
0001
0100
0000
,
0010
0100
0010
0000
,
1000
0001
0100
0000
1000
0000
0000
0000
,
0001
0010
0100
0000
1000
0000
0000
0000
,
0001
0010
0100
0000
,
1000
0001
0100
0000
,
0010
0100
1000
0000
0001
0000
0000
0000
,
0010
0001
0010
0000
0100
0000
0000
0000
,
1000
0001
0100
0000
,
1000
0001
0100
0000
,
0010
0100
0010
0000
,
1000
0001
0100
1000
,
0001
0200
0000
0000
,
0310
0000
0000
0000
,
0010
0100
1000
0000
,
0001
0010
0100
0000
,
1000
0001
0100
0000
,
1000
0001
0100
0000
,
0010
0001
1000
0001
,
0100
0010
1000
0001
,
0010
0100
0010
1000
,
0001
0100
0010
0100
,
0001
1000
0001
0100
,
0010
0100
1000
0001
,
0010
0000
0000
0000
0000
0000
0000
1001
0000
0000
0000
0000
0000
0000
0000
0000
;

//--------------- dance-single - ----------------
#NOTES:
     dance-single:
     :
     Medium:
     7:
     0,0,0,0,0:
0000
0000
0000
0000
,
0000
0000
0000
0000
,
0000
0000
0000
0000
,
0000
0000
0000
0000
,
0000
0000
0000
0000
,
0001
0000
0000
0100
0000
0000
0000
0000
,
1000
0000
0000
0010
0000
0000
0000
0000
,
0001
0000
1000
0001
,
0100
0000
0000
0000
1000
0000
0000
0001
0000
0000
0100
0000
0000
0000
0000
0000
,
0010
0000
0000
0000
0001
0000
0000
1000
0000
0000
0010
0000
0000
0000
0000
0000
,
0001
0000
0000
0000
0100
0000
0000
1000
0000
0000
0001
0000
0000
0000
0000
0000
,
0010
0000
0000
0000
0100
0000
0000
1000
0000
0000
0001
0000
0000
0000
0000
0000
,
0100
0000
1000
0000
0001
0010
0100
0000
,
0001
0000
0100
0000
0010
0001
0010
0000
,
0100
0000
1000
0000
0001
0100
0010
0000
,
1000
0000
0000
0000
0001
0000
0000
0110
0000
0000
0000
0000
0001
0010
0100
0000
,
2000
3001
0020
0130
,
2000
0000
3001
0000
0010
1000
0001
0000
,
0200
0310
0200
1300
,
0020
0000
0031
0000
0020
0000
1030
0100
,
0001
1000
0001
0100
,
0010
0000
1000
0000
0001
0010
0100
0000
,
1000
0001
0010
0100
,
0001
1000
0001
0000
0100
0000
0010
0000
,
0100
1000
0001
0000
0100
0000
0010
0000
,
0001
0010
0100
0000
1000
0000
0001
0010
,
0100
0000
0001
0000
0100
0010
0100
0000
,
1000
0000
0001
0000
0010
0100
0010
0100
,
1000
0000
0001
0000
0010
0001
0010
0000
,
0100
0000
1000
0000
0001
0010
0100
0000
,
0001
1000
0001
0000
0100
0000
0010
0000
,
0100
0010
0000
0000
0001
1000
0000
0000
0000
0000
0001
1000
0001
0000
0000
0000
,
0110
0000
0110
0000
1000
0001
0100
0000
,
1000
0001
0100
0000
0010
0000
0100
0000
,
0001
0010
0100
0001
0000
0000
0001
1000
,
0001
0000
0100
0000
0010
0100
1000
0001
,
0100
0010
1100
0011
,
1000
0100
0010
0000
1000
0000
0001
0010
,
0100
0000
0001
0000
1000
0001
0000
0000
,
0100
0010
1000
0000
0001
0010
0100
0000
,
0010
1000
0001
0100
0010
0000
0100
0000
,
1000
0001
0100
0000
0010
0000
0100
0000
,
0001
0010
0100
0000
1000
0001
0010
0000
,
0110
1000
0010
0100
,
0001
0100
1000
0000
0001
0000
0010
0100
,
1000
0001
0200
0000
0000
0000
0000
0000
,
0310
0000
1001
0000
0000
0000
1000
0100
,
0001
0000
1000
0000
0001
0100
0010
0000
,
0010
0100
1000
0001
,
0100
0010
0100
0000
1000
0001
0100
0000
,
0010
0000
1000
0000
0001
0010
0100
0000
,
1000
0000
0001
0000
0010
0100
1000
0001
,
0100
0000
0010
0000
0100
1000
0001
0000
,
0100
0000
0010
0000
0100
0010
1000
0000
,
0001
0000
0000
0000
0100
0000
0000
1001
0000
0000
0000
0000
0100
0000
1000
0000
,
0010
0000
0000
0000
0100
0000
0000
1000
0000
0000
0010
0000
0001
0000
0100
0000
,
1000
0000
0000
0000
0010
0000
0000
0100
0000
0000
1000
0000
0001
0000
0010
0000
,
0001
0000
0100
0000
1000
0000
0000
1001
0000
0000
0000
0000
0000
0000
0000
0000
;

//--------------- dance-single - ----------------
#NOTES:
     dance-single:
     :
     Hard:
     12:
     0,0,0,0,0:
0000
0000
0000
0000
,
0000
0000
0000
0000
,
0000
0000
0000
0000
,
0000
0000
0000
0000
,
0000
0000
0000
0000
,
0001
0000
1000
0000
,
0001
0100
1000
0000
,
0010
0000
0000
0000
0100
0000
1000
0010
,
0001
0000
0000
0000
0010
0000
0000
1000
0000
0000
0001
0000
0100
0000
1000
0000
,
0001
0000
0000
0000
0010
0000
0000
1000
0000
0000
0001
0000
0100
0000
1000
0000
,
0001
0000
0000
0000
0010
0000
0000
0100
0000
0000
0010
0000
0100
0000
1000
0000
,
0001
0000
0100
0000
0010
1000
0001
0100
,
1000
0000
0100
0000
0001
0100
1000
0001
,
0100
0000
0010
0000
0100
1000
0001
0100
,
0010
0000
0100
0000
0010
1000
0001
0100
,
1000
0000
0000
0000
0011
0000
0000
0011
0000
0000
0100
0000
1000
0000
0000
0000
,
0002
0000
1003
0010
,
0200
0000
0310
1000
,
0002
0000
1003
0010
,
0200
0000
0310
0100
,
0020
1000
0130
0001
,
2000
0001
0100
3010
,
2000
0010
0100
3001
,
0002
0100
0010
1003
,
0010
1000
0100
0000
0010
0000
0100
0000
,
1000
0001
0100
1000
0001
0000
0010
0000
,
0100
0000
1000
0001
0100
0000
0010
0000
,
1000
0001
0010
0100
0010
0000
1000
0000
,
0110
0000
0110
0000
1000
0001
0100
0010
,
0100
0000
0110
0000
0110
0000
1000
0001
,
0010
0000
0010
0000
0001
0010
0100
1000
,
0001
1000
0000
0000
0001
1000
0000
0000
0000
0000
0001
0010
0100
0000
0000
0000
,
2000
0000
3200
0000
0300
0001
0010
0000
,
0001
1000
0100
0001
0010
0000
0100
0000
,
1000
0001
0100
0010
0100
0000
1000
0000
,
0001
0100
0010
0100
1000
0000
0101
0000
,
0010
0000
0100
0010
1000
0001
0100
0000
,
0101
0000
0010
1000
0001
0100
0010
0000
,
0100
1000
0001
0100
0010
0000
0100
0000
,
1000
0001
0100
0000
0010
0100
1000
0000
,
0001
0000
0010
0000
0100
0000
0001
0000
0010
0000
0100
0000
1000
0000
0001
1000
,
0100
0000
0000
1000
0000
0001
0010
0000
0100
0000
0000
1000
0001
0000
0100
0000
,
1000
0000
0001
0000
0010
0000
0100
0000
1000
0000
0000
0100
0000
0000
0001
0000
,
0100
0000
1000
0000
0010
0000
0100
0000
0001
0000
0010
0000
0100
0000
1000
0001
,
1000
0010
0100
1000
0001
0010
0100
1000
,
0001
0100
2001
0000
0001
0000
0001
0000
,
3002
0000
0013
0100
,
0001
0000
0000
0000
0010
0000
0000
1000
0000
0000
0001
0000
0100
0000
1000
0000
,
0001
0000
0000
0000
0010
0000
0000
1000
0000
0000
0001
0000
0100
0000
1000
0000
,
0001
0000
0000
0000
0010
0000
0000
0100
0000
0000
0010
0000
0100
0000
1000
0000
,
0001
0000
0100
0000
0010
1000
0001
0100
,
1000
0000
0100
0000
0001
0100
1000
0001
,
0100
0000
0010
0000
0100
1000
0001
0100
,
0010
0001
0100
0000
0010
1000
0001
0100
,
1000
0000
0000
0000
0010
0000
0000
0001
0000
0000
0100
0000
1000
0000
0100
0000
,
1000
0000
0000
0000
0001
0000
0000
0100
0000
0000
1000
0001
0000
0000
0100
0000
,
0010
0000
0000
0000
0100
0000
0000
0010
0000
0000
0100
0000
1000
0000
0001
0000
,
0010
0000
0100
0000
1000
0000
0000
2002
0000
0000
0000
0000
0000
0000
0000
0000
,
3003
0000
0000
0000
;
