
//----- song ID: lche -----//
#VERSION:0.83;
#TITLE:LΔchesis;
#ARTIST:7mai;
#GENRE:ナムコオリジナル;
#MUSIC:LAchesis.ogg;
#BANNER:LAchesis.png;
#BACKGROUND:LAchesis-bg.png;
#CDTITLE:./CDTitles/NSD A3.png;
#SAMPLESTART:90.394;
#SAMPLELENGTH:15.000;
#SELECTABLE:YES;
#OFFSET:0.000;
#BPMS:0.000=376.000
,128.000=250.760
,145.000=376.000
,284.000=94.000
,308.000=47.000
,309.000=94.000
,313.000=188.000
,351.000=376.000
,549.000=250.670
,567.000=376.000
,583.000=150.000
,588.000=125.000
;
#STOPS:;
#BGCHANGES:;
#FGCHANGES:;

//--------------- dance-single - ----------------
#NOTEDATA:;
#STEPSTYPE:dance-single;
#DESCRIPTION:;
#DIFFICULTY:Beginner;
#METER:4;
#RADARVALUES:0,0,0,0,0;
#NOTES:
0000
0000
0000
0000
,
0000
0000
0000
0000
,
0000
0000
0000
0000
,
0000
0000
0000
0000
,
0000
0000
0000
0000
,
0000
0000
0000
0000
,
0000
0000
0000
0000
,
0000
0000
0000
0000
,
0000
0000
0000
0000
,
0000
0000
0000
0000
,
0000
0000
0000
0000
,
0000
0000
0000
0000
,
0000
0000
0000
0000
,
0000
1000
0000
0000
,
0001
0000
0000
0010
,
0000
0000
0000
0000
,
0000
0000
0000
0000
,
1000
0000
0000
0001
,
0000
0000
0100
0000
,
0000
0000
0000
0000
,
0000
0000
0000
0010
,
0000
0000
1000
0000
,
0000
0001
0000
0000
,
0000
0000
0000
0000
,
0000
0000
0010
0000
,
0000
0100
0000
0000
,
0001
0000
0000
0000
,
0000
0000
0000
0000
,
0000
1000
0000
0000
,
0001
0000
0000
0100
,
0000
0000
0000
0000
,
0000
0000
0000
0000
,
0010
0000
0000
0000
,
1000
0000
0000
0000
,
0001
0000
0000
0000
,
0100
1000
0001
0010
,
1000
0010
0000
0000
,
0000
0000
0000
0000
,
0000
0000
0000
0000
,
1001
0000
0000
0000
,
0000
0000
0000
0000
,
0100
0000
0000
0000
,
1000
0000
0000
0000
,
0001
0000
0000
0000
,
0000
0000
0000
0000
,
0010
0000
0000
0000
,
0100
0000
0000
0000
,
0001
0000
0000
0000
,
0000
0000
0000
0000
,
1000
0000
0000
0000
,
0001
0000
0000
0000
,
0100
0000
0000
0000
,
0000
0000
0000
0000
,
0010
0000
0000
0000
,
0100
0000
0000
0000
,
1001
0000
0000
0000
,
0000
0000
0000
0100
,
0000
0000
1000
0001
,
0000
0000
0000
0100
,
0000
0000
0000
1000
,
0000
0000
0000
0001
,
1000
0010
0000
0000
,
0000
0000
0000
0000
,
1000
0000
0000
0001
,
0000
0000
0100
0000
,
0000
0020
0000
0000
,
0000
0000
0000
0130
,
0000
0000
1000
0000
,
0000
0001
0000
0100
,
0000
0000
0000
0000
,
0000
0000
0000
0000
,
1001
0000
0100
0010
,
0000
0000
1000
0000
0001
0000
0000
1000
,
0000
0000
0001
0000
0000
0100
0010
1000
,
0001
0000
0000
1000
0001
0000
0100
0000
,
0000
1000
0010
0001
0100
0000
0000
0010
,
0000
0000
1000
0000
0010
1000
0001
0100
,
0002
2000
3003
0000
,
0000
0000
1001
0000
0000
0001
0000
0000
,
1000
0000
0000
0000
,
1000
0000
0000
0000
0001
0000
0000
1000
,
0000
1001
0000
0010
,
0000
0100
0000
0000
1001
0000
0000
0000
,
0010
0000
0000
1000
0000
0000
0001
0000
,
0000
0000
0000
1000
0000
0000
0000
0000
,
0100
0000
0001
0000
0000
1000
0000
0000
,
0001
0000
0200
0000
,
0000
0000
0300
1001
,
0000
0000
0010
0000
,
0000
0000
0100
0000
,
0000
0000
0000
0001
,
0000
0000
0000
0000
,
0000
0001
0000
0000
,
0000
0000
1000
0000
,
0000
0000
0010
0000
,
0100
0000
1000
0000
,
0001
0000
0000
0000
,
0000
1000
0000
0000
,
0001
0000
0000
0000
,
0000
0010
0000
0000
,
1000
0000
0000
0010
,
0000
0000
0001
0000
,
0000
1000
0000
0000
,
0001
0000
0000
0100
,
0000
0000
1000
0000
,
0001
0000
0000
0100
,
0000
1000
0000
0000
,
0000
1001
0000
0010
,
0000
0100
0000
1000
,
0000
0000
0000
0001
,
0000
0100
0000
0010
,
0000
1000
0000
0000
,
0001
0000
0000
0100
,
0000
0000
1000
0000
,
0001
0000
0100
1000
,
0000
0000
0001
0000
,
0000
1000
0000
0100
,
0000
0010
0000
1000
,
0001
0000
0010
0000
,
0000
1000
0000
0000
,
0001
0000
0000
0000
,
0020
0000
0000
0000
,
0000
1030
0000
0000
,
0010
0000
0000
0100
,
0000
0000
0000
0001
,
0000
1000
0000
0001
,
0000
0100
0001
0000
,
0000
1000
0010
0000
,
0000
0000
1000
0000
,
0000
0001
0000
0100
,
0000
0000
1000
0000
,
0000
0001
0000
0000
,
0000
0100
0000
1000
,
0000
0000
0010
0000
,
0000
0010
0000
0000
,
0010
0000
0000
0000
,
1000
0000
0000
0000
,
0000
0020
0000
0000
,
0000
0000
0000
0000
,
0000
0000
0000
0000
,
0000
1030
0000
0000
,
0001
0000
0000
1000
,
0000
0000
0000
0000
,
0000
0000
0000
1001
,
0000
0000
0000
0000
,
0000
0000
0000
0010
;

//--------------- dance-single - ----------------
#NOTEDATA:;
#STEPSTYPE:dance-single;
#DESCRIPTION:;
#DIFFICULTY:Easy;
#METER:7;
#RADARVALUES:0,0,0,0,0;
#NOTES:
0000
0000
0000
0000
,
0000
0000
0000
0000
,
0000
0000
0000
0000
,
0000
0000
0000
0000
,
0000
0000
0000
0000
,
0000
0000
0000
0000
,
0000
0000
0000
0000
,
0000
0000
0000
0000
,
0000
0000
0000
0000
,
0000
0000
0000
0000
,
0000
0000
0000
0000
,
0000
0000
0000
0000
,
0000
0000
0000
0000
,
0000
1000
0000
0000
,
0001
0000
0000
0100
,
0000
0000
0000
0000
,
0000
0000
0000
0000
,
1000
0000
0000
0001
,
0000
0000
0100
0000
,
1000
0000
0010
0000
,
1000
0000
0000
0001
,
0000
0000
1000
0000
,
0100
0010
0000
0000
,
0000
0001
0000
1000
,
0000
0010
1000
0000
,
0000
0001
0000
0000
,
0100
0000
0000
1000
,
0000
0010
0000
0001
,
0000
1000
0000
0000
,
0001
0000
0000
1000
,
0000
0000
0001
0000
,
0002
0000
0000
0000
,
1003
0000
0100
0000
,
0010
0000
0001
0000
,
0010
0000
0100
0000
,
1000
0100
0001
1000
,
0001
0020
0000
0000
,
0000
0000
0000
0000
,
0000
0000
0000
0000
,
0130
0000
0001
0000
,
1000
0000
0000
0000
,
0010
0000
1000
0000
,
0001
0000
0000
0000
,
0100
0000
0000
0000
,
1000
0000
0000
0000
,
0001
0000
0000
0000
,
0100
0000
0010
0000
,
1000
0000
0001
0000
,
0100
0000
0000
0000
,
0010
0000
0100
0000
,
0001
0000
0000
0000
,
1000
0000
0000
0000
,
0001
0000
0000
0000
,
0100
0000
0000
0000
,
0010
0000
1000
0000
,
0002
0000
0000
0103
,
0000
1000
0000
0020
,
0000
1030
0001
0100
,
0000
1000
0000
0001
,
0000
0100
0000
1000
,
0000
0001
0000
0100
,
0000
0010
0000
0002
,
0000
0000
0000
0000
,
0103
0000
1000
0001
,
0000
0000
1000
0000
,
0001
0100
0000
0000
,
0100
0000
1000
0000
,
0010
0000
1001
0000
,
0000
0110
0000
1001
,
0000
0000
0000
0001
,
2000
0000
0000
0000
,
3001
0100
0010
1000
,
0001
0010
0100
0000
0010
0001
0100
1000
,
0001
0100
0010
1000
0001
0100
0001
1000
,
0010
0000
0000
0000
0000
0000
1000
0000
0001
0000
0000
1000
0010
0000
0000
0000
,
0000
0001
0100
1000
0001
0010
0000
1000
,
0010
0000
1000
0001
0100
0010
1000
0001
,
0200
0310
1000
0000
,
0001
0000
0100
0000
0000
0001
0000
0000
,
1000
0000
0001
1000
,
0001
0000
0100
1000
0100
0000
0000
0001
,
0000
0000
1000
0000
0000
0010
0001
1000
,
0000
0001
0000
0000
0100
0000
0001
0000
,
1000
0010
0100
1000
,
0001
0100
0010
0001
,
1000
0001
0100
0010
,
1000
0001
0020
0000
,
0000
0000
0000
1030
,
0000
0001
0000
1000
,
0010
0001
0000
0100
,
0000
0010
0000
1000
,
0010
0001
0000
0010
,
0000
0100
0000
0010
,
0000
1000
0000
0001
,
0000
0100
0000
0010
,
0000
1000
0001
0000
,
0100
0000
0000
0001
,
0000
0100
0000
0010
,
0000
1000
0000
0001
,
0000
0100
0000
0010
,
0000
0001
0000
0010
,
0000
0100
0000
0000
,
1000
0000
0000
0001
,
0000
0000
0000
1000
,
0000
0001
0000
0100
,
0000
0010
0000
1000
,
0000
0001
0010
1000
,
0000
1001
0000
0100
,
0000
0010
0000
1000
,
0000
0001
0000
0100
,
0000
0010
0000
1000
,
0000
0001
0000
0100
,
0000
0010
0000
0100
,
0000
1000
0000
0001
,
0000
0100
0000
0010
,
0000
0100
0000
1000
,
0000
0001
0000
0100
,
0000
0010
0000
0001
,
0000
0010
0000
0100
,
0000
0010
0000
1000
,
0000
0001
0000
0100
,
0000
0010
0000
0100
,
0000
1010
0000
0001
,
0000
0100
0000
1000
,
0000
0001
0000
0100
,
0000
0010
0001
0100
,
0000
0001
0000
1000
,
0000
0001
0000
0100
,
0000
0010
0000
1000
,
0000
0001
0100
0000
,
1000
0010
0000
0100
,
0000
0010
0000
1000
,
0000
0001
0000
0100
,
0000
1000
0010
0001
,
0000
1000
0001
0000
,
0010
0100
0000
1000
,
0020
0000
0000
0000
,
0000
1030
0000
0001
,
0000
0100
0000
1000
,
0000
0001
0000
0100
,
0000
1000
0000
0001
,
0000
0100
0000
2000
,
0000
0000
0000
0000
,
0000
0000
0000
3001
,
0000
0000
0000
0000
,
0000
0000
0000
0220
,
0000
0000
0000
0000
,
0000
0000
0000
0000
,
0330
0000
0000
0000
;

//--------------- dance-single - ----------------
#NOTEDATA:;
#STEPSTYPE:dance-single;
#DESCRIPTION:;
#DIFFICULTY:Medium;
#METER:9;
#RADARVALUES:0,0,0,0,0;
#NOTES:
0000
0000
0000
0000
,
0000
0000
0000
0000
,
0000
0000
0000
0000
,
0000
0000
0000
0000
,
0000
0000
0000
0000
,
0000
0000
0000
0000
,
0000
0000
0000
0000
,
0000
0000
0000
0000
,
0000
0000
0000
0000
,
0000
0000
0000
0000
,
0000
0000
0000
0000
,
0000
0000
0000
0000
,
0000
0000
0000
0000
,
0000
1000
0000
0000
,
0001
0000
0000
0010
,
0000
0000
0001
0000
,
0000
0010
0000
0000
,
1000
0000
0000
0001
,
0000
0000
0100
0000
,
0000
0000
1000
0000
,
0100
0001
1000
0010
,
0000
0000
1000
0000
,
0000
0001
0000
0100
,
1000
0001
0000
0000
,
1000
0000
0010
0000
,
0000
0100
0000
0000
,
0001
0000
1000
0000
,
0001
0000
0100
0000
,
0001
1000
0000
0000
,
0001
0000
0000
0100
,
0000
0000
1000
0000
,
0100
0001
0100
1000
,
0010
0000
0100
0000
,
1000
0000
0100
0000
,
0001
0000
0010
0000
,
0100
1000
0001
0010
,
1000
0000
0010
0000
0000
2002
0000
0000
,
0000
0000
0000
0000
,
0000
0000
3003
0000
,
1001
0000
0100
0000
,
0010
0000
0100
0000
,
0010
0000
0100
0000
,
1000
0000
0010
1000
,
0100
0000
0001
0000
,
1000
0000
0010
0000
,
1000
0100
0001
0000
,
1000
0000
0010
0001
,
0100
0000
0010
0100
,
1000
0000
0001
0000
,
0010
1000
0001
0000
,
0100
0000
0010
0000
,
0100
1000
0001
0000
,
0010
0000
0100
0000
,
0010
0100
0001
0000
,
0010
0100
0001
0000
,
2000
0000
0000
3000
,
0100
1000
0010
0000
,
0100
0000
0010
1000
,
0000
0100
0001
0010
,
1000
0000
0100
0000
,
0010
0000
0100
0000
,
1000
0000
0100
0001
,
0000
0000
1000
0000
0000
0000
0000
0000
0001
0000
0000
0000
,
1000
0001
0100
0001
,
0000
0000
0100
0000
,
0000
0020
0000
0000
,
0000
0000
0000
0130
,
0000
0000
1000
0000
,
0000
0001
0000
0100
,
0000
0000
0000
0000
1000
0000
0000
0000
0000
0000
0000
0000
,
0010
0000
0000
0000
0000
0000
1000
0000
0000
0000
0000
0010
0000
0000
0000
0000
,
1001
0000
0000
0000
0000
0000
0000
0000
0100
0000
0000
0000
0010
0000
0000
1000
,
0000
0001
0100
0000
1000
0000
0000
0100
0001
0000
0000
0000
0010
0000
2000
0000
,
0000
0000
0000
3010
0001
0000
0010
0000
0001
0000
0100
0000
0010
0000
1000
0000
,
0001
0000
0010
0000
0000
0000
1000
0000
0001
0000
0000
0001
0200
0000
0000
0000
,
0000
1300
0010
0001
0100
1000
0000
0010
,
0100
0000
1000
0001
0010
1000
0001
0100
,
0002
0000
2000
0000
0000
0000
0000
3003
,
0000
0000
1001
0000
0000
0001
0000
0000
,
1000
0000
0001
0000
0100
0001
0000
0000
,
1000
0001
0100
0000
0001
0000
0000
1000
,
0000
0000
1001
0000
0000
1000
0010
0000
,
0001
0100
0000
0000
1001
0000
0100
0000
,
0010
0000
0100
1000
0000
0010
0001
0000
,
0010
0000
0100
1000
0000
0001
1000
0001
,
0100
0000
0001
0000
0100
1000
0000
0010
,
0001
0010
0200
0000
,
0000
0000
0300
1001
,
0000
0100
0000
1000
,
0000
0100
0000
0010
,
0000
0100
0000
0010
,
0000
0001
0000
1000
,
0000
0010
0000
1000
,
0000
0001
0000
0010
,
0000
0001
0000
0010
,
0000
0100
0000
1000
,
0000
0010
0000
1000
,
0000
0100
0000
0010
,
0000
0001
1000
0010
,
0000
0100
0000
1000
,
0000
0100
0000
1000
,
0000
0010
0001
0100
,
0000
0010
0000
0100
,
0000
0001
0010
0100
,
0000
0010
0000
1000
,
0000
0010
0000
1000
,
0000
0010
0000
0100
,
0000
1001
0000
1000
,
0000
0001
1000
0100
,
0000
0001
0000
0100
,
1000
0010
0001
0100
,
0000
0001
0000
1000
,
0000
0001
0100
1000
,
0000
0010
0000
1000
,
0000
0100
1000
0010
,
0000
0001
0000
0100
,
0000
0001
0010
0100
,
0000
0001
0000
1000
,
0001
0100
0000
1000
,
0000
0100
0000
1000
,
0000
0101
0000
0010
,
0020
0000
0000
0000
,
0000
1030
0000
0001
,
0000
0100
0000
0001
,
0000
0010
1000
0100
,
0000
0010
1000
0100
,
0000
0010
0000
0001
,
0000
1000
0001
0100
,
0000
0010
0000
0100
,
0000
1000
0010
0001
,
1000
0100
0000
0010
,
0000
0100
0000
0001
,
1000
0100
0000
0001
,
1000
0010
0100
0000
,
0000
0010
0000
0000
,
0010
0000
0000
0000
,
1000
0001
0000
0100
,
0000
0010
0000
1000
,
0000
0001
0000
0010
,
0000
0100
0000
0010
,
0000
1000
0000
0100
,
0001
0000
0010
1000
,
0000
0000
0000
0000
,
0000
0000
0000
1001
,
0000
0000
0000
0000
,
0000
0000
0000
0220
,
0000
0000
0000
0000
,
0000
0000
0000
0000
,
0330
0000
0000
0000
;

//--------------- dance-single - ----------------
#NOTEDATA:;
#STEPSTYPE:dance-single;
#DESCRIPTION:;
#DIFFICULTY:Hard;
#METER:15;
#RADARVALUES:0,0,0,0,0;
#NOTES:
0000
0000
0000
0000
,
0000
0000
0000
0000
,
0000
0000
0000
0000
,
0000
0000
0000
0000
,
0000
0000
0000
0000
,
0000
0000
0000
0000
,
0000
0000
0000
0000
,
0000
0000
0000
0000
,
0000
0000
0000
0000
,
0000
0000
0000
0000
,
0000
0000
0000
0000
,
0000
0000
0000
0000
,
0000
0000
0000
0000
,
0000
1001
0000
0000
,
0110
0000
0000
1001
,
0000
0000
1000
0001
,
0000
0010
1000
0001
,
0100
0000
0001
1000
,
0010
0100
0001
0000
,
1000
0100
0010
0000
,
0001
0010
1000
0001
,
0000
0010
0100
0000
,
1000
0001
0000
0100
,
0000
0102
0000
0000
,
1003
0100
0010
0000
,
1000
0001
0000
0100
,
0001
0000
0000
0100
,
0010
0000
1000
0000
0001
0000
1000
0100
,
0010
0001
0000
0010
,
0110
0000
0100
0101
,
0000
0000
0100
1000
,
0001
0000
0010
0000
0001
0100
1000
0100
,
0010
1000
0100
1000
0010
1000
0010
0100
,
0001
1000
0100
0010
0100
0010
0100
0010
,
0100
0010
0001
0100
0001
1000
0001
0100
,
0010
0000
0001
1000
0010
0000
0110
0000
,
1001
0220
0000
0000
,
0000
0000
0000
0000
,
0000
0000
0000
0330
,
0010
0100
0001
1000
,
0010
1000
0100
0010
,
0001
0010
0001
0100
,
0001
0100
0001
0100
,
0010
1000
0001
0010
,
0100
1000
0010
0100
,
0001
1000
0010
1000
,
0001
1000
0100
0010
,
0100
0010
0001
0100
,
0001
1000
0010
1000
,
0010
1000
0001
0010
,
0100
1000
0100
1000
,
0001
0100
0010
1000
,
0001
0100
0010
1000
,
0100
1000
0010
1000
,
0010
1000
0001
0010
,
2000
0000
0000
0000
0000
0000
3001
0010
,
0100
1000
0100
0002
,
0000
0003
0000
0000
0000
0000
1001
0000
0000
0010
0000
0000
,
0000
0010
1000
0100
,
0010
0001
0010
1000
,
0001
0100
0010
0100
,
0010
1000
0001
0010
,
0100
0000
1000
0000
0001
0000
0010
0000
0100
0000
1000
0000
,
0001
0010
0100
2002
,
3003
0000
1000
0100
,
0010
1000
0100
0010
,
0001
1000
0001
0220
,
0330
0000
2002
3003
,
0000
0202
0303
1000
,
0001
0000
1000
0000
0010
0000
0100
0000
0001
0000
0100
0000
,
1000
0000
0000
0000
1001
0000
0000
0000
0110
0000
0000
0000
,
2002
0000
0000
0000
3000
0000
2003
0000
3200
0000
0000
0010
0320
0000
0000
0000
,
0000
0000
2030
0000
3002
0000
0000
0100
2003
0000
0000
0000
0000
0000
3002
0000
,
0000
0000
0000
0100
2003
0000
0000
0000
0000
0000
3001
0000
0010
0000
0100
0000
,
0002
0000
0000
0000
0000
0000
0023
0000
2030
0000
0000
0001
3200
0000
0000
0000
,
0000
0302
2003
3002
0203
0000
0000
0320
,
2030
0000
0000
0001
3020
0000
0230
0000
2300
0000
3002
0000
0203
0000
0320
0000
,
0032
0000
2003
3200
0302
0000
0000
0020
,
0000
0033
1001
0000
1000
0110
0000
0100
,
1010
0000
0100
0010
0100
0010
0000
0100
,
1001
0100
0001
0010
0100
0000
1001
0100
,
0000
0010
1001
0100
0010
1000
1001
0000
,
0000
0000
0010
0000
1000
0000
0100
0000
0001
0000
0010
0000
0100
0001
0010
1000
,
0100
1000
0100
1000
0001
0010
0001
0100
,
0010
1000
0010
0100
0010
1000
0001
1000
,
0001
1000
0001
0010
0100
0010
0001
0100
,
0001
0100
0001
0100
0020
0000
0000
0000
,
0000
0130
0000
0001
,
1000
0100
1000
0100
,
0010
0100
0010
0100
,
1000
0010
1000
0010
,
0100
0001
0100
0010
,
1000
0001
0100
0010
,
1000
0010
1000
0100
,
0010
0001
1000
0010
,
1000
0100
0010
0001
,
1000
0001
1000
0100
,
1000
0010
0100
0010
,
1000
0001
1000
0001
,
1000
0001
0100
0010
,
0100
0001
0100
0010
,
1000
0100
1000
0100
,
1000
0010
0100
0001
,
1000
0001
0100
0001
,
0100
1010
0000
0000
,
1001
0000
0000
0220
,
0000
0000
0000
0000
,
0330
0001
1000
0001
,
0010
0100
1000
0001
,
0010
0100
0010
0100
,
1000
0001
0010
0100
,
0010
0100
0010
0001
,
0010
0001
1000
0100
,
0010
0001
0010
0100
,
0010
0001
0100
0010
,
1000
0010
0100
0010
,
0100
0010
0100
0001
,
0010
0100
1000
0010
,
0100
0010
1000
0010
,
1000
0010
1000
0001
,
0010
0001
0100
0010
,
0100
0010
1000
0100
,
1000
0010
0100
0010
,
1000
0100
1000
0001
,
0100
0010
0100
0010
,
0100
0010
0100
0001
,
0010
0100
0010
0001
,
0010
0100
0010
0001
,
1000
0100
0010
0100
,
0010
0100
0010
0100
,
0010
0001
1000
0001
,
0100
0001
0100
0001
,
1000
0100
1000
0010
,
1000
0001
0110
0000
,
1000
1001
0000
0010
,
0110
0000
1000
0100
,
0001
1000
0100
0010
,
0100
0000
0010
1000
0010
1000
0100
1000
,
0010
1000
0010
0100
0010
1000
0100
0010
,
0001
1000
0001
1000
0001
1000
0010
1000
,
0010
0100
0001
0000
1000
0000
0001
0000
,
0010
0001
0100
0002
,
0000
0000
0000
0000
,
0000
0000
0000
1003
,
0000
0000
0000
0000
,
0000
0000
0000
2002
,
0000
0000
0000
0000
,
0000
0000
0000
0000
,
3003
0000
0000
0000
;

//--------------- dance-single - ----------------
#NOTEDATA:;
#STEPSTYPE:dance-single;
#DESCRIPTION:;
#DIFFICULTY:Challenge;
#METER:18;
#RADARVALUES:0,0,0,0,0;
#BPMS:0.000=376.000
,128.000=250.760
,145.000=376.000
,678.000=250.670
,696.000=376.000
,712.000=150.000
,717.000=125.000
;
#NOTES:
0000
0000
0000
0000
,
0000
0000
0000
0000
,
0000
0000
0000
0000
,
0000
0000
0000
0000
,
0000
0000
0000
0000
,
0000
0000
0000
0000
,
0000
0000
0000
0000
,
0000
0000
0000
0000
,
0000
0000
0000
0000
,
0000
0000
0000
0000
,
0000
0000
0000
0000
,
0000
0000
0000
0000
,
0000
0000
0000
0000
,
0000
0110
0000
0100
,
0101
0000
0000
1001
,
0000
0000
0000
0000
0001
1000
0001
0000
,
0100
1000
0001
0100
0010
0100
0010
0000
,
1001
0100
1000
0010
,
0001
0010
1100
0010
,
0001
0000
0100
0000
0010
0000
1000
0001
,
0010
0100
1000
0010
0001
0000
1001
0000
,
0001
0010
0100
0010
,
0001
0010
0100
1000
,
0100
0000
0010
0000
0001
1000
0100
0001
,
0010
1000
0100
0000
0001
0000
0100
0000
,
0010
1000
0010
1000
,
0010
0100
0001
0100
,
0010
0000
0100
1000
0001
0100
0010
1000
,
0001
0100
0010
1000
,
0010
1000
0100
0010
,
0001
1000
0100
0010
,
0001
0000
1000
0100
0001
0010
1000
0100
,
0001
1000
0001
1000
0100
1000
0100
0010
,
0100
1000
0010
0000
0001
0000
0010
0000
0001
0000
0100
0000
0001
0000
1000
0000
,
0100
0000
0010
0000
0001
0000
0100
0010
0001
0000
1000
0010
0001
0100
1000
0010
,
0100
1001
0101
1010
,
1001
0000
0010
1000
0100
0001
0010
1000
,
0001
1000
0010
1000
0001
0010
0001
1000
,
0000
0000
0101
0000
0000
1001
0000
0000
,
0100
0000
0010
0100
0010
0000
0001
0000
,
1000
0100
0001
1000
0001
0100
0010
0000
,
0010
0000
0010
0100
0001
0000
0001
0100
,
0010
0001
0100
0000
0100
1000
0001
1000
,
0100
0000
1000
0000
0001
0100
0010
0100
,
0010
0100
0001
0010
0001
1000
0010
1000
,
0001
0100
0001
1000
0001
0010
0100
1000
,
0010
0100
0010
0100
0001
0100
0010
1000
,
0001
0000
0010
0000
1000
0000
0001
1000
,
0001
0000
0010
0100
0010
0000
0001
0010
,
0001
0010
0001
1000
0100
1000
0100
1000
,
0010
0100
0010
0100
0010
0000
0001
1000
,
0001
0000
0001
1000
0010
0100
0001
0010
,
0001
1000
0001
0010
0100
0010
0001
0010
,
1000
0000
0100
1000
0001
0000
0001
0010
,
0001
0100
0010
0100
0010
1000
0100
1000
,
0202
0000
0000
0000
0303
0000
1000
0001
,
0100
0000
1000
0010
0001
0100
0002
0000
,
0000
1003
0110
0110
,
1000
0010
1000
0100
,
0010
0000
0001
1000
0010
0100
1000
0010
,
0001
1000
0100
1000
0010
0001
0100
1000
,
0010
1000
0001
0010
,
0100
0000
1000
0000
0001
0000
0010
0000
0100
0000
1000
0000
,
0001
0010
0100
2002
,
3003
0000
1000
0100
,
0010
0000
1000
0001
0100
1000
0010
0100
,
0001
0010
1000
0100
0001
0000
0220
0000
,
0330
0000
2002
3003
,
0000
0202
0303
1000
,
0001
0000
1000
0000
0010
0000
0100
0000
0001
0000
0100
0000
,
1000
0000
0000
0000
1001
0000
0000
0000
0110
0000
0000
0000
,
2002
0000
0000
0000
,
0000
3000
0203
0000
,
0320
0000
0000
0000
0000
0000
0000
0000
0000
0000
0130
0000
,
2000
0000
0000
0000
,
0000
0000
3002
0000
,
0023
0000
0000
0000
0000
0000
0000
0000
0000
0000
1030
0000
,
0200
0000
0000
0000
,
0000
0000
0320
0000
,
0000
0000
0000
0000
0000
0000
0000
0031
,
2000
0000
0000
0000
,
0000
0000
3002
0000
,
0023
0000
0230
0000
,
2300
0000
0000
0000
,
0000
0000
3002
0000
,
0023
0000
0000
0000
0000
0000
0230
0000
0000
0000
0301
0000
,
0020
0000
0000
0000
,
0000
0000
2030
0000
,
3200
0000
0320
0000
,
0032
0000
0023
0000
,
0000
0000
0230
0000
,
0320
0000
0000
1030
,
0200
0000
0320
0000
,
0032
0000
0023
0000
,
0230
0000
0320
0000
,
0230
0000
0000
0000
,
0000
0000
0000
0000
,
0320
0230
0320
0032
,
2000
0000
0000
0000
,
0000
0000
3003
0000
,
0000
0000
0000
0000
,
1001
0000
0001
1000
0001
0000
0200
0000
,
0000
0000
0320
0000
0031
0000
1000
0001
,
0100
0010
0100
0000
1000
0001
0200
0000
,
0000
0000
0301
1000
0010
0100
1000
0010
,
0001
0010
1000
0100
2000
0000
0000
0000
,
3002
0203
0000
0320
,
0130
1000
0010
0001
1000
0001
0100
0010
,
0100
0000
0020
0000
0000
0000
1030
0001
,
0100
0000
1000
0000
0001
0000
1000
0100
,
0001
0010
0100
0001
1000
0000
0010
0100
,
0010
0000
1001
0000
0010
0100
0010
0000
,
0101
0000
1000
0100
0001
0100
0010
0100
,
1000
0000
0001
0100
0010
0000
0100
1000
,
0001
0000
1000
0001
0010
0100
0001
0000
,
0010
0100
1000
0000
0001
0000
0110
0000
,
0000
0000
1000
0001
0000
0100
0010
0000
,
1000
0001
0100
0010
0200
0000
0000
0000
,
0000
0320
0000
0130
,
1000
0000
0010
0000
0100
1000
0001
0010
,
0010
0000
1000
0000
0010
0000
1000
0010
,
0001
1000
0100
0000
0001
0000
0010
1000
,
0001
0010
0100
1000
0010
0000
1000
0000
,
0100
0001
0010
1000
0100
0001
0010
0001
,
0100
1000
0010
1000
,
0001
0000
0100
0010
0001
0000
0010
0000
,
0001
0100
0010
1000
,
0010
1000
0100
0010
0001
0100
1000
0001
,
0100
1000
0010
0100
0001
1000
0010
0100
,
0001
1000
0001
0010
,
0100
1000
0010
0000
0001
0000
0100
0001
,
0010
0100
1000
0000
0100
0000
0010
0000
,
0100
0000
1000
0001
0010
0000
0100
0000
,
0010
0001
0100
1000
0010
0000
1000
0000
,
0100
0000
0010
1000
0001
0000
0100
0000
,
0001
0010
1000
0000
0100
0000
1000
0000
,
0010
0000
1000
0000
0001
0010
0100
0000
,
0001
0000
1000
0100
0010
0000
1000
0000
,
0100
0001
0010
1000
0100
1000
0010
0100
,
0001
1000
0100
0001
0100
0000
0001
0000
,
0010
1000
0001
0000
0100
0000
0010
0000
,
1000
0100
0001
0000
0010
0000
0001
1000
,
0010
0000
0100
1000
0010
0001
0100
0010
,
1000
0100
0010
0000
1000
0000
0001
0000
,
1000
0001
0100
0000
0010
0000
0100
1000
,
0010
0000
0001
0000
0010
0000
0001
0100
,
1000
0001
0010
0100
1000
0010
0001
1000
,
0100
0010
0100
0010
,
0100
1000
0001
0000
0010
0000
0001
0000
,
0100
0001
0010
0000
0100
0000
0010
0100
,
1000
0001
0100
1000
0010
0100
0001
0000
,
0100
0000
0010
0100
1000
0000
0001
0010
,
1000
0000
0100
0000
0010
1000
0001
0010
,
0100
1000
0010
0001
1000
0010
0100
0001
,
1000
0010
0100
1000
0010
0000
0001
0000
,
0100
0010
0001
0000
0010
0000
0100
1000
,
0010
0000
0001
0000
1000
0100
0010
0000
,
1000
0000
0001
1000
0010
0100
0001
0010
,
1000
0001
0100
0000
1000
0000
0001
0100
,
1000
0000
0100
0000
0010
0001
0100
0000
,
0010
0100
1000
0010
,
1000
0001
0100
0010
1000
0100
0001
0010
,
0100
1000
0010
0000
1000
0000
0100
0001
,
0010
0000
0100
0001
1000
0000
0001
0000
,
1000
0000
0001
0000
0010
0000
0001
0100
,
1000
0001
0010
0001
0100
0000
0001
0010
,
0100
0000
0010
0000
1000
0001
0100
0000
,
1000
0000
0001
1000
0010
0000
0001
0000
,
0100
0000
0001
0000
0010
0000
0100
1000
,
0010
0100
0001
1000
0010
0100
0010
0001
,
0010
0001
1000
0100
1000
0010
0100
0001
,
0100
0001
0100
0010
1000
0100
1000
0010
,
1000
0001
0010
0001
0220
0330
2002
3003
,
0202
0303
2020
3030
0202
0303
0000
0000
,
2002
0000
0000
0000
,
0000
0000
3003
0000
,
0220
0000
0000
0000
,
0000
0000
0330
0000
,
2000
3200
0320
0032
,
0023
0230
0020
0000
,
0000
0330
0000
0000
;
