
//----- song ID: kyos -----//
#TITLE:共奏鼓祭;
#ARTIST:Rigel_Wired;
#TITLETRANSLIT:Kyousou Kosai;
#GENRE:ナムコオリジナル;
#MUSIC:Kyousou Kosai.ogg;
#BANNER:Kyousou Kosai.png;
#BACKGROUND:Kyousou Kosai-bg.png;
#CDTITLE:./CDTitles/NSD A3.png;
#SAMPLESTART:16.341;
#SAMPLELENGTH:15.000;
#SELECTABLE:YES;
#OFFSET:0.000;
#BPMS:0.000=110.000
,30.000=220.000
,128.000=110.000
,164.000=55.000
,190.000=110.000
,192.000=220.000
,288.000=110.000
;
#STOPS:;
#BGCHANGES:;
#FGCHANGES:;

//--------------- dance-single - ----------------
#NOTES:
     dance-single:
     :
     Beginner:
     2:
     0,0,0,0,0:
0000
0000
0000
0000
,
0000
0000
0000
0000
,
0000
0000
0000
0000
,
0000
0000
0000
0000
,
1000
0000
0000
0001
,
0000
0000
0100
0000
,
0000
0020
0000
0000
,
0000
0000
0000
0030
0000
0000
0000
0000
,
1000
0000
0000
0001
,
0000
0000
0100
0000
,
0000
0000
0000
0000
,
0100
0000
0000
1000
,
0000
0000
0001
0000
,
0000
1000
0000
0000
,
0010
0000
0000
0100
,
0000
0000
1000
0000
,
0000
0000
0000
0000
,
0001
0000
0000
0010
,
0000
0000
0100
0000
,
0000
0000
0000
0000
,
1001
0000
0000
0100
,
0000
0000
0010
0000
,
0000
0000
0000
0000
,
0001
0000
0000
0010
,
0000
0000
0100
0000
,
0000
1000
0000
0000
,
0001
0000
0000
1000
,
0000
0000
0001
0000
,
0000
0010
0000
0000
,
0100
0000
0000
1000
,
0000
0000
0001
0000
,
0000
0010
0000
0000
,
1001
0000
0000
0100
0000
0000
0010
0000
,
0000
0001
0000
0000
0020
0000
0000
0200
,
0000
0000
0000
0000
0000
0330
0000
0000
,
1000
0000
0000
0001
0000
0000
1000
0000
,
0000
0000
0100
0000
0000
0001
0000
0000
0010
0000
0000
0000
0000
0000
1000
0000
,
0000
0000
0000
0000
0001
0000
0100
0000
0000
0000
1000
0000
0000
0001
0000
0000
,
1000
0000
0000
0001
0000
0000
0100
0000
,
0010
0000
1000
0000
0000
0001
0000
0000
1000
0000
0000
0000
0000
0000
0010
0000
,
0000
0000
0100
0000
0000
1000
0000
0000
0001
0000
0000
0010
0000
0000
1000
0000
,
0001
0000
0000
2000
,
0000
3002
0000
0000
0023
0000
0000
0230
,
0000
0300
2002
0000
0000
0000
0000
0000
,
0000
0000
0000
0000
0000
0000
0000
0000
0000
3003
0000
0000
1000
0000
0000
0010
,
0000
0000
0001
0000
0000
0000
0000
0000
1000
0000
0000
0100
0000
0000
0010
0000
,
0000
0000
1000
0000
0000
0001
0000
0000
,
0100
0000
0000
1000
0000
0000
0000
0000
,
0001
0000
0000
1000
,
0000
0000
0010
0000
,
0000
0000
0000
0000
,
0010
0000
0000
0001
,
0000
0000
1000
0000
,
0000
0001
0000
0000
,
0100
0000
0000
0010
,
0000
0000
0001
0000
,
0000
0000
0000
0000
,
1000
0000
0000
0100
,
0000
0000
0010
0000
,
0000
0000
0000
0000
,
1001
0000
0000
0010
,
0000
0000
0100
0000
,
0000
0000
0000
0000
,
1000
0000
0000
0100
,
0000
0000
0010
0000
,
0000
0001
0000
0000
,
1000
0000
0000
0001
,
0000
0000
1000
0000
,
0000
0100
0000
0000
,
0010
0000
0000
0001
,
0000
0000
1000
0000
,
0000
0100
0000
0000
,
1001
0000
0000
0010
,
0000
0000
1000
0000
,
0000
0001
0000
0000
,
0020
0000
0000
0200
,
0000
0000
0000
0000
0000
0000
0000
0330
;

//--------------- dance-single - ----------------
#NOTES:
     dance-single:
     :
     Easy:
     5:
     0,0,0,0,0:
0000
0000
0000
0000
,
0000
0000
0000
0000
,
0000
0000
0000
0000
,
0000
0000
0000
0000
,
1000
0000
0000
0100
0000
0000
0001
0000
,
0000
0010
0000
0000
0100
0000
0000
1000
,
0000
0020
0000
0000
,
0200
0000
0000
0330
0000
0000
0000
0000
,
1000
0000
0010
0001
,
0000
0010
0100
0000
,
0010
1000
0000
0001
,
0100
0000
0010
1000
,
0000
0100
0001
0000
,
0010
1000
0000
0000
,
0010
1000
0001
0100
,
0000
0000
1000
0010
,
0100
1000
0000
0000
,
0001
0010
0100
0010
,
0000
0000
0100
1000
,
0001
0110
0000
0000
,
1001
0000
0010
0100
,
0000
1000
0010
0000
,
0001
1000
0000
0000
,
0001
0000
0100
0010
,
0000
0001
0100
0000
,
0001
1000
0000
0000
,
0001
1000
0001
1000
,
0000
0000
0001
0100
,
0001
0010
0000
0000
,
0100
0001
0010
1000
,
0000
1000
0001
0100
,
1000
0010
0000
0000
,
1001
0000
0000
0100
0000
1000
0010
0100
,
0010
0001
0000
1000
0020
0000
0000
0200
,
0000
0000
0000
0000
0000
0330
0000
0000
,
1000
0000
0010
0001
0000
0000
1000
0001
,
1000
0000
0100
0000
0000
0001
0000
0000
0010
0000
0000
0000
0100
0000
1000
0000
,
0100
0000
0010
0000
0001
0000
0100
0000
0000
0000
1000
0000
0000
0001
0000
0000
,
1000
0000
0010
0001
0000
0001
0100
0000
,
0010
0000
1000
0000
0000
0001
0000
0000
1000
0000
0010
0000
0100
0000
0010
0000
,
0000
0000
0100
0000
0000
1000
0000
0000
0001
0000
0000
0010
0000
0000
1000
0000
,
0002
0000
0000
0203
0000
0000
2300
0000
0000
3020
0000
0000
2030
0000
0000
0000
,
0000
3002
0000
0000
0023
0000
0000
0230
,
0000
0300
2002
0000
0000
0000
0000
0000
,
3003
0000
0000
0000
0000
0000
0000
0000
0000
0000
0000
0000
1000
0000
0000
0010
,
0000
0000
0001
0000
0000
0010
0000
0000
1000
0000
0000
0100
0000
0000
0010
0000
,
0000
0001
0000
0000
1000
0010
0100
1000
0000
0000
0001
1000
0001
0100
0000
0000
,
0100
0010
0100
1000
0000
0000
1000
0001
0100
0000
1000
0000
0000
0000
0000
0000
,
0001
0000
0100
1000
,
0000
0100
0010
0000
,
0100
0001
0000
1000
,
0010
0000
0100
0001
,
0000
0010
1000
0000
,
0100
0001
0000
0000
,
0100
0001
1000
0010
,
0000
0000
0001
0100
,
0010
0001
0000
0000
,
1000
0100
0010
0100
,
0000
0000
0010
0001
,
1000
0110
0000
0000
,
1001
0000
0100
0010
,
0000
0001
0100
0000
,
1000
0001
0000
0000
,
1000
0000
0010
0100
,
0000
1000
0010
0000
,
1000
0001
0000
0000
,
1000
0001
1000
0001
,
0000
0000
1000
0010
,
1000
0100
0000
0000
,
0010
1000
0100
0001
,
0000
0001
1000
0010
,
0001
0100
0000
0000
,
1001
0000
0100
1000
0000
0001
0010
1000
,
0001
0100
0000
0010
1000
0000
0000
0100
,
0000
0000
0001
0000
0000
1000
0000
0000
,
0020
0000
0000
0200
,
0000
0000
0000
0000
0000
0000
0000
0330
;

//--------------- dance-single - ----------------
#NOTES:
     dance-single:
     :
     Medium:
     10:
     0,0,0,0,0:
0000
0000
0000
0000
,
0000
0000
0000
0000
,
0000
0000
0000
0000
,
0000
0000
0000
0000
,
1000
0000
0001
0010
0000
1000
0001
0000
,
1000
0100
0000
0001
0010
0000
0001
1000
,
0000
0010
0200
0000
0000
0000
0000
0000
,
0020
0000
0000
0330
0000
0000
0000
0000
,
1000
0010
0100
0001
,
1000
0100
0010
1000
,
0100
1000
0000
0001
,
0010
1000
0100
1000
,
0001
0010
0001
1000
,
0100
1000
0000
0000
,
0100
1000
0001
0010
,
0100
0010
1000
0100
,
0010
1000
0001
1000
,
0001
0100
0010
0100
,
1000
0001
0010
1000
,
0001
0110
0000
0000
,
1001
0010
0100
0010
,
0001
1000
0100
1000
,
0001
1000
0100
0010
,
0001
0100
0010
0100
,
1000
0001
0010
1000
,
0001
1000
0100
0010
,
0001
1000
0001
1000
,
0010
0100
0001
0010
,
0001
0100
1000
0001
,
0010
0001
0100
1000
,
0001
1000
0001
0010
,
1000
0100
0010
0100
,
1001
0000
0100
0010
0000
1000
0100
0010
,
0100
0001
0010
1000
0200
0000
0000
0020
,
0000
0000
0000
0000
0000
0330
0000
0000
,
1000
0010
0100
0001
0100
0010
1000
0001
,
1000
0000
0010
0000
0000
0001
0000
0000
0100
0000
0001
0000
0010
0000
1000
0000
,
0010
0000
0100
0000
0001
0000
0010
0000
0001
0000
1000
0000
0000
0001
0000
0000
,
1000
0010
0100
0001
1000
0001
0020
0000
,
0130
0000
1000
0000
0000
0001
0000
0000
1000
0000
0100
0000
0010
0000
0100
0000
,
1000
0000
0010
0000
0100
1000
0000
0000
0001
1000
0000
0100
0010
0000
1000
0000
,
0002
0000
0000
0023
0000
0000
2030
0001
0010
3200
0000
0000
2300
0000
0000
0000
,
0000
0000
3002
0000
0000
0000
0000
0000
0203
0000
1000
0010
0000
0000
0320
0000
,
0100
0100
0030
0000
2002
0000
0000
0000
0000
0000
0000
0000
0000
0000
0000
0000
,
3003
0000
0000
0000
0000
0000
0000
0000
0000
0000
0000
0000
1000
0000
0010
0100
,
0000
0000
0001
0000
1000
0100
0000
0000
1000
0000
0001
0010
0000
1000
0100
0000
,
0010
0001
0000
0000
1000
0100
0010
1000
0001
0000
0001
1000
0001
0010
0001
0000
,
0010
0100
0010
1000
0001
0000
1000
0001
0010
0000
1000
0000
0000
0000
0000
0000
,
0001
1000
0010
1000
,
0001
0010
0100
1000
,
0010
0001
0100
1000
,
0100
0001
0010
0001
,
1000
0100
1000
0001
,
0010
0001
1000
0001
,
0010
0001
1000
0100
,
0010
0100
0001
0010
,
0100
0001
1000
0001
,
1000
0010
0100
0010
,
0100
0010
0100
0001
,
1000
0110
0000
0000
,
1001
0001
0010
0100
,
1000
0001
0010
0001
,
1000
0001
0010
0100
,
1000
0010
0100
0010
,
0001
1000
0100
0010
,
1000
0001
0010
0100
,
1000
0001
1000
0001
,
0010
0001
1000
0100
,
1000
0010
0001
1000
,
0100
1000
0010
0001
,
1000
0001
1000
0100
,
0001
0010
0001
0100
,
1001
0000
0010
1000
0100
0001
0100
1000
,
0001
0010
0001
0100
1000
0000
0001
0010
,
0000
1000
0001
0000
0001
1000
0000
0010
,
0200
0000
0000
0020
,
0000
0000
0000
0000
0000
0000
0000
0330
;

//--------------- dance-single - ----------------
#NOTES:
     dance-single:
     :
     Hard:
     15:
     0,0,0,0,0:
0000
0000
0000
0000
,
0000
0000
0000
0000
,
0000
0000
0000
0000
,
0000
0000
0000
0000
,
2001
0000
0000
3001
0010
0100
2000
0000
,
0000
3001
0010
0100
2000
0000
0000
3001
,
0010
0100
2002
0000
0000
0000
0000
0000
,
0003
0000
0000
3001
0100
1000
0001
0010
,
1001
0000
0010
0100
0010
1000
0010
1000
,
0001
0100
0010
0100
0001
0100
0001
0010
,
0001
0010
0100
0010
0001
1000
0010
1000
,
0010
1000
0001
0100
0001
0010
0001
0010
,
0100
1000
0010
1000
0010
0100
0001
0010
,
0001
1000
0100
1000
0001
0010
0100
0010
,
2000
0000
3100
0010
0001
1000
0100
0010
,
0200
0000
0310
1000
0010
0100
0001
0010
,
2000
0000
3001
1000
0010
0100
0010
0100
,
0002
0000
0013
1000
0100
1000
0001
0100
,
0010
1000
0100
0010
0001
0100
0001
0100
,
0001
0010
1000
0001
0000
1000
0001
0100
,
1001
0000
0010
1000
0010
0100
0010
1000
,
0100
1000
0001
0010
0100
0010
0100
1000
,
0100
0010
0001
0100
0001
1000
0100
0010
,
0100
0010
0100
1000
0010
1000
0100
0010
,
0001
0010
0001
0100
0010
0100
0001
0100
,
0010
1000
0100
1000
0100
1000
0001
0100
,
2000
0000
3001
1000
0100
0010
0001
1000
,
0020
0000
0130
0010
0001
0100
0001
0010
,
0200
0000
0310
1000
0010
1000
0001
0010
,
0002
0000
0103
1000
0010
1000
0001
1000
,
0020
0000
0031
1000
0100
1000
0010
1000
,
0002
0000
0103
1000
0100
0010
0100
0010
,
0001
0010
0001
1000
0100
0010
0100
1000
,
0100
0000
0010
0000
0001
0000
1000
0001
2000
0000
0000
0000
0000
0000
0002
0000
,
0000
0000
0000
0000
0000
3003
0000
0000
,
1001
0000
1000
0001
0000
0000
0010
1000
0100
0001
0010
1000
0001
1000
0001
0100
,
0001
0010
0100
0000
0100
1001
0000
0100
0220
0000
0330
0000
1000
0001
1000
0100
,
0010
0001
1000
0001
1000
0000
0001
0010
0100
0001
1000
0000
0001
1001
0000
1000
,
1001
0000
0001
0010
0100
1000
0001
0010
0100
0001
0010
0100
2000
0000
0000
0000
,
3002
0000
1003
0000
0100
0110
0000
1000
1001
0000
0001
1000
0001
0000
0110
0000
,
0100
1000
0001
0000
0110
0000
0001
1000
0001
0000
0110
0000
1000
0001
1000
0001
,
2000
0000
0000
3002
0000
0000
0203
0000
0000
0302
0000
0000
2003
0000
0000
0000
,
0000
3200
0000
0000
0320
0000
0000
0200
,
0000
0330
2002
0000
0000
0000
0000
0000
,
3003
0000
0000
0000
0000
0000
0000
0000
0000
0000
0000
0000
1000
0000
0000
0001
,
0000
0000
0100
0000
0000
1000
0000
0000
0001
0000
0000
0100
0000
0000
1000
0000
,
0000
0001
0000
0000
1000
0100
0010
0001
0000
0000
0001
0010
0100
1000
0000
0000
,
0001
1000
0001
1000
0000
0000
0100
0000
0000
0000
1001
0000
1000
0100
0010
0001
,
1010
0000
0100
0010
0100
0001
0100
0001
,
1000
0010
0100
0010
1000
0010
1000
0100
,
1000
0100
0010
0100
1000
0001
0100
0001
,
0100
0001
1000
0010
1000
0100
1000
0100
,
0010
0001
0100
0001
0100
0010
1000
0100
,
1000
0001
0010
0001
1000
0100
0010
0100
,
0002
0000
0013
0100
1000
0001
0010
0100
,
0020
0000
0130
0001
0100
0010
1000
0100
,
0002
0000
1003
0001
0100
0010
0100
0010
,
2000
0000
3100
0001
0010
0001
1000
0010
,
0100
0001
0010
0100
1000
0010
1000
0010
,
1000
0100
0001
1000
0000
0001
1000
0010
,
1001
0000
0100
0001
0100
0010
0100
0001
,
0010
0001
1000
0100
0010
0100
0010
0001
,
0010
0100
1000
0010
1000
0001
0010
0100
,
0010
0100
0010
0001
0100
0001
0010
0100
,
1000
0100
1000
0010
0100
0010
1000
0010
,
0100
0001
0010
0001
0010
0001
1000
0010
,
0002
0000
1003
0001
0010
0100
1000
0001
,
0200
0000
0310
0100
1000
0010
1000
0100
,
0020
0000
0130
0001
0100
0001
1000
0100
,
2000
0000
3010
0001
0100
0001
1000
0001
,
0200
0000
1300
0001
0010
0001
0100
0001
,
2000
0000
3010
0001
0010
0100
0010
0100
,
2000
0000
0000
3200
0000
0320
0031
0010
,
0100
2000
0000
0000
3002
0000
0000
0203
,
0000
0000
0320
0000
0000
2030
0100
3002
,
2003
0000
0000
0002
,
0000
0000
0000
0000
0000
0000
0000
3003
;

//--------------- dance-single - ----------------
#NOTES:
     dance-single:
     :
     Challenge:
     15:
     0,0,0,0,0:
0000
0000
0000
0000
,
0000
0000
0000
0000
,
0000
0000
0000
0000
,
0000
0000
0000
0000
,
1002
0000
0000
0000
0003
MMMM
1000
0000
0100
0000
0010
0000
0002
0000
0000
0000
,
0003
MMMM
1000
0000
0100
0000
0010
0000
0002
0000
0000
0000
0003
MMMM
1000
0000
,
0100
0000
0010
0000
2002
0000
0000
0000
0000
0000
0000
0000
0000
0000
0000
3003
,
MMMM
MMMM
MMMM
1000
0010
0001
1000
0100
,
1001
0000
0100
0010
0100
0001
0100
0001
,
1000
0010
0100
0010
1000
0010
1000
0100
,
1000
0100
0010
0100
1000
0001
0100
0001
,
0100
0001
1000
0010
1000
0100
1000
0100
,
0010
0001
0100
0001
0100
0010
1000
0100
,
1000
0001
0010
0001
1000
0100
0010
0100
,
0002
0000
0013
0100
1000
0001
0010
0100
,
0020
0000
0130
0001
0100
0010
1000
0100
,
0002
0000
1003
0001
0100
0010
0100
0010
,
2000
0000
3100
0001
0010
0001
1000
0010
,
0100
0001
0010
0100
1000
0010
1000
0010
,
1000
0100
0001
1000
0000
0001
1000
0010
,
1001
0000
0100
0001
0100
0010
0100
0001
,
0010
0001
1000
0100
0010
0100
0010
0001
,
0010
0100
1000
0010
1000
0001
0010
0100
,
0010
0100
0010
0001
0100
0001
0010
0100
,
1000
0100
1000
0010
0100
0010
1000
0010
,
0100
0001
0010
0001
0010
0001
1000
0010
,
0002
0000
1003
0001
0010
0100
1000
0001
,
0200
0000
0310
0100
1000
0010
1000
0100
,
0020
0000
0130
0001
0100
0001
1000
0100
,
2000
0000
3010
0001
0100
0001
1000
0001
,
0200
0000
1300
0001
0010
0001
0100
0001
,
2000
0000
3010
0001
0010
0100
0010
0100
,
1000
0000
0100
0000
1000
MMMM
0001
0000
0010
0000
0100
MMMM
0010
0000
0001
0000
,
0010
MMMM
0100
0000
1000
0000
0001
1000
0002
0000
0000
0000
0000
0000
2000
0000
,
0000
0000
0000
0000
0000
0000
0000
0000
0000
0000
0000
0000
0000
0000
0000
0000
0000
0000
0000
0000
3003
MMMM
0000
0000
MMMM
0000
0000
0000
MMMM
0000
0000
0000
,
1001
0000
0001
1000
MMMM
0000
0100
0001
0010
1000
0100
0001
1000
0001
1000
0010
,
1000
0000
0100
0000
0010
0000
MMMM
0000
0010
0000
1001
0000
0000
0000
0010
0000
0220
0000
0000
0330
MMMM
0000
0000
0000
0001
0000
1000
0000
0001
0000
0010
0000
,
0100
1000
0001
1000
0001
MMMM
1000
0100
0010
1000
0001
0000
1000
1001
0000
0001
,
1001
0000
0000
0000
0000
0000
1000
0000
0000
0100
0000
0000
0010
0000
0000
0001
0000
0000
1000
0000
0000
0100
0000
0000
0010
0000
0000
1000
0000
0000
0100
0000
0000
0010
0000
0000
0001
0000
1000
0000
0001
0000
1000
0000
0001
0000
1000
0000
,
0001
0000
0100
0000
1000
0000
0001
0000
0000
MMMM
0000
0000
0010
0000
0000
0110
0000
0000
MMMM
0000
0000
0001
0000
0000
1001
0000
0000
0000
0000
0000
1000
0000
0000
0001
0000
0000
1000
0000
0000
MMMM
0000
0000
0110
0000
0000
0000
0000
0000
,
0010
0001
1000
MMMM
0110
0000
1000
0001
1000
MMMM
0110
0000
0001
1000
0001
1000
,
0002
0000
0000
0000
0003
MMMM
2000
0000
0000
0000
3000
MMMM
0020
0000
0032
0000
0023
0000
2030
0000
3200
0000
0320
0000
0032
0000
0000
0000
0000
0000
0000
0000
,
0000
0000
0003
MMMM
0020
0000
0000
0000
0000
0000
0000
0000
0000
0000
0030
MMMM
0200
0000
0000
0000
0000
0000
0000
0000
0000
0000
0000
0000
0020
0000
0000
0000
,
0000
0000
0000
0000
0330
MMMM
0000
0000
2002
0000
0000
0000
0000
0000
0000
0000
0000
0000
0000
0000
0000
0000
0000
0000
0000
0000
0000
0000
0000
0000
0000
0000
,
3003
MMMM
0000
0000
MMMM
0000
MMMM
0000
MMMM
0000
MMMM
0000
MMMM
0000
MMMM
0000
MMMM
0000
1000
0000
0100
0001
1000
0100
0002
0000
0000
1003
MMMM
0000
0020
0000
,
0000
0000
1030
0000
0020
0000
0000
0000
0030
MMMM
0002
0000
0000
0000
0003
MMMM
0200
0000
0000
0000
0302
0000
0013
MMMM
0000
0000
1000
0000
0002
0000
0003
MMMM
,
0100
0000
2000
0000
0000
0000
3100
0010
0001
0000
0010
0000
0100
0000
1000
0000
0001
0000
0010
0000
1000
0000
0100
0000
0010
0000
0001
0000
0000
0000
0010
0000
,
1000
0000
0001
0000
1000
0000
0001
0000
0100
0000
0001
1000
0010
MMMM
MMMM
MMMM
MMMM
0000
MMMM
0000
1001
0000
0000
0000
0001
0000
0010
0000
0100
0000
1000
0000
,
0101
0000
0010
0100
0010
1000
0010
1000
,
0001
0100
0010
0100
0001
0100
0001
0010
,
0001
0010
0100
0010
0001
1000
0010
1000
,
0010
1000
0001
0100
0001
0010
0001
0010
,
0100
1000
0010
1000
0010
0100
0001
0010
,
0001
1000
0100
1000
0001
0010
0100
0010
,
2000
0000
3100
0010
0001
1000
0100
0010
,
0200
0000
0310
1000
0010
0100
0001
0010
,
2000
0000
3001
1000
0010
0100
0010
0100
,
0002
0000
0013
1000
0100
1000
0001
0100
,
0010
1000
0100
0010
0001
0100
0001
0100
,
0001
0010
1000
0001
0000
1000
0001
0100
,
1001
0000
0010
1000
0010
0100
0010
1000
,
0100
1000
0001
0010
0100
0010
0100
1000
,
0100
0010
0001
0100
0001
1000
0100
0010
,
0100
0010
0100
1000
0010
1000
0100
0010
,
0001
0010
0001
0100
0010
0100
0001
0100
,
0010
1000
0100
1000
0100
1000
0001
0100
,
2000
0000
3001
1000
0100
0010
0001
1000
,
0020
0000
0130
0010
0001
0100
0001
0010
,
0200
0000
0310
1000
0010
1000
0001
0010
,
0002
0000
0103
1000
0010
1000
0001
1000
,
0020
0000
0031
1000
0100
1000
0010
1000
,
0002
0000
0103
1000
0100
0010
0100
0010
,
0002
0000
0000
0000
0003
MMMM
0020
0000
0000
0000
0230
0000
2300
0000
3200
0000
,
0320
0000
0032
0000
0000
0000
0003
MMMM
2000
0000
0000
0000
3000
MMMM
0020
0000
,
0000
0000
0030
MMMM
0200
0000
0000
0000
0300
MMMM
0002
0000
0010
0000
2003
0000
,
3002
0000
0000
2000
,
0000
0000
0000
0000
0000
0000
0000
3003
;
