
//----- song ID: krdoto -----//
#TITLE:狂瀾怒濤;
#ARTIST:NAMCO Sound Team "xi";
#TITLETRANSLIT:Kyourandoto;
#GENRE:ナムコオリジナル;
#MUSIC:Kyourandoto.ogg;
#BANNER:Kyourandoto.png;
#BACKGROUND:Kyourandoto-bg.png;
#CDTITLE:./CDTitles/NSD A3.png;
#SAMPLESTART:101.240;
#SAMPLELENGTH:15.000;
#SELECTABLE:YES;
#OFFSET:0.757;
#BPMS:0.000=140.000
,19.000=280.000
,200.000=121.000
,201.000=204.000
,202.000=209.000
,203.000=471.000
,204.000=609.000
,205.000=694.000
,211.000=161.000
,212.000=266.000
,213.000=280.000
,308.000=851.000
,311.000=35.000
,318.000=70.000
,319.000=140.000
,323.000=263.000
,324.000=211.000
,325.000=214.000
,326.000=288.000
,327.000=279.000
,329.000=280.000
,330.000=840.000
,331.000=280.000
,387.000=300.000
,534.000=559.522
,535.000=555.000
,536.000=500.000
,537.000=400.000
,538.000=300.000
,540.000=200.000
,542.000=100.000
,543.000=49.230
,544.000=24.000
,544.688=23.000
,545.000=139.881
,547.000=999.000
,554.000=17.485
;
#DISPLAYBPM:17.000:300.000;
#STOPS:;
#BGCHANGES:;
#FGCHANGES:;

//--------------- dance-single - ----------------
#NOTES:
     dance-single:
     :
     Beginner:
     9:
     0,0,0,0,0:
0000
0000
0000
0000
,
0000
0000
0000
0000
,
0000
0000
0000
0000
,
0000
0000
0000
0000
,
0000
0000
0000
1001
,
0000
0000
0000
0010
,
0000
0100
0000
0000
,
1000
0000
0000
0001
,
0000
0100
0000
2002
,
0000
0000
0000
0000
,
0000
0000
0000
0000
,
0000
0000
0000
0000
,
3003
0120
0000
0000
,
0000
0000
0000
0000
,
0000
0000
0000
0000
,
0000
0000
0000
0000
,
0000
0130
0000
0000
,
0000
0000
0000
0000
,
0000
1000
0000
0000
,
0000
0001
0000
0010
,
0000
0100
0000
1000
,
0000
0001
0000
0100
,
0000
0010
0000
1000
,
0000
0001
0000
0100
,
0000
0010
0000
1000
,
0000
0001
0000
0100
,
0000
0010
0000
1000
,
0000
0001
0000
0010
,
0000
0000
0000
0000
,
0000
0010
0000
1000
,
0000
0001
0000
0100
,
0000
0010
0000
1000
,
0000
0001
0000
0100
,
0000
0010
0000
1000
,
0000
0001
0000
0100
,
0000
0010
0000
1000
,
0000
0001
0000
0100
,
0000
0010
0000
1000
,
0000
0001
0000
0100
,
0000
0010
0000
1000
,
0000
0001
0000
0100
,
0000
0010
0000
1000
,
0000
0001
0000
0100
,
0000
1001
0000
0000
,
0000
0000
0000
0000
,
0000
0000
0000
0000
,
0000
0000
0000
0000
,
0000
0000
0000
0000
,
0000
0010
0000
0000
,
0000
0100
0000
0000
,
0020
0000
0000
0000
,
0000
0000
0000
0000
,
0000
0000
0000
0000
,
0030
1000
0000
0000
,
0000
0001
0000
0000
,
0000
0010
0000
0100
,
0000
1000
0000
0001
,
0000
0100
0000
0010
,
0001
1000
0001
0000
,
0000
0000
1001
0000
,
0000
0000
0110
0000
,
1000
0000
0001
0010
,
0100
0000
0000
0000
,
0000
0000
1000
0000
,
0010
0100
0000
0000
,
0001
0010
1000
0000
,
0000
0001
0000
0000
,
0000
0000
0100
0000
,
0001
1000
0020
0000
,
0000
0130
0000
1000
,
0000
0001
0000
0100
,
0000
0010
0000
1000
,
0000
0001
0000
0100
,
0000
0010
0000
1000
,
0000
0001
0000
0100
,
0000
0010
0000
0100
,
0000
1000
0000
0001
,
0000
0000
0000
0100
,
0010
0000
1000
0100
0000
0001
0000
0000
0000
1000
0000
0010
0000
0000
0001
0010
,
0000
0000
0000
0010
0001
0010
0001
0000
0000
0000
0000
0000
0001
0000
0000
0010
0000
0000
0000
0000
0000
0000
0000
0000
0000
0000
0000
0000
0000
0000
0000
0000
0000
0000
0000
0000
1001
0000
0000
0000
0000
0000
0000
0000
0000
0000
0000
0000
,
0000
0000
0000
0000
,
0000
0000
0000
0000
,
0000
0000
0000
0000
,
1000
0000
0001
0000
,
0010
0000
1000
0000
,
0001
0000
0100
0000
,
0010
0000
0001
0000
,
1000
0000
0001
0000
,
0100
0000
0010
0000
,
1000
0000
0001
0000
,
0100
0000
0010
0000
,
0001
0000
1000
0000
,
0001
0000
0100
0010
,
0000
2002
0000
0000
,
0000
0000
0000
0000
,
0000
0000
0000
0000
,
0000
0000
0000
3003
,
0000
0000
0000
0000
,
0000
0000
0000
0000
,
0000
0000
0000
0000
,
0000
0000
0000
0000
,
0000
0000
0001
1001
,
0010
0100
0000
1000
,
0001
0100
0000
0001
,
1000
0001
0000
0010
,
0100
1000
0001
0010
,
0100
1000
0001
0000
,
0100
0000
1000
0000
,
0001
0100
0010
0000
,
1000
0000
0001
0010
,
0100
0001
1000
0000
,
0001
0000
0100
0001
,
0010
0100
1000
0001
,
0010
0100
1000
0002
,
0000
0000
0000
0000
,
0003
1001
0000
0010
,
0000
0100
0000
1000
,
0000
0001
0000
0100
,
0000
0010
0000
1000
,
0000
0001
0000
0100
,
0000
0010
0000
0100
,
0000
1000
0000
0001
,
0000
0010
0000
0001
,
0000
1000
0000
0001
,
0000
0100
0000
0010
,
0000
1000
0000
0001
,
0000
0100
0000
0010
,
0000
1000
0000
0001
,
0000
0100
0000
1000
,
0000
0001
0010
0100
,
1000
0001
0010
0100
,
1000
0001
1000
0001
,
1000
0001
1000
0001
,
1000
2002
0000
0000
,
0000
0000
0000
0000
,
0000
0000
0000
0000
0000
0000
0000
0000
0000
0000
0000
0000
0000
3003
0000
0000
,
0010
0000
0000
0000
0000
0000
0000
0000
0000
0000
0000
0001
0000
0000
0000
0000
0000
0000
0000
0000
0000
0000
0000
0000
0000
0000
0000
0000
0000
0000
0000
0000
0000
0000
0000
0000
0000
0000
0000
0000
0000
0000
0000
0000
0000
0000
0000
0000
0000
0000
0000
0000
0000
0000
0000
0000
0000
0000
0000
0000
0000
0000
0000
0000
,
0000
0000
0000
0000
,
0000
0000
2002
0000
,
0000
3003
0000
0000
0000
0000
0000
0000
0000
0000
0000
0000
0000
0000
0000
0000
;

//--------------- dance-single - ----------------
#NOTES:
     dance-single:
     :
     Easy:
     13:
     0,0,0,0,0:
0000
0000
0000
0000
,
0000
0000
0000
0000
,
0000
0000
0000
0000
,
0000
0000
0000
0000
,
0000
0000
0000
1001
,
0000
0000
0000
0010
,
0001
0100
0000
0000
,
1000
0000
0001
0010
,
0000
1001
0000
0110
,
0000
0000
1000
0000
,
0100
0002
0000
0000
,
0000
0000
0000
1003
,
0000
0020
0000
0000
,
0000
0000
0000
0000
,
0030
2000
0000
0000
,
0000
0000
0000
3000
,
0000
0002
0000
0000
,
0000
0000
0000
0000
,
0000
1003
0000
0000
,
0000
2000
0000
0000
,
0000
3001
0000
0010
,
0000
0100
0000
1000
,
0000
0001
0000
0100
,
0000
0010
0000
1000
,
0000
0001
0000
0100
,
0000
1000
0000
0001
,
0000
0100
0001
0010
,
0100
1000
0001
0200
,
0000
0000
0000
0000
,
0300
1000
0001
0010
,
0000
0100
1000
0001
,
0000
0100
0010
1000
,
0001
0100
0010
0100
,
0000
0001
0010
1000
,
0000
0001
0100
0010
,
0000
1000
0001
0100
,
0010
0100
1000
0001
,
0000
0100
0001
0010
,
0000
0100
1000
0001
,
0000
0100
0010
1000
,
0001
0100
0010
1000
,
0000
0001
1000
0001
,
0100
0010
1000
0001
,
0100
2002
0000
0000
,
0000
0000
0000
0000
,
0000
0000
0000
0000
,
0000
0000
0000
0000
,
0000
3003
0000
0000
,
0000
0010
0000
0000
,
0000
0100
0000
0000
,
0010
2002
0000
0000
,
0000
0000
0000
0000
,
0000
0000
0000
3003
,
0000
1000
0000
0001
,
0000
0010
0000
0100
,
0000
1000
0001
0100
,
0000
0020
0000
0000
,
0000
0130
1000
0001
,
0100
1000
0001
0200
,
0000
0000
0310
0000
,
0000
0000
1001
0000
,
0100
0000
1001
0000
,
0100
0000
0020
0000
,
0000
0000
1030
0000
,
0001
1000
0100
0000
,
0010
0100
1000
0000
,
0000
0001
0000
0100
,
0000
1000
0001
0100
,
0000
0001
0010
1000
,
0000
1000
0001
0010
,
0000
0100
0000
0010
,
0000
1000
0001
0200
,
0000
0301
2000
0000
,
3001
0010
1000
0001
,
0010
0100
1000
0001
,
0100
1000
0001
0200
,
0000
1300
0020
0000
,
0031
0000
0000
0000
0000
0000
0000
0000
0000
0000
0000
0000
1001
0000
0010
1000
,
0001
0000
0000
0000
0010
0000
0100
0000
0010
0000
1000
0000
0000
0001
0100
0000
1000
0000
0001
0000
0000
0000
0020
0000
0000
0000
1030
0000
0001
0000
0100
0000
,
0000
0000
0000
0010
1000
0001
0100
0000
0000
0000
0000
0000
0010
0000
0000
0000
0000
0000
1000
0000
0000
0001
0000
0000
1000
0000
0000
0000
0000
0000
0000
0000
0000
0000
0000
0000
1001
0000
0000
0000
0000
0000
0000
0000
0000
0000
0000
0000
,
0000
0000
0000
1000
,
0100
0001
0100
0010
,
1000
0010
0000
0000
,
0010
1000
0001
0000
,
0010
1000
0001
0000
,
0100
0000
1000
0000
,
0001
0100
0010
0000
,
1000
0000
0001
0000
,
0100
0000
0010
1000
,
0001
0100
0000
0010
,
1000
0001
0100
1000
,
0001
0100
1000
0001
,
0100
0010
1000
0001
,
0000
0220
0000
0000
,
0000
0000
0000
0000
,
0000
0000
0000
0000
,
0000
0000
0000
0330
,
0000
0000
0000
0000
,
0000
0000
0000
0000
,
0000
0000
0000
0000
,
0000
0000
0000
0000
,
0000
0000
0002
1003
,
0100
0010
0001
1000
,
0001
0100
0010
1000
,
0001
0100
0010
1000
,
0001
0100
0010
1000
,
0001
0010
0100
0010
,
1000
0001
0010
0100
,
1000
0001
0010
0100
,
1000
0001
0100
0010
,
0001
1000
0001
0100
,
0010
1000
0001
0100
,
0010
0001
0010
0100
,
1000
0002
0010
0100
,
0000
0000
0000
0000
,
0000
1003
0010
1000
,
0001
0100
0010
1000
,
0001
0010
0100
0001
,
0010
0100
0001
1000
,
0001
0010
0100
0001
,
1000
0001
0010
0100
,
1000
0001
0010
0100
,
0001
1000
0001
0010
,
0100
1000
0001
0010
,
0100
0001
1000
0001
,
0100
1000
0001
0010
,
0100
0001
1000
0001
,
0010
0100
0001
0010
,
1000
0001
0010
0100
,
1000
0001
0010
0100
,
0001
1000
0001
0010
,
0100
0001
1000
0001
,
0100
0010
1000
0001
,
0010
1001
0000
0000
,
0000
0000
0000
0000
,
0000
0000
0000
0000
,
0001
0000
0000
0000
0000
0000
0000
0000
1000
0000
0000
0001
0000
0000
0000
0000
0010
0000
0000
0000
0000
0000
0000
0000
0000
0000
0000
0000
0000
0000
0000
0000
0200
0000
0000
0000
0000
0000
0000
0000
0000
0000
0000
0000
0000
0000
0000
0000
0310
0000
0000
0000
0000
0000
0000
0000
0000
0000
0000
0000
0000
0000
0000
0000
,
0000
0000
0000
0000
,
0000
0000
2002
0000
,
0000
3003
0000
0000
0000
0000
0000
0000
;

//--------------- dance-single - ----------------
#NOTES:
     dance-single:
     :
     Medium:
     15:
     0,0,0,0,0:
0000
0000
0000
0000
,
0000
0000
0000
0000
,
0000
0000
0000
0000
,
0000
0000
0000
0000
,
0000
0000
0000
1001
,
0000
0000
0010
1000
,
0000
0010
0000
0000
,
1000
0000
0001
0100
,
0000
1000
0000
1002
,
0000
0000
0000
0000
,
0000
1003
0100
0001
,
0100
0010
1000
0001
,
0100
0020
0000
0000
,
0000
0000
0000
0000
,
0000
0000
0000
0000
,
0000
0000
0000
0000
,
0000
2030
0000
0000
,
0000
0000
0000
0000
,
0000
3002
0000
0000
,
0000
2003
0000
0000
,
0000
3010
0001
0001
,
1000
0001
0010
0100
,
0010
0100
0010
0001
,
1000
0001
0010
0100
,
1000
0100
1000
0100
,
0010
0001
1000
0100
,
0010
0000
0001
1000
0100
0010
0100
1000
,
0100
0010
0001
0010
0001
0100
2002
0000
,
0000
0000
3003
0000
,
1000
1001
0100
0010
,
1000
0001
0100
0010
,
1000
0001
0100
0010
,
1000
0001
0010
0100
,
0001
1000
0001
0100
,
0010
0100
1000
0001
,
0100
0000
0010
0000
0001
0000
1000
0001
,
0100
0010
0001
0000
1000
0000
0100
0000
,
0002
1003
0001
0100
,
0010
0100
1000
0100
,
1000
0100
1000
0001
,
0010
0100
0010
0100
,
0010
1000
0001
1000
0100
0010
0100
1000
,
0010
1000
0100
0010
0001
0100
0001
0100
,
0001
0010
2002
0000
0000
0000
0000
0000
,
0000
0000
0000
0000
,
0000
0000
0000
0000
,
0000
0000
0000
0000
,
3003
0010
0000
0100
,
0000
1000
0000
0001
,
0000
0100
0000
1000
,
0001
1000
0001
0100
,
0000
0002
0000
0000
,
0000
0000
0000
1003
,
0010
0100
1000
0001
,
1000
0100
0001
1000
0010
0000
0001
0010
,
0100
1000
0010
0100
1000
0100
0001
0000
,
0220
0000
0000
0000
,
0330
0000
1001
0000
0001
0010
0001
0000
,
1001
0101
1010
0200
,
0000
0000
0302
0000
,
0000
0000
0003
0000
1001
0000
0010
1000
,
0010
0001
0010
0100
1000
0000
0101
0000
,
1001
0000
0000
0010
0000
0000
1000
0000
0001
0000
0000
0100
0000
0000
0001
0000
,
0000
1000
0000
0000
0010
0000
0000
0000
1001
0000
0000
0000
0000
0000
0000
0000
,
0001
0010
0001
0000
0002
0000
0000
0000
,
1003
0000
0100
0000
1001
0000
0100
0010
,
0100
1000
0010
1001
0000
0220
0000
0000
,
0000
0330
1002
0000
,
0000
1000
0000
0000
1003
0000
0000
0000
0020
0000
0000
0000
0000
0000
0000
0000
,
0000
0000
1030
0100
0000
1000
0000
0101
,
0000
0001
0100
0000
0000
1001
0000
0001
,
0000
1000
0010
0001
0200
0000
0301
0010
,
1000
0010
1000
0000
0001
0010
1000
0100
,
0001
0000
0001
1000
0100
1000
0100
0010
,
0100
0010
0001
0010
0100
1000
0010
1000
,
0010
1000
0100
0010
0001
0000
0010
1000
,
0010
1000
0100
0000
0100
0010
0001
0100
,
0001
0000
0000
0000
0000
0000
0000
0000
0000
0000
0000
0000
1001
0000
0010
0100
,
1000
0000
0010
0001
0000
1000
0000
0010
0000
0100
0000
0001
0000
0100
1000
0010
,
0000
0100
1000
0000
0001
0000
0010
0000
0100
0000
0000
0000
1000
0000
0000
0000
,
0000
0000
0000
0001
,
0010
1000
0001
0100
,
0010
1000
0001
0000
,
1001
0001
1000
0100
,
1000
0010
1000
0010
,
0100
0010
1000
0100
,
0010
0100
0010
0001
,
0010
0100
1000
0010
,
0100
0001
0010
0001
,
1000
0100
1000
0010
,
1000
0010
0100
0010
,
0100
0001
0010
0001
,
0100
0010
0100
1000
,
0000
2002
0000
0000
,
0000
0000
0000
0000
,
0000
0000
0000
0000
,
0000
0000
0000
3003
,
0000
0000
0000
0000
,
0000
0000
0000
0000
,
0000
0000
0000
0000
,
0000
0000
0000
0000
,
0000
0000
0002
1003
,
0010
1000
0001
1000
,
0100
1000
0001
0010
,
0001
0010
0100
0010
,
0001
1000
0001
0100
,
0010
1000
0001
0010
,
0100
0010
0001
0010
,
0100
1000
0100
1000
,
0001
0100
0001
0010
,
0001
1000
0100
0010
,
0100
0010
0100
1000
,
0001
1000
0010
0100
,
0001
0010
0001
0010
,
0001
1000
0010
1000
,
0100
1000
0001
0100
,
0010
1000
0010
0100
,
0010
0100
0001
1000
,
0001
0010
0100
1000
,
0010
1000
0001
1000
,
0100
0010
0001
0010
,
0001
0100
0001
0010
,
0100
1000
0010
1000
,
0001
1000
0010
0100
,
0010
1000
0100
1000
,
0100
0010
0001
0010
,
0001
1000
0100
0010
,
0100
0010
0100
1000
,
0001
0100
0010
0100
,
0010
1000
0010
1000
,
0100
0000
1000
0000
0100
1000
0010
0100
,
0010
1000
0100
0010
0001
1000
0010
0100
,
0001
0100
0001
1000
0010
1000
0001
0100
,
0010
0100
2002
0000
0000
0000
0000
0000
,
0000
0000
0000
0000
,
0000
0000
0000
0000
0000
0000
0000
3003
,
0001
0000
0000
0000
0000
0000
0000
0000
1000
0000
0000
0001
0000
0000
0000
0000
0010
0000
0000
0000
0000
0000
0000
0000
0000
0000
0000
0000
0000
0000
0000
0000
0200
0000
0000
0000
0000
0000
0000
0000
0000
0000
0000
0000
0000
0000
0000
0000
0310
0000
0000
0000
0000
0000
0000
0000
0000
0000
0000
0000
0000
0000
0000
0000
,
0000
0000
0000
0000
,
0000
0000
0000
0000
0000
0000
0000
0000
0002
0000
0000
0000
0000
2000
0000
0000
,
0000
3003
0000
0000
0000
0000
0000
0000
;

//--------------- dance-single - ----------------
#NOTES:
     dance-single:
     :
     Hard:
     18:
     0,0,0,0,0:
0000
0000
0000
0000
,
0000
0000
0000
0000
,
0000
0000
0000
0000
,
0000
0000
0000
0000
,
0000
0000
0000
1001
,
0000
0000
0000
0010
,
0000
0100
0000
1000
,
0001
0000
0000
0000
0000
0000
0100
0000
0000
0010
0000
1000
,
0000
0001
0000
0220
0000
0000
0000
0000
0000
0000
0000
0000
,
0000
0000
0000
0000
,
0000
0000
0000
0330
,
0000
0000
1001
0010
0100
0010
0100
0010
,
1000
0001
0100
0010
0001
1000
0100
0010
,
0001
0000
1000
0000
0001
0010
0000
0000
,
1000
0001
0100
0010
0001
1000
0010
0100
,
0001
0000
1000
0000
0001
0010
0100
0000
,
1000
0001
0100
0000
0010
1000
0001
0100
,
0001
0000
1000
0100
0001
0100
0010
0001
,
1000
0000
0001
0000
0100
0010
0001
1000
,
0001
0000
0000
0000
0010
0000
1000
0000
0000
0000
0100
0000
0001
1000
0100
0010
,
0001
1000
0001
0000
1001
0000
0010
0001
,
0000
1000
0001
0010
0100
0010
1000
0001
,
0100
0001
0010
0000
1000
0001
0100
0010
,
1000
0001
0010
0000
1000
0001
0100
0010
,
1000
0001
0100
0000
0000
0000
1001
0000
,
0000
0110
0000
0000
0001
1000
0010
1000
,
0001
0100
0020
0000
0030
1000
0100
0010
,
0001
0000
1000
0010
0001
0000
0100
0000
0010
0100
1000
0000
0001
1000
0100
0000
,
0010
0100
0010
0001
0000
1000
0000
0000
,
1001
0000
0110
0000
0010
0100
0010
0100
,
0001
1000
0100
0010
0001
1000
0010
1000
,
0001
0010
0001
0100
0010
0100
0010
0100
,
0001
0010
0100
0010
0100
1000
0010
0100
,
0010
1000
0100
0010
0100
0010
0001
0010
,
0001
1000
0100
1000
0010
1000
0001
0100
,
0010
1000
0010
1000
0001
0010
0100
0010
,
0001
0100
0010
1000
0100
1000
0100
0000
,
0010
0000
0001
1000
0010
0100
0010
1000
,
0100
0010
0100
1000
0010
1000
0001
1000
,
0100
0010
0001
1000
0100
1000
0001
0100
,
0010
0100
0010
0100
0001
1000
0010
0100
,
0010
1000
0001
0010
0100
1000
0100
0010
,
0001
0100
0001
0100
0001
1000
0010
1000
,
0100
0010
2002
0000
0000
0000
3003
0000
,
0000
0220
0000
0330
,
0000
0101
0000
1000
,
0000
1001
0000
0000
,
0000
0000
0100
0001
0000
0000
1000
0100
,
0001
0000
0000
0000
0000
0000
0100
0000
0000
0001
0000
0000
0000
0000
0000
0000
0000
0000
1000
0000
0000
0000
0001
0000
,
0000
1000
0000
0100
0000
0010
0000
1000
0000
0001
0000
0000
,
0100
0000
0000
0000
0000
0000
0000
0000
0000
0001
0000
0000
0000
0000
0000
0000
0000
0000
0000
0000
0000
0000
0000
0000
0000
0000
0000
0000
0000
0000
0000
0000
0000
0000
0000
0000
0000
0000
0000
0000
0000
0000
0000
0000
0000
0000
0000
0000
1000
0000
0000
0000
0000
0000
0000
0000
0000
0000
0000
0000
0000
0000
0000
0000
0000
0000
0000
0000
0000
0000
0000
0000
0000
0000
0000
0000
0000
0000
0000
0000
0000
0000
0000
0000
0000
0000
0000
0000
0001
0000
0000
0000
0000
0000
0000
0000
0000
0000
0000
0000
0000
0000
0000
0000
0000
0000
0000
0000
0000
0000
0000
0000
0000
0000
0000
0000
0000
0000
0000
0000
0000
0000
0000
0000
0000
0000
0000
0000
0000
0000
0000
0000
0000
0000
0000
0000
0000
0000
0000
0000
0000
0000
0000
0000
2002
0000
0000
0000
0000
0000
0000
0000
0000
0000
0000
0000
0000
0000
0000
0000
0000
0000
0000
0000
0000
0000
0000
0000
0000
0000
0000
0000
0000
0000
0000
0000
0000
0000
0000
0000
0000
0000
0000
0000
0000
0000
0000
0000
0000
0000
0000
0000
,
0000
0000
0000
0000
,
0000
0000
0000
3003
,
0000
0100
1000
0010
,
0100
0000
1000
0000
0010
0000
0001
0000
1000
0000
0100
0000
0010
0000
0001
0100
,
1000
0001
1000
0100
0010
0001
0010
0100
,
0010
0000
0100
1000
0001
0010
0100
0001
0010
0000
1000
0001
0010
0001
0100
0010
,
1000
0100
0010
0001
1000
0000
0000
0000
0000
0000
0001
0010
0100
0000
0000
0000
,
0011
0000
1001
0000
0110
0000
0001
1000
,
0100
0010
0001
0100
1000
0010
0001
0100
,
0010
0000
0001
0000
0000
0000
0000
0000
1001
0000
0000
0000
0001
0010
0001
0010
,
0001
0000
0000
1000
0000
0000
0010
0000
0000
0000
1000
0000
0001
0000
0000
0000
0000
0000
0010
0000
0000
0000
0000
0000
,
1000
0000
0000
0000
0001
0000
0100
0000
0000
0000
0010
0000
0100
0000
0001
0000
0000
0000
1000
0000
0000
0001
0000
0000
,
0100
1000
0010
0001
0000
0000
1001
0000
0000
0010
0000
0000
,
0010
0100
1000
0100
0001
0000
0000
0000
1001
0000
0000
0000
0000
0000
0000
0000
,
0101
0000
0000
0000
1001
0000
0000
0000
0110
0000
0000
0000
0010
0000
0001
0100
,
1000
0000
0000
0100
0000
0000
0010
0000
0000
0100
0000
1000
,
0000
0001
0000
0100
0000
0000
2001
0000
0000
0000
0000
0000
,
3001
0100
0010
0000
0000
0000
0000
0000
2002
0000
0000
0000
0000
0000
0000
0000
,
3000
0000
1003
0100
0000
0001
1000
0010
,
0100
0010
0100
0001
0000
0010
1000
0100
,
1000
0000
0010
0000
1000
0000
0100
0000
0000
0000
0000
0000
0001
0010
0001
0010
,
0001
0010
0001
0000
1001
0000
0000
0000
0100
0010
0100
0010
0100
0010
0100
0010
,
0100
0000
0001
0100
0001
0100
0001
1000
,
0010
0100
0001
0100
0010
0100
0001
1000
,
0001
0100
0001
1000
0010
0000
0001
0010
,
0100
0000
1001
0000
0100
0010
0100
0010
,
1000
0000
0000
0000
0000
0000
0000
0000
0000
0000
0000
0000
2002
0000
3100
2003
,
3002
0000
0203
0320
0000
2030
0000
0000
0000
3002
0000
0203
0000
0320
2030
3002
,
0000
0000
0000
1003
0100
1000
0200
0000
0000
0000
0000
0000
0320
0000
0000
0000
0000
0000
0000
0000
0000
0000
0000
0000
0030
0000
0000
0000
0000
0000
0000
0000
0000
0000
0000
0000
1001
0000
0000
0000
0000
0000
0000
0000
0000
0000
0000
0000
,
0000
0001
0100
0100
,
0001
1000
0010
1000
,
0100
1000
0010
1000
,
0001
0000
0000
0000
0000
0010
0000
0000
0100
1000
0000
0000
,
0000
0000
0010
0000
0000
0000
1000
0100
0000
0000
0000
0001
,
1000
0000
0000
0010
0000
0000
0000
0000
1000
0010
0000
0000
,
0001
0000
0010
0000
0000
0000
0000
0000
0000
0000
1000
0000
0100
0000
0000
0000
0000
0000
0001
0000
0000
0010
0000
0000
,
0100
0000
0000
0000
0000
0000
0001
0000
0000
0010
0000
0000
0100
0000
0000
0000
0000
0000
1000
0000
0000
0000
0000
0000
0001
0000
0000
0000
1000
0000
0000
0000
0000
0000
0000
0000
0000
0000
0000
0000
0000
0000
0010
0000
0000
0000
0000
0000
,
0000
0000
0000
0000
1001
0000
0000
0000
0100
0000
0010
0000
0001
0010
0001
0010
,
0001
0100
1000
0000
0001
0010
0001
1000
,
0000
0001
0010
0100
1000
0000
0001
0010
,
0000
1000
0000
0000
0001
0010
0000
1000
,
0001
0000
0100
0010
0001
0010
0001
0000
,
0000
2002
0000
0000
,
0000
0000
0000
0000
,
0000
0000
0000
0000
,
0000
0000
0000
0000
0000
0000
0000
0000
3003
0000
0000
0000
0000
0001
0000
0000
,
1000
0001
0000
0010
0100
0000
0100
0000
,
0001
0000
1000
0001
0000
0010
0100
0000
,
1000
0000
0001
0000
0100
0010
0000
1000
,
0010
0000
1000
0000
0001
0010
0100
1000
,
0001
0010
0100
0000
1001
0000
1001
0000
,
0001
0010
0000
1000
0001
0010
0100
0001
,
0100
0000
1000
0000
0000
0000
0001
0000
0010
0000
1000
0001
0100
0000
0001
0000
,
0010
0000
1001
0000
0000
0110
0000
0000
,
0101
0000
0000
0000
1000
0001
0100
0010
1000
0000
0010
0000
0100
0000
0001
0000
,
0100
0000
0001
0000
1000
0000
0100
0000
0010
0001
0100
0000
1000
0000
0100
0000
,
1000
0010
0100
0010
1000
0100
0010
0100
,
0010
0100
1000
0001
0010
0001
1000
0001
,
1000
0010
1000
0010
0100
0010
0100
0001
,
0010
0100
0010
0100
1000
0100
1000
0010
,
0100
0001
1000
0010
0100
0010
0100
0010
,
1000
0100
1000
0100
0010
0100
1000
0001
,
1000
0001
0010
0100
2000
0000
3002
0000
,
0000
0000
2003
3001
,
0010
0000
0100
0001
0100
0010
1000
0010
,
0100
0001
0010
0001
0010
0100
0010
0001
,
0100
0010
0100
0010
1000
0001
0100
0010
,
0100
0010
0100
0001
1000
0001
1000
0001
,
0100
0010
0100
0001
0010
0100
0010
0100
,
0010
0001
1000
0010
0100
0010
0100
0010
,
1000
0100
1000
0010
1000
0100
0010
0001
,
1000
0001
0010
0001
1000
0010
0100
0010
,
1000
0100
0010
0100
0010
0001
0010
0100
,
1000
0100
0010
0001
0010
0001
0100
0001
,
1000
0100
1000
0010
0100
0010
0100
0001
,
0100
0001
1000
0010
0100
0010
0100
0001
,
1000
0100
1000
0100
1000
0010
0100
0001
,
0100
0001
0100
0010
1000
0001
0010
0100
,
0010
0001
1000
0100
0010
0001
1000
0100
,
0010
0000
0001
0000
0100
0000
0001
0000
0100
0001
1000
0001
0100
0010
1000
0010
,
0100
0010
0100
0001
0010
0001
0010
0100
1000
0100
0010
0100
0010
0001
1000
0010
,
1000
0010
1000
0100
0010
0001
1000
0100
0010
0100
1000
0100
1000
0001
0010
0001
,
1000
0010
0100
0010
2002
0000
0000
0000
0000
0000
0000
0000
0000
0000
0000
0000
,
0000
0000
0000
0000
,
0000
0000
0000
0000
0000
0000
0000
3003
,
0001
0000
0000
0000
0000
0000
0000
0000
1000
0000
0000
0001
0000
0000
0000
0000
0010
0000
0000
0000
0000
0000
0000
0000
0000
0000
0000
0000
0000
0000
0000
0000
0200
0000
0000
0000
0000
0000
0000
0000
0000
0000
0000
0000
0000
0000
0000
0000
0310
0000
0000
0000
0000
0000
0000
0000
0000
0000
0000
0000
0000
0000
0000
0000
,
0000
0000
0000
0000
,
0000
0000
0000
0000
0000
0000
0000
0000
0002
0000
0000
0000
0000
2000
0000
0000
,
0000
3003
0000
0000
0000
0000
0000
0000
;

//--------------- dance-single - ----------------
#NOTES:
     dance-single:
     :
     Challenge:
     19:
     0,0,0,0,0:
0000
0000
0000
0000
,
0000
0000
0000
0000
,
0000
0000
0000
0000
,
0000
0000
0000
0000
,
0000
0000
0000
1001
,
0000
0000
0011
1010
,
0000
0110
0000
0000
,
0101
0000
0000
0000
0000
0000
1001
0000
0000
0100
0000
0010
,
0000
0001
0000
0020
0000
0000
0000
0000
0000
0100
0000
0000
,
0000
0000
0000
0030
,
0000
0000
0000
0000
1000
0001
0100
0010
1000
0001
0100
0010
1000
0001
0100
0010
,
0001
0010
1000
0100
0001
0010
0100
1000
,
0001
0010
0100
0001
0200
0000
0000
0000
0000
0000
0000
0000
0000
0000
0000
0000
,
0000
0000
0000
0000
,
0000
0000
0000
0000
,
0000
0000
0000
0000
,
0301
0010
0001
0010
0002
0000
0000
0000
0000
0000
0000
0000
0000
0000
0000
0000
,
0000
0000
0000
0000
,
1003
0100
1000
0100
2000
0000
0000
0000
0000
0000
0000
0000
0000
0000
0000
0000
,
3001
0010
0100
0010
0100
0010
0100
0010
0001
0100
0001
0100
0010
1000
0100
0010
,
0100
0010
0001
0100
0100
0000
0010
0000
0001
0000
1000
0000
0001
0000
0010
0000
,
0001
1000
0100
0010
0001
0010
0100
0010
,
0001
1000
0100
1000
0010
1000
0001
0010
,
0001
1000
0010
1000
0100
0010
0100
0010
,
0100
1000
0001
0100
0001
0100
0010
0100
,
0010
1000
0100
1000
0001
0100
0001
0010
,
0100
0000
0010
0000
0010
1000
0100
0010
0001
0100
0001
1000
0001
0100
0010
0100
,
0010
1000
0001
0100
0010
1000
0001
0100
0001
1000
0010
0100
0010
0100
0001
1000
,
0001
0100
0010
1000
0010
0100
0001
0100
0001
1000
0001
1000
0010
0100
0001
0010
,
2000
0000
3001
0100
0010
0001
0010
0100
,
0010
0100
1000
0010
0100
0001
0100
0001
,
0100
0010
1000
0100
1000
0001
1000
0100
,
0010
0001
0010
0100
1000
0100
1000
0010
,
0100
0010
0100
0010
1000
0100
1000
0100
,
1000
0001
0010
0100
0010
0100
1000
0010
,
0100
0010
0100
0001
0010
0001
1000
0010
,
1000
0000
0100
0000
1000
0000
0010
0000
0100
0000
0001
0000
0010
0100
0010
0100
,
0010
0000
0001
0010
0100
0010
0100
1000
,
0100
0010
0001
0010
0100
0010
0001
1000
,
0010
1000
0100
1000
0001
0010
0001
0100
,
0001
0010
0100
1000
0100
0010
0100
1000
,
0010
1000
0001
1000
0001
0100
0010
1000
0010
0100
0010
1000
0001
1000
0100
0010
,
0001
0000
1000
0000
0001
0000
1000
0000
0001
0010
0100
1000
0010
0001
1000
0010
0100
0001
0010
1000
0100
0001
0010
1000
0100
0010
1000
0100
0001
0010
0100
1000
,
0001
1000
0010
0001
0100
1000
0100
0010
2002
0000
0000
0000
0000
0000
0000
0000
0000
0000
0000
0000
0000
0000
0000
0000
0000
0000
0000
0000
0000
0000
0000
0000
,
0000
0000
0000
0000
,
0000
0000
0000
0000
,
0000
0000
0000
0000
,
3003
0000
0100
0001
0000
0000
1000
0100
,
0001
0000
0000
0000
0000
0000
0100
0000
0000
0001
0000
0000
0000
0000
0000
0000
0000
0000
1000
0000
0000
0000
0001
0000
,
0000
1000
0000
0100
0000
0010
0000
1000
0000
0001
0000
0000
,
0100
0000
0000
0000
0000
0000
0000
0000
0000
0001
0000
0000
0000
0000
0000
0000
0000
0000
0000
0000
0000
0000
0000
0000
0000
0000
0000
0000
0000
0000
0000
0000
0000
0000
0000
0000
0000
0000
0000
0000
0000
0000
0000
0000
0000
0000
0000
0000
1000
0000
0000
0000
0000
0000
0000
0000
0000
0000
0000
0000
0000
0000
0000
0000
0000
0000
0000
0000
0000
0000
0000
0000
0000
0000
0000
0000
0000
0000
0000
0000
0000
0000
0000
0000
0000
0000
0000
0000
0001
0000
0000
0000
0000
0000
0000
0000
0100
0000
0000
0000
0000
0000
0000
0000
0000
0000
0000
0000
0000
0000
0000
0000
0000
0000
0000
0000
0000
0000
0000
0000
0000
0000
0000
0000
0000
0000
0000
0000
0000
0000
0000
0000
0000
0000
0000
0000
0000
0000
0000
0000
0000
0000
0000
0000
1000
0000
0000
0000
0000
0000
0000
0000
0000
0000
0000
0000
0000
0000
0000
0000
0000
0000
0000
0000
0000
0000
0000
0000
0000
0000
0000
0000
0000
0000
0000
0000
0000
0000
0000
0000
0000
0000
0000
0000
0000
0000
0000
0000
0000
0000
0000
0000
,
0010
0100
1000
0001
,
1000
0100
0010
0002
,
0000
1003
0100
0010
,
1000
0100
0001
1000
0010
0000
0001
0010
,
0100
0001
1000
0000
0010
0000
0100
0000
1000
0000
0011
0000
1001
0000
0000
0000
,
0220
0000
0000
0000
,
0330
0000
0000
0000
1001
0000
0000
0000
0001
0010
0001
0010
0001
0000
0000
0000
,
1001
0101
1010
0200
,
0000
0000
0302
0000
,
0000
0000
0000
0000
0003
0000
0000
0000
1001
0000
0000
0000
0010
0100
0010
0100
,
0010
1001
0011
1010
1001
0000
0101
0000
,
1001
0000
0010
0000
1000
0000
0001
0000
0100
0000
0001
0000
,
1000
0010
1001
0000
,
0001
0010
0001
0010
0001
0000
0000
0000
2002
0000
0000
0000
3000
0000
0000
0000
,
0200
0000
0300
0000
1003
0000
0000
0000
1001
0000
0000
0000
0100
1000
0100
1000
,
0100
1000
0010
1001
0000
0220
0000
0000
,
0000
0330
1002
0000
,
0000
1000
0000
0000
1003
0000
0000
0000
0020
0000
0000
0000
0000
0000
0000
0000
,
0000
0000
1030
0100
0000
1001
0000
0101
,
0000
1001
0110
0000
0000
1001
0000
0101
,
0000
0000
1010
0000
0110
0000
0001
0000
0200
0000
0000
0000
0301
0010
0001
0010
,
1000
0100
0010
0100
1000
0000
0000
0000
0001
0010
0001
1000
0001
0010
0100
0001
,
1000
0000
0000
0000
1001
0000
1010
0000
1100
0000
1001
0000
0010
0100
0010
1000
,
0100
0001
0010
1000
0001
0100
0010
0001
1000
0100
0001
0010
1000
0000
0001
0100
,
0010
1000
0001
0100
0010
0100
1000
0000
0020
0000
0000
0000
0130
0010
0001
0100
,
0010
0100
0010
1000
0001
0000
0000
0000
0010
0100
0001
1000
0100
1000
0100
0010
,
0100
0000
0000
0000
0000
0000
0000
0000
0000
0000
0000
0000
0000
0000
0000
0000
0000
0000
0000
0000
0000
0000
0000
0000
2002
0000
0000
3000
0200
0003
2300
0000
,
3200
0000
0320
2030
0000
3020
0000
0230
0000
0302
0000
2003
0000
3200
0320
0032
,
0000
0000
0000
1003
0100
1000
0200
0000
0000
0000
0000
0000
0320
0000
0000
0000
0000
0000
0032
0000
0000
0000
0000
0000
2003
0000
0000
0000
0000
0000
0000
0000
0000
0000
0000
0000
3002
0000
0000
0000
0000
0000
0000
0000
0000
0000
0000
0000
,
0000
1000
0100
1003
,
0101
1010
1001
0110
,
1010
0000
0000
1001
0000
0000
0001
0000
0000
1000
0000
0001
,
0100
0000
0000
1000
0000
0001
0010
0000
1000
0100
0000
0000
,
0010
0000
0001
0000
0000
0010
1000
0100
0001
0100
0000
0001
,
0010
0000
0000
1000
0000
0000
0100
0000
0010
0000
0000
0001
,
1000
0000
0000
0000
0010
0000
0000
0000
0001
0000
0000
0000
0100
0000
0000
0000
0000
0000
0000
0000
0001
0000
0000
0000
2000
0000
0000
0000
0000
0000
0000
0000
0000
0000
0000
0000
3001
0000
0000
0100
0000
0000
0010
0000
0000
0000
0000
0000
,
1000
0001
0010
0000
0100
0000
0010
0000
1001
0000
0110
0000
0001
0010
1000
0000
,
0100
0000
0000
0001
0000
0000
0010
0000
0000
0000
0000
0000
0001
0000
0000
0000
0010
0000
0000
0000
0100
0000
0000
0000
1000
0000
0000
0000
0100
0000
0000
0000
0001
0000
0000
0000
0010
0000
0000
0000
0000
0000
1000
0000
0000
0000
0000
0000
,
0100
0000
0000
0010
0000
0000
0001
0000
0000
1000
0000
0000
0001
0000
0000
0000
0000
0000
1000
0000
0000
0000
0000
0000
0100
0000
0000
0000
0000
0000
0010
0000
0000
0000
0000
0000
0001
0000
0000
0000
1000
0000
0000
0000
0100
0000
0000
0000
,
0010
0000
0001
0000
1000
0000
0010
0000
0001
0000
0100
0000
0010
0000
0000
0000
1000
0000
0010
0000
0000
0100
0000
0000
,
0001
0000
0010
0000
1000
0100
0001
0000
0100
0000
0010
0001
1000
0000
0010
0001
,
0010
0000
0100
0000
1000
0000
0100
0001
0000
0010
0100
1000
0001
0000
0000
0000
,
0000
0000
0000
0000
0100
0001
1000
0001
0100
0010
0100
0010
0100
0001
0010
0001
,
1000
0100
0010
0100
1000
0010
1000
0100
1000
0100
0010
0001
0010
0001
0010
0100
,
1000
0100
1000
0010
0100
0010
1000
0010
0100
0001
0010
0001
0010
0100
1000
0100
,
0010
0001
0100
0010
0100
0001
0100
0001
0100
0000
0000
0000
0000
0001
0000
0000
,
1000
0001
0000
0010
0100
0000
0100
0000
,
0001
0000
1000
0001
0000
0010
0100
0000
,
1000
0000
0001
0000
0100
0010
0000
1000
,
0010
0000
1000
0000
0001
0010
0100
1000
,
0001
0000
0010
0000
0100
0000
0000
0000
1002
0000
0000
0000
1003
0010
0100
0000
,
0100
0001
0010
1000
0001
0100
0000
0000
0001
0000
0010
0000
0001
0000
0010
0000
,
0100
0000
1000
0000
0010
0001
0100
0000
0010
0000
0100
0000
1000
0000
0100
0000
,
0001
0010
0001
0010
0001
0000
0100
0000
1000
0010
0100
0000
1000
0100
1000
0000
,
0001
0010
0001
0000
1000
0100
1000
0010
0100
0010
0001
1000
0100
0000
1000
0001
,
0100
0010
0100
1000
0010
1000
0010
1000
,
0100
0000
0010
0000
0001
1000
0010
0001
0100
0001
1000
0100
0010
0001
0100
1000
,
0010
0000
0100
1000
0010
0001
1000
0100
0001
0010
0100
0000
0010
0100
1000
0000
,
0001
0100
0010
1000
0100
0000
0010
0000
0001
0100
0010
1000
0001
0000
0100
0000
,
0001
1000
0010
0000
0100
0001
0010
1000
0001
0010
0100
1000
0010
0000
0100
1000
,
0010
0001
0100
0000
0001
0000
1000
0000
0100
1000
0010
0100
0001
0000
1000
0010
,
0100
0000
0010
0000
0001
0100
1000
0000
0001
0010
0100
0010
0100
1000
0001
0010
,
0100
1000
0100
1000
0100
0010
0001
0100
2000
0000
0000
0000
3200
0000
0000
0000
,
0000
0000
0000
0320
,
0032
0000
0000
0000
1003
0010
0100
0000
0100
0001
0010
1000
0001
0100
0000
0000
,
0001
0000
0010
0000
0001
0000
0010
0000
0100
0000
1000
0000
0010
0001
0100
0000
,
0010
0000
0100
0000
1000
0000
0100
0000
0001
0010
0001
0010
0001
0000
0100
0000
,
1000
0010
0100
0000
1000
0100
1000
0000
0001
0010
0001
0000
1000
0100
1000
0010
,
0100
0010
0001
1000
0100
0000
1000
0001
0100
0000
0010
0000
0100
0000
1000
0000
,
0010
0000
1000
0000
0010
0000
1000
0000
0100
0000
0010
0000
0001
1000
0010
0001
,
0100
0001
1000
0100
0010
0001
0100
1000
0010
0000
0100
1000
0010
0001
1000
0100
,
0001
0010
0100
0000
0010
0100
1000
0000
0001
0100
0010
1000
0100
0000
0010
0000
,
0001
0100
0010
1000
0001
0000
0100
0000
0001
1000
0010
0000
0100
0001
0010
1000
,
0001
0010
0100
1000
0010
0000
0100
1000
0010
0001
0100
0000
0001
0000
1000
0000
,
0100
1000
0010
0100
0001
0000
1000
0010
0100
0000
0010
0000
0001
0100
1000
0000
,
0001
0010
0100
0010
0100
1000
0001
0010
0100
1000
0100
1000
0100
0010
0001
0100
,
0010
1000
0001
0010
0001
0100
0010
0100
0001
1000
0001
1000
0001
0010
0100
1000
,
0001
0010
0100
1000
0001
1000
0010
0100
0010
1000
0010
1000
0001
0100
0010
0100
,
0010
0100
0001
1000
0001
1000
0100
0010
0001
0010
0001
1000
0001
1000
0010
1000
,
0010
0000
0100
0000
0001
0000
1000
0000
0100
0000
0010
0000
0001
0000
1000
0000
0100
0010
0001
0100
0010
1000
0010
1000
0010
0100
0001
0100
0010
1000
0001
1000
,
0010
0100
0001
0010
0100
1000
0010
1000
0001
1000
0010
0100
0001
0010
0100
1000
0100
0010
0001
0100
0010
1000
0010
1000
0010
0100
0001
0100
0010
1000
0001
1000
,
0010
0100
0001
0010
0100
1000
0010
1000
0100
0010
0100
1001
0100
0010
0100
1000
0100
0010
0001
0100
0010
1000
0010
1000
0010
0100
0001
0100
0010
1000
0001
1000
,
0010
0100
0001
0010
0100
1000
0010
1000
2002
0000
0000
0000
0000
0000
0000
0000
0000
0000
0000
0000
0000
0000
0000
0000
0000
0000
0000
0000
0000
0000
0000
0000
,
0000
0000
0000
0000
,
0000
0000
0000
0000
0000
0000
0000
3003
,
0001
0000
0000
0000
0000
0000
0000
0000
1000
0000
0000
0001
0000
0000
0000
0000
0010
0000
0000
0000
0000
0000
0000
0000
0000
0000
0000
0000
0000
0000
0000
0000
0200
0000
0000
0000
0000
0000
0000
0000
0000
0000
0000
0000
0000
0000
0000
0000
0310
0000
0000
0000
0000
0000
0000
0000
0000
0000
0000
0000
0000
0000
0000
0000
,
0000
0000
0000
0000
,
0000
0000
0000
0000
0000
0000
0000
0000
0002
0000
0000
0000
0000
2000
0000
0000
,
0000
3003
0000
0000
0000
0000
0000
0000
;
