#TITLE:強風オールバック (feat.歌愛ユキ);
#ARTIST:ゆこぴ;
#TITLETRANSLIT:Kyoufuu All Back (feat.Kaai Yuki);
#ARTISTTRANSLIT:Yukopi;
#GENRE:ボーカロイド™曲;
#MUSIC:Kyoufuu All Back.ogg;
#BANNER:Kyoufuu All Back.png;
#BACKGROUND:Kyoufuu All Back-bg.png;
#CDTITLE:./CDTitles/Beat Square Beyond the Ave.png;
#SAMPLESTART:3.546;
#SAMPLELENGTH:15.000;
#SELECTABLE:YES;
#OFFSET:0.000;
#BPMS:0.000=135.000;
#STOPS:;
#BGCHANGES:;
#FGCHANGES:;

//--------------- dance-single - ----------------
#NOTES:
     dance-single:
     :
     Beginner:
     1:
     0,0,0,0,0:
0000
0000
0000
0000
,
0000
0000
0000
0000
,
0010
0000
0000
0000
,
0000
0000
0000
0000
,
1000
0000
0000
0000
,
0000
0000
0000
0000
,
0001
0000
0000
0000
,
0000
0000
0000
0000
,
0100
0000
0000
0000
,
0000
0000
0000
0000
,
1001
0000
0000
0000
,
0000
0000
0000
0000
,
0010
0000
0000
0000
,
0000
0000
0000
0000
,
0100
0000
0000
0000
,
0000
0000
0000
0000
,
0010
0000
0000
0000
,
0000
0000
0000
0000
,
0100
0000
0000
0000
,
1000
0000
0000
0000
,
0000
0000
0010
0000
,
0000
0000
0001
0000
,
1000
0000
0000
0000
,
0100
0000
0000
0000
,
0000
0000
0000
0001
,
0000
0000
0000
0000
,
1000
0000
0000
0000
,
0001
0000
0000
0000
,
0000
0000
0010
0000
,
0000
0000
0000
0000
,
0100
0000
0000
0000
,
0000
0000
0000
0000
,
2000
0000
0000
0000
,
3000
0000
0001
0000
,
0110
0000
0000
0000
,
1000
0000
0000
0000
,
0010
0000
0000
0000
,
0100
0000
0000
0000
,
0010
0000
0000
0000
,
0001
0000
0000
0000
,
1000
0000
0000
0000
,
0001
0000
0000
0000
,
0100
0000
0000
0000
,
0010
0000
0000
0000
,
0001
0000
0000
0000
,
1000
0000
0000
0000
,
0001
0000
0000
0000
,
0100
0000
0000
0000
,
0010
0000
0000
0000
,
0100
0000
0000
0000
,
1000
0000
0000
0000
,
0001
0000
0000
0000
,
0100
0000
0000
0000
,
0010
0000
0000
0000
,
0100
0000
0000
0000
,
0001
0000
0000
0000
,
1000
0000
0000
0000
,
0010
0000
0000
0000
,
0001
0000
0000
0000
,
1000
0000
0000
0000
,
0100
0000
0000
0000
,
0010
0000
0000
0000
,
0100
0000
0000
0000
,
0001
0000
0000
0000
,
1000
0000
0000
0000
,
0001
0000
0000
0000
,
0100
0000
0000
0000
,
0010
0000
0000
0000
,
1001
0000
0000
0000
,
0000
0000
0000
0000
,
0010
0000
0000
0000
,
0000
0000
0000
0000
,
0100
0000
0000
0000
,
0000
0000
0000
0000
,
0010
0000
0000
0000
,
0000
0000
0000
1001
;

//--------------- dance-single - ----------------
#NOTES:
     dance-single:
     :
     Easy:
     5:
     0,0,0,0,0:
0000
0000
0000
0000
,
0000
0000
0000
0000
,
0010
0000
0100
0000
,
0010
0000
0100
0000
,
0010
0000
0100
0000
,
0010
0000
0100
0000
,
0010
0000
0100
0000
,
1000
0000
0001
0000
,
1000
0000
0001
0000
,
1000
0000
0001
0000
,
0010
0000
1000
0000
,
0100
0000
0010
0000
,
0001
0000
1000
0000
,
0001
0000
0100
0000
,
1000
0000
0010
0000
,
0001
0000
0100
0000
,
0010
0000
0100
0000
,
0001
0000
0100
0000
,
1000
0000
0001
0000
,
0100
1000
0001
0000
,
0000
0000
0010
0000
,
1000
0001
0100
0000
,
0010
0000
0100
0000
,
1000
0001
0100
0000
,
0000
0000
0000
0010
,
0100
1000
0001
0000
,
0010
0000
0100
0000
,
1000
0001
1000
0000
,
0000
0000
0010
0000
,
0001
0010
0100
0000
,
1000
0000
0001
0000
,
0010
0100
0001
0000
,
2000
3000
0002
0003
,
1000
0100
0010
0000
,
1001
0000
0100
0010
,
0001
0000
0010
0001
,
0100
0000
1000
0000
,
0010
0100
0010
0000
,
0001
0100
1000
0000
,
0001
0010
0100
0000
,
1000
0001
1000
0001
,
0100
0010
0100
0000
,
1000
0001
0100
0000
,
0001
1000
0100
0000
,
1000
0100
0001
0100
,
1000
0100
0001
0100
,
1001
0100
0010
0001
,
1000
0000
0001
0000
,
0001
0010
0100
1000
,
0001
0100
1000
0010
,
0001
1000
0100
0001
,
0010
0100
1000
0000
,
0001
0100
1000
0000
,
0001
0010
0100
0000
,
1000
0010
0001
0000
,
0100
1000
0010
0000
,
1000
0001
1000
0001
,
0100
1000
0010
0000
,
1000
0010
0001
1000
,
0100
0010
0001
0010
,
1000
0010
0001
1000
,
0100
0010
0001
0100
,
1000
0010
0001
1000
,
0100
0001
0010
0100
,
1000
0010
0001
1000
,
0100
0001
0010
0100
,
1000
0100
0010
1000
,
0001
0100
1000
0000
,
1001
0000
0100
0000
,
0010
0000
0001
1000
,
0100
0000
0010
0000
,
0001
0000
1000
0100
,
0001
0000
0100
0000
,
0010
0100
0001
0010
,
1000
0000
0010
0000
,
0100
1000
0010
0100
;

//--------------- dance-single - ----------------
#NOTES:
     dance-single:
     :
     Medium:
     8:
     0,0,0,0,0:
0000
0000
0000
0000
,
0000
0000
0000
0000
,
0010
0100
0010
0100
,
0010
0000
0100
0000
0010
0100
0010
0000
,
0100
0010
0100
0010
,
0100
0000
0010
0000
0100
0010
0100
0000
,
0010
0100
0010
0100
,
0010
0000
0100
0000
0010
0100
0010
0000
,
0100
0000
0000
0010
0100
0000
0000
0010
0100
0000
0000
0000
0010
0000
0000
0000
,
0100
0000
0010
0000
0100
0010
0100
0000
,
0010
0000
1000
0000
0001
0100
0010
0000
,
1000
0001
0100
0000
0010
1000
0001
0000
,
0100
0000
0010
0000
0100
1000
0001
0000
,
0100
0010
1000
0000
0001
0100
0010
0000
,
0100
0000
1000
0001
0100
0010
0001
0000
,
0010
0100
1000
0000
0001
1000
0001
0000
,
0100
0000
0010
0100
1000
0010
0001
0000
,
0100
1000
0001
0000
0100
0000
0010
0000
,
1010
0000
0000
1000
0001
0000
0000
1000
,
0100
0000
0000
0000
0010
0000
0000
0000
1000
0000
0000
0000
0100
0000
0000
0001
1000
0000
0000
0000
0000
0000
0000
0000
0000
0000
0000
0000
0000
0000
0000
0000
,
0000
0000
0000
0000
0110
0000
0000
0001
,
1000
0100
0010
0001
1000
0000
0000
0000
,
0010
0000
0100
1000
0001
0000
0000
0000
,
0100
0000
0000
0000
0010
0000
0000
0000
0100
0000
0000
0000
0010
0000
0000
0001
1000
0000
0000
0000
0000
0000
0000
0000
0000
0000
0000
0000
0000
0000
0000
0000
,
0000
0000
0000
0101
,
0010
1000
0001
0100
0010
0000
0000
0000
,
1000
0000
0000
0001
0100
0000
0000
0010
,
1000
0000
0000
0000
0001
0000
0000
0000
0100
0000
0000
0000
0010
0000
0000
0001
1000
0000
0000
0000
0000
0000
0000
0000
0000
0000
0000
0000
0000
0000
0000
0000
,
0000
0000
0000
0000
0101
0000
0000
0100
,
1000
0001
0100
0010
1000
0000
0000
0000
,
0001
0000
1000
0100
0010
0000
0000
0010
,
1000
0001
0100
0010
0100
0000
0000
0000
,
1000
0001
1000
0001
1000
0001
1000
0001
,
0100
0010
0100
0020
,
0130
0010
0100
0010
,
0100
0000
0010
0000
0100
0010
0100
0000
,
0010
0100
0010
0100
,
0010
0000
0100
0000
0010
0100
0010
0000
,
0100
0010
0100
0010
,
0100
0000
0010
0000
0100
0010
0100
0000
,
0010
0000
0000
0100
0010
0000
0000
0100
0010
0000
0000
0000
0100
0000
0000
0000
,
0010
0000
0100
0000
0010
0100
0010
0000
,
1100
0000
0000
0010
0100
1000
0001
0000
,
0101
0000
0000
0100
1000
0100
0001
0000
,
1100
0101
1010
0110
,
0100
0001
0100
1000
0100
0001
0100
1000
,
0100
0000
1000
0000
0001
0100
0010
0000
,
1000
0001
0100
0000
0010
1000
0001
0010
,
0100
0000
0010
1000
0100
1000
0001
0000
,
0100
0010
1000
0100
0001
0100
0010
0000
,
1000
0000
0001
0000
0100
0010
0100
0000
,
1000
0001
0100
0010
0100
1000
0001
0000
,
0100
0000
0010
0000
0100
0010
0100
0000
,
0010
0100
0010
0100
0010
0000
0100
0000
,
0010
0000
0100
0010
0100
0010
0100
0000
,
0010
0100
0010
0100
0010
0100
0010
0000
,
0100
0000
0000
0010
0100
0000
0000
0010
0100
0000
0010
0000
0100
0000
0010
0000
,
0100
0010
0100
0010
0100
0010
0100
0010
,
0200
0000
0000
0000
1300
0000
0000
0001
1000
0000
0100
0000
0010
0000
0000
0000
,
1000
0001
0000
0100
0010
1000
0001
0000
,
0100
0000
1000
0001
0100
0000
0010
0001
,
0010
0100
1000
0001
0100
0000
0010
0000
,
0100
0000
1000
0001
0100
0010
0100
0000
,
1000
0001
0100
0010
0001
0000
0100
0000
,
0010
0000
0000
0100
0001
0000
0000
0010
1000
0000
0001
0000
0100
0000
0010
0000
,
1000
0000
0001
0000
1000
0001
0100
0000
,
0110
0000
0000
0001
1000
0000
0000
0100
0001
0000
0100
0000
0010
0000
1000
0000
,
0100
0000
0000
0000
0000
0000
0000
1000
0010
0000
0000
0000
0000
0000
0000
0000
0100
0000
0000
0000
0000
0000
0000
0000
0101
0000
0000
0000
0000
0000
0000
0000
,
0010
0000
1000
0000
0001
0100
0010
0000
,
1000
0001
0100
0000
0010
1000
0001
0000
,
0100
0000
0010
0000
0100
1000
0001
0000
,
0100
0010
1000
0000
0001
0100
0010
0000
,
0100
0000
1000
0001
0100
0010
0001
0000
,
0010
0100
1000
0000
0001
1000
0001
0000
,
0100
0000
0010
0100
1000
0010
0001
0000
,
0100
1000
0001
0000
0100
0000
0010
0000
;

//--------------- dance-single - ----------------
#NOTES:
     dance-single:
     :
     Hard:
     15:
     0,0,0,0,0:
0000
0000
0000
0000
,
0000
0000
0000
0000
,
1001
0000
0000
0010
0100
0000
0000
1000
0001
0000
0010
0000
0200
0000
0000
0000
,
0310
1000
0001
0010
0100
0010
2000
0000
,
3001
0000
0000
0100
0010
0000
1000
0000
0001
0000
0010
0000
0100
0000
1000
0000
,
0001
0010
1000
0100
0001
0010
0100
0000
,
1001
0000
0101
0100
0101
0100
1100
0000
,
0001
0100
0010
0100
1000
0100
0001
0000
,
1001
0000
0000
0010
0100
0000
0000
1000
0001
0000
0010
0000
0100
0000
0001
0000
,
1010
0000
0000
0000
0000
0000
0000
1000
0001
0000
0000
0000
0000
0000
0000
0000
0100
0000
0000
0000
0010
0000
0000
0000
1000
0000
0000
0000
0000
0000
0000
0000
,
0220
0330
0002
0023
2030
3002
0023
0030
,
0200
0320
0032
2003
3200
0320
0032
0203
,
0020
0330
2000
3002
2003
3002
0203
0300
,
0002
0023
2030
3000
0002
2003
3200
0320
,
0200
0330
0002
0023
2030
3002
0023
0030
,
0200
0320
0032
2003
3200
0320
0032
0203
,
0020
0330
2000
3002
2003
3002
0023
0030
,
0002
0000
0023
0000
2030
0000
3020
0000
0032
0000
0103
0010
1000
0100
1000
0000
,
0020
0000
0130
1000
0002
0000
0103
1000
,
0100
0000
0000
0000
0010
0000
0000
0000
1000
0000
0000
0000
0010
0000
0000
0000
1000
0001
0000
0000
0000
0000
0000
0000
0100
0000
0000
0000
0010
0000
0000
0000
,
1000
0000
0010
0000
0101
0000
1000
0001
,
1000
0001
0010
0100
1000
0000
0100
0000
,
1001
0000
0010
0100
1000
0000
0101
0000
,
2000
3200
0320
0032
1003
0000
0100
0000
,
0010
1000
0001
0000
0100
0000
1010
0000
,
0100
0000
0010
0000
1000
0000
0001
0000
0100
0000
1000
0001
0100
0001
0000
0000
,
1002
0000
0000
0000
0000
0000
1000
0000
0103
0000
0000
0000
1000
0000
0000
0000
0100
0000
0000
0000
0001
0000
0000
0000
0010
0000
0000
1000
0000
0000
0000
0000
,
0001
0000
0000
0000
1000
0000
0000
0000
0001
0000
0000
0000
0100
0000
0000
0000
1000
0001
0000
0000
0000
0000
0000
0000
0100
0000
0000
0000
0001
0000
0000
0000
,
1000
0000
0000
0100
0010
0000
0000
0000
1010
0000
0100
0000
0010
0000
0100
0000
,
1000
0001
0010
0100
1000
0010
0001
0000
,
1010
0000
0100
1000
0100
0001
1000
0001
,
0010
1000
0001
0100
0010
1000
0100
0001
,
1000
0100
0001
0100
1000
0100
0001
0100
,
2000
0000
3002
0203
1300
0000
0101
0000
,
1001
0000
0000
0100
0010
0000
0000
0001
1000
0000
0100
0000
0020
0000
0000
0000
,
0130
0001
1000
0100
0010
0100
0002
0000
,
1003
0000
0000
0010
0100
0000
0001
0000
1000
0000
0100
0000
0010
0000
0001
0000
,
1000
0100
0001
0010
1000
0100
0010
0000
,
1001
0000
1010
0010
1010
0010
0011
0000
,
1000
0010
0100
0010
0001
0010
1000
0000
,
1001
0000
0000
0100
0010
0000
0000
0001
1000
0000
0100
0000
0010
0000
1000
0000
,
0101
0000
0000
0000
0000
0000
0000
0001
1000
0000
0000
0000
0000
0000
0000
0000
0010
0000
0000
0000
0100
0000
0000
0000
0001
0000
0000
0000
0000
0000
0000
0000
,
2001
0000
3001
0100
1000
0001
0100
0000
,
0101
0000
1000
0001
1000
0100
0010
0000
,
0101
1000
0101
1000
,
0101
1000
0101
1000
,
0220
0330
0002
0023
2030
3002
0023
0030
,
0200
0320
0032
2003
3200
0320
0032
0203
,
0020
0330
2000
3002
2003
3002
0023
0030
,
0002
0000
0023
0000
2030
0000
3020
0000
0032
0000
0103
0010
1000
0100
1000
0000
,
1001
0000
0000
0000
0000
0000
0010
0000
0100
0000
0000
0000
1000
0000
0000
0001
1000
0000
0000
0000
0010
0000
0000
0000
0200
0000
0000
0000
0000
0000
0000
0000
,
0310
1000
0001
0010
0100
0010
2000
0000
,
3001
0000
0000
0100
0010
0000
1000
0000
0001
0000
0010
0000
0100
0000
1000
0000
,
0001
0010
1000
0100
0001
0010
0100
0000
,
1001
0000
0101
0100
0101
0100
1100
0000
,
0001
0100
0010
0100
1000
0100
0001
0000
,
1001
0000
0000
0010
0100
0000
0000
1000
0001
0000
0010
0000
0100
0000
0001
0000
,
1010
0000
0000
0000
0000
0000
0000
1000
0001
0000
0000
0000
0000
0000
0000
0000
0100
0000
0000
0000
0010
0000
0000
0000
1000
0000
0000
0000
0010
0000
0000
0000
,
0102
0000
0010
0000
0103
0000
0000
1000
0001
0000
0100
0000
0020
0000
0000
0000
,
0130
1000
0001
0100
0010
1000
0001
0000
,
1100
0000
0000
0100
0001
0000
0100
0000
2000
0000
0001
0000
3100
0000
0010
0001
,
1000
0000
0001
0000
0100
1000
0010
0000
1000
0000
0100
0000
1001
0000
0000
0000
,
0101
0000
1000
0010
0100
0001
0200
0000
,
0310
1000
0010
0100
0001
1000
0010
1000
,
0101
0000
0000
1000
0001
0000
0000
1000
0001
0000
0010
0000
0100
0000
1000
0000
,
0001
0000
0000
0000
0000
0000
0000
0000
0010
1000
0000
0000
0000
0000
0000
0000
0001
0000
0000
0000
1000
0000
0000
0000
0001
0000
0000
0000
0100
0000
0000
0000
,
0101
0000
0000
1000
0001
0000
0000
0001
0100
0000
1000
0000
0001
1000
0001
1000
,
0001
0000
0000
0000
0000
0000
0000
1000
0002
0000
0000
0000
0000
0000
0000
0000
0103
0000
0000
0000
0000
0000
0000
0000
0110
0000
0000
0000
0000
0000
0000
0000
,
0220
0330
0002
0023
2030
3002
0023
0030
,
0200
0320
0032
2003
3200
0320
0032
0203
,
0020
0330
2000
3002
2003
3002
0203
0300
,
0002
0023
2030
3000
0002
2003
3200
0320
,
0200
0330
0002
0023
2030
3002
0023
0030
,
0200
0320
0032
2003
3200
0320
0032
0203
,
0020
0330
2000
3002
2003
3002
0023
0030
,
0002
0023
2030
3020
0230
0301
2002
0000
,
0000
0000
3003
0000
;
