
//----- song ID: ksdaha -----//
#TITLE:空想打破;
#ARTIST:ノイ feat. 萌 / WADIVE RECORD;
#TITLETRANSLIT:Kuusou Daha;
#ARTISTTRANSLIT:Noi feat. Moe / WADIVE RECORD;
#GENRE:WADIVERSE Chapter 1;
#MUSIC:Kuusou Daha.ogg;
#BANNER:Kuusou Daha.png;
#BACKGROUND:Kuusou Daha-bg.png;
#CDTITLE:./CDTitles/NSD A3.png;
#SAMPLESTART:59.833;
#SAMPLELENGTH:15.000;
#SELECTABLE:YES;
#OFFSET:0.000;
#BPMS:0.000=180.000;
#STOPS:35.500=0.167
,36.000=0.167
,36.500=0.167
,37.000=0.167
;
#BGCHANGES:;
#FGCHANGES:;

//--------------- dance-single - ----------------
#NOTES:
     dance-single:
     :
     Beginner:
     2:
     0,0,0,0,0:
0000
0000
0000
0000
,
0000
0000
0000
0000
,
0000
0000
0000
0000
,
0000
0000
0000
0000
,
1001
0000
0000
0000
,
0010
0000
0000
0000
0000
0000
0000
1001
,
0000
0000
0100
0000
,
0010
0000
0001
0000
,
1000
0000
0000
0000
,
0000
0000
0000
0000
,
0000
0000
1001
0000
,
0000
0000
0100
0000
,
0010
0000
0001
0000
,
0000
0000
1000
0000
,
0001
0000
1000
0000
,
0000
0000
0010
0000
,
0100
0000
0001
0000
,
0000
0000
0000
0000
,
0000
0000
0010
0000
,
0000
0000
0010
0000
,
0000
0000
0100
0000
,
0000
0000
1000
0000
,
0000
0000
0000
0100
,
0000
0000
0100
0000
,
0000
0000
0001
0000
,
0000
0000
1000
0000
,
0000
0000
0010
0000
,
0000
0000
0100
0000
,
0000
0000
1000
0000
,
0000
0000
0000
0001
,
0000
0000
0010
0000
,
0000
0000
0100
0000
,
0000
0000
0010
0000
,
0000
0000
1000
0000
,
0000
0000
0020
0000
,
0000
0000
0030
0000
,
0000
0000
0200
0000
,
0000
0000
0000
0300
,
0000
0000
1000
0000
,
0000
0000
0001
0000
,
0000
0000
0100
0000
,
0000
0000
0000
0000
,
0000
0000
0100
0000
,
0100
0000
0001
0000
,
0000
0000
1001
0000
,
0100
0000
0010
0000
,
0001
0000
1000
0000
,
0001
0000
1000
0000
,
0001
0000
0100
0000
,
0010
0000
0100
0000
,
1000
0000
0001
0000
,
0100
0000
0010
0000
,
0000
0000
0010
0000
,
0000
0000
1000
0000
,
0000
0000
0001
0000
,
0000
0000
0010
0000
,
0000
0000
0000
1000
0000
0000
0000
0000
,
0000
0000
0001
0000
,
0000
0000
0100
0000
,
0000
0000
0010
0000
,
0000
0000
2002
0000
,
0000
0000
0000
0000
,
0000
0000
3003
0000
,
0000
0000
0000
0000
,
0000
0000
0001
0000
,
0000
0000
1000
0000
,
0000
0000
0010
0000
,
0100
0000
1000
0000
,
0001
0000
1001
0000
,
0000
0000
0000
0000
0000
0000
0000
1001
;

//--------------- dance-single - ----------------
#NOTES:
     dance-single:
     :
     Easy:
     6:
     0,0,0,0,0:
0000
0000
0000
0000
,
0000
0000
0000
0000
,
0000
0000
0000
0000
,
0000
0000
0000
0000
,
0110
0000
0000
0000
,
1000
0000
0000
0000
0000
0000
0000
1001
,
0000
0010
0100
1000
,
0010
0100
1000
0010
,
0001
1000
0010
0100
,
0000
0000
2002
0000
,
0000
3003
0010
0100
,
1000
0001
1000
0001
,
0100
0010
1000
0001
,
0100
0010
0001
0010
,
0100
1000
0001
0000
0100
0000
0010
0000
,
0001
0010
0100
1000
,
0001
1000
0100
0010
,
0001
0010
0000
0000
,
0000
0000
1000
0100
,
0001
0010
0100
0010
,
0001
1000
0001
0100
,
0010
0001
0010
0100
,
1000
0001
1000
0000
0010
0000
0100
0000
,
0010
0001
0010
0100
,
0010
1000
0001
0100
,
0010
0000
0100
1000
0000
0001
1000
0000
,
0001
0010
0110
1000
,
0001
0100
0010
0001
,
0010
0000
0100
0000
0010
1000
0001
0000
,
1000
0100
1000
0001
,
0100
0010
1000
0001
,
0100
0000
0010
0000
1000
0001
0010
0000
,
0100
0010
0100
1000
,
0001
0100
0010
0100
,
1000
0001
0200
0000
,
0000
0000
0000
0300
,
0001
1000
0020
0000
,
0000
0000
0130
1000
,
0100
0010
0001
1000
,
0100
0010
0001
0010
,
0100
0000
1000
0000
0001
0000
0000
1000
,
0000
0000
0001
0000
0000
1000
0000
0000
,
1001
0000
0100
0000
,
0010
0000
0100
0100
,
0001
0000
1001
0010
,
0100
0001
1000
0000
0001
1000
0001
0000
,
0100
0010
0001
0010
,
0100
1000
0001
0000
0100
0000
0010
0000
,
1000
0001
0100
0010
,
1000
0001
0100
0000
0010
1000
0100
0000
,
0001
0010
0100
1000
,
0001
0100
0010
0100
,
1000
0001
1001
0100
,
0010
0001
0010
0100
,
1000
0001
0100
0010
,
1000
0000
0001
0000
1000
0000
0001
1000
,
0000
0001
0000
1001
0000
0000
0100
0000
,
0010
0100
1000
0001
,
0010
0000
0100
0000
0010
1000
0001
0000
,
0001
0000
0100
0000
0010
1000
0001
0000
,
0000
0000
1001
0100
,
0010
1000
0001
0010
,
0200
0000
0301
1000
,
0001
0000
0100
0000
0010
1000
0001
0000
,
0020
0000
0130
0001
,
0010
0100
1000
0001
,
0010
1000
0010
1000
,
0001
0100
0010
1000
,
0001
1000
1001
0000
,
0000
0000
0000
0000
0000
0000
0000
0110
;

//--------------- dance-single - ----------------
#NOTES:
     dance-single:
     :
     Medium:
     10:
     0,0,0,0,0:
0000
0000
0000
0000
,
0000
0000
0000
0000
,
0000
0000
0000
0000
,
0000
0000
0000
0000
,
1001
0000
0000
0000
,
0100
0000
1000
0010
0000
0001
0000
1001
,
0000
0100
1000
0001
,
0100
0010
0100
1000
,
0001
1000
0001
1000
0001
1000
0001
0200
,
0000
0300
2002
0000
,
0000
3003
0100
0010
,
1000
0001
0100
0000
0010
0000
0100
0000
,
0001
0010
0100
0000
1000
0000
0001
0000
,
1000
0001
0100
0000
0010
0000
0001
0000
,
0010
0100
1000
0000
0001
0000
1000
0000
,
0001
0100
0010
0000
0001
0000
0010
0000
,
0100
1000
0001
0000
0100
0000
0010
0000
,
0001
0010
0100
2000
0000
0000
0000
0000
,
0000
3000
1001
0100
,
1000
0001
0100
0000
0010
1000
0100
0010
,
1000
0000
0010
0000
0100
1000
0001
0000
,
0100
0000
0010
0000
0001
0010
0100
1000
,
0001
0010
0100
0000
0010
0000
1000
0000
,
0001
1000
0000
0001
1000
0001
0100
0010
,
0000
0100
1000
0000
0001
0010
0100
0000
,
0001
0000
0010
0000
0100
1000
0001
0000
,
0100
0010
1000
0001
,
0100
0000
0010
0000
1000
0001
0010
0000
,
0100
0000
0010
0000
0001
0010
0100
0000
,
1000
0001
0010
0000
0100
1000
0001
0010
,
0100
1000
0010
0100
,
1000
0001
0010
0000
0001
0000
1000
0000
,
0001
0100
0010
0000
0010
0100
1000
0000
,
0001
1000
0001
0000
0010
0100
1000
0001
,
0010
0100
2000
0000
,
0000
0000
3020
0000
,
0000
0000
0230
0000
,
0000
0000
0302
0000
,
0000
1003
0100
0010
,
1000
0001
0100
0010
,
1000
0000
0001
0000
1000
0001
0000
1000
,
0001
0000
1000
0001
0000
1000
0001
0000
,
1001
0000
0100
0000
,
0001
0000
0100
1000
,
0100
0100
0001
0000
1001
0000
0100
0000
,
0010
0100
1000
0000
0001
0010
0100
0000
,
0010
1000
0001
0000
0100
0000
0010
0000
,
0001
0010
0100
0000
1000
0001
0010
0100
,
1000
0001
0010
0000
0100
0000
0001
0000
,
1000
0001
0100
0000
0010
0100
1000
0000
,
0001
1000
0001
0000
0100
0000
0010
0000
,
0001
0010
0100
0000
1000
0001
0010
0100
,
1000
0001
0010
0000
0100
0000
1000
0000
,
0001
0000
0100
0000
0010
1000
0001
0000
,
0001
1000
0001
0000
0100
0000
1000
0000
,
0001
0100
0010
0000
0001
0010
0100
1000
,
0000
0001
0000
1001
0000
0000
0100
0000
,
0010
0001
0010
0000
0100
1000
0001
0000
,
0001
1000
0001
0000
0100
0010
0100
0000
,
1000
0001
0010
0000
0100
1000
0001
0010
,
0000
0000
0000
0000
0001
1000
0001
0100
,
0010
0000
0100
0000
1000
0001
0010
0100
,
0010
0000
1000
0000
0001
0010
0100
0010
,
1000
0000
0001
0000
0100
0000
0001
1000
,
0000
0001
0100
0000
0010
1000
0001
0000
,
0010
0100
1000
0000
0001
1000
0001
0000
,
0100
0010
0001
0000
0010
0100
1000
0001
,
0010
0100
1000
0000
0001
1000
0001
0010
,
0100
1000
0001
0000
1001
0000
0000
0000
,
0000
0000
0000
0000
0000
0000
0000
0110
;

//--------------- dance-single - ----------------
#NOTES:
     dance-single:
     :
     Hard:
     15:
     0,0,0,0,0:
0000
0000
0000
0000
,
0000
0000
0000
0000
,
0000
0000
0000
0000
,
0000
0000
0000
0000
,
1002
0000
0000
0000
,
1003
0010
0100
1000
0000
1001
0000
0101
,
0000
0001
0100
0001
1000
0010
0100
0010
,
1000
0001
0100
0010
0100
0010
0100
0001
,
0010
0001
1000
0100
0010
0001
0010
1000
,
0001
1000
0010
0000
2002
0000
0000
0000
,
3003
0000
0000
0000
0110
0000
0000
0000
0101
0000
1000
0000
0010
0001
0000
0100
,
1000
0000
0100
0000
1000
0000
0010
0000
1000
0001
0000
1000
0100
0000
0001
0010
,
0100
1000
0001
0000
1000
0001
0000
0100
1000
0000
0010
0000
0100
0010
0000
0100
,
1000
0000
0001
0000
0100
1000
0010
0001
0100
0000
0001
0000
1000
0100
0000
0001
,
0010
1000
0100
0001
0010
0000
0100
0000
1000
0000
0010
0000
0100
1000
0000
0001
,
0100
0000
0010
0000
0100
0001
0000
0010
1000
0000
0010
0000
0100
0010
0001
0100
,
1000
0000
0010
0100
1000
0000
0001
0000
0100
0010
0000
0001
1000
0000
0100
0000
,
0010
0001
0100
0001
0000
2000
0000
0000
,
0000
0000
0000
0000
0000
0000
0000
0000
3001
0000
0100
0000
1000
0010
0000
0100
,
1000
0000
0100
0001
1000
0000
0010
0000
0100
0000
0001
0010
0100
0000
0001
0010
,
1000
0000
0100
0000
1000
0000
0001
0000
0100
0000
0001
0000
1000
0010
0000
0001
,
1000
0000
0100
0001
1000
0000
0010
0000
0100
0010
0001
1000
0100
0000
0010
0000
,
1000
0100
0000
0001
1000
0000
0010
0000
0100
0000
0010
0000
0100
1000
0000
0010
,
0100
0000
0010
0100
1000
0000
0010
0000
1000
0000
0100
0001
0010
0000
0001
0100
,
1000
0000
0001
0000
1000
0100
0000
0001
0010
0000
0100
0000
0010
1000
0000
0100
,
0010
0000
0001
0000
0100
0000
0001
0000
0010
0000
0100
0010
1000
0000
0001
0000
,
1000
0100
0010
0001
1000
0000
0001
0000
0100
0000
0001
0010
1000
0000
0100
0000
,
1000
0001
0100
0000
1000
0000
0010
0000
0100
1000
0010
0000
0100
0000
0010
0001
,
1000
0000
0100
0000
0010
0000
0001
1000
0100
0000
0001
0000
0100
1000
0001
0000
,
0010
0000
0100
0000
0010
0100
0000
0001
0010
0000
0001
0000
1000
0000
0001
0010
,
1000
0000
0100
0000
1000
0000
0010
0001
0100
0000
0010
0000
1000
0010
0001
0000
,
0100
0000
0001
0010
0100
0000
0001
0000
1000
0100
0010
0000
0100
0000
0010
0001
,
1000
0000
0010
0000
0100
1000
0000
0010
0100
0000
0010
0000
0100
0010
0000
0100
,
1000
0000
0001
0010
0100
0001
1000
0000
0100
0000
0001
1000
0010
0100
0000
0001
,
1000
0010
1000
0100
0020
0000
2030
0000
,
3001
0010
0200
0000
0001
0000
0320
0000
,
1000
0000
0032
0000
1003
0000
0100
0010
,
0001
0000
0100
0010
2000
0000
3200
0320
,
0000
0000
0032
0000
1003
0010
0100
0010
,
0100
0010
0100
1000
0001
1000
0100
1000
,
0001
0100
0010
1000
0100
0110
0000
0010
,
0011
0000
0100
1010
0000
0010
0110
0000
,
2002
0000
0000
0000
3003
0000
0000
0000
0010
0000
0000
0000
0001
0000
0000
0100
,
1000
0010
0100
0010
,
0100
0100
0001
0000
1001
0000
1000
0100
,
0010
0000
0001
0010
0100
0000
0001
0000
0100
0000
0010
0000
1000
0000
0100
0000
,
1000
0001
0100
1000
0010
0000
0001
0000
0010
0000
0100
0000
0010
0000
0001
0000
,
1000
0000
0001
0100
0010
0000
0001
0000
0010
0000
0100
0000
1000
0000
0001
0000
,
1000
0010
0100
0001
0010
0000
0100
0000
0010
0000
0001
0000
0100
0000
0001
0000
,
0010
0000
0100
1000
0010
0000
0001
0000
1000
0000
0100
0000
0010
1000
0001
0100
,
0010
0001
1000
0001
0100
0010
0100
0010
,
0100
0000
0001
1000
0010
0000
0001
0000
1000
0000
0010
0001
0100
1000
0010
0000
,
0100
0000
0010
0000
1000
0000
0100
0000
1000
0000
0100
0000
1000
0001
0010
0000
,
0100
0000
0010
0000
1000
0001
0100
0000
0010
0000
0100
0000
0010
1000
0100
0000
,
1000
0000
0010
0000
0100
0000
0001
0100
1000
0000
0010
0000
1000
0000
0001
0000
,
1000
0100
0010
0001
1000
0001
0010
0100
,
0000
0101
0000
2002
3003
1000
0100
0010
,
0100
1000
0001
0100
0010
1000
0010
1000
,
0100
0010
0001
0010
0001
0100
0001
1000
,
0100
1000
0100
0010
0001
0100
0001
0100
,
0000
0000
0000
0000
1001
0000
0100
1000
,
0010
0100
0001
0010
0100
1000
0001
0010
,
0100
0010
0100
0010
0001
1000
0001
0100
,
0010
1000
0100
0010
0001
0100
1000
0010
,
1000
0100
1000
0001
0100
0000
0101
0000
,
0010
1010
0100
0101
,
0100
0000
1010
0000
0100
0010
0100
1000
,
0100
1000
0010
0100
0001
0010
0100
1000
,
0100
0000
1000
0100
0001
0000
1000
0100
0020
0000
0000
0000
0000
0000
0000
0000
,
0000
0000
0000
0000
0000
0000
0030
1001
;
