
//----- song ID: bngr -----//
#TITLE:硬核クロノスタシス;
#ARTIST:NAMCO Sound Team "Massive New Krew VS. RoughSketch";
#TITLETRANSLIT:Koukaku Chronostasis;
#GENRE:ナムコオリジナル;
#MUSIC:Koukaku Chronostasis.ogg;
#BANNER:Koukaku Chronostasis.png;
#BACKGROUND:Koukaku Chronostasis-bg.png;
#CDTITLE:./CDTitles/NSD A3.png;
#SAMPLESTART:85.600;
#SAMPLELENGTH:15.000;
#SELECTABLE:YES;
#OFFSET:0.000;
#BPMS:0.000=157.000
,64.000=314.000
,72.000=628.000
,76.000=157.000
,80.000=314.000
,86.000=157.000
,87.000=628.000
,90.000=627.000
,98.000=316.000
,99.000=632.000
,106.000=158.000
,108.000=632.000
,119.000=316.000
,120.000=632.000
,124.000=316.000
,125.000=157.000
,144.000=314.000
,145.000=628.000
,156.000=314.000
,157.000=628.000
,162.000=78.500
,172.000=157.000
,192.000=628.000
,196.000=157.000
,197.000=628.000
,205.000=157.000
,206.000=628.000
,221.000=157.000
,244.000=628.000
,286.000=314.000
,292.000=628.000
,311.000=157.000
,312.000=628.000
,340.000=157.000
,348.000=314.000
,378.000=157.000
,379.000=628.000
,395.000=157.000
,396.000=628.000
,422.000=157.000
;
#STOPS:72.000=0.291
,73.000=0.287
,74.000=0.287
,75.000=0.287
,87.000=0.287
,88.000=0.287
,89.000=0.287
,90.000=0.095
,93.000=0.287
,94.000=0.287
,95.000=0.287
,99.000=0.287
,100.000=0.287
,101.000=0.287
,102.000=0.287
,103.000=0.095
,104.000=0.190
,105.000=0.196
,108.000=0.100
,109.000=0.095
,110.000=0.287
,111.000=0.287
,112.000=0.095
,113.000=0.100
,114.000=0.287
,115.000=0.287
,116.000=0.287
,121.000=0.194
,122.000=0.287
,123.000=0.287
,124.000=0.193
,145.000=0.094
,146.000=0.097
,147.000=0.094
,148.000=0.287
,149.000=0.287
,150.000=0.287
,151.000=0.287
,152.000=0.287
,153.000=0.283
,158.000=0.191
,159.000=0.287
,160.000=0.288
,161.000=0.287
,192.000=0.287
,193.000=0.287
,194.000=0.287
,195.000=0.287
,197.000=0.287
,198.000=0.283
,199.000=0.287
,200.000=0.287
,201.000=0.287
,202.000=0.287
,203.000=0.096
,204.000=0.095
,206.000=0.089
,207.000=0.100
,208.000=0.287
,209.000=0.287
,210.000=0.287
,211.000=0.287
,212.000=0.189
,220.000=0.096
,246.000=0.097
,247.000=0.287
,250.000=0.097
,251.000=0.287
,252.000=0.284
,253.000=0.287
,254.000=0.287
,255.000=0.094
,256.000=0.097
,257.000=0.095
,258.000=0.097
,259.000=0.287
,260.000=0.287
,261.000=0.093
,262.000=0.096
,263.000=0.287
,264.000=0.287
,265.000=0.287
,268.000=0.093
,271.000=0.098
,272.000=0.287
,275.000=0.096
,276.000=0.096
,277.000=0.096
,278.000=0.287
,279.000=0.283
,284.000=0.096
,285.000=0.287
,294.000=0.287
,295.000=0.287
,296.000=0.287
,297.000=0.287
,298.000=0.286
,299.000=0.287
,300.000=0.286
,301.000=0.096
,302.000=0.096
,304.000=0.191
,305.000=0.287
,306.000=0.287
,312.000=0.287
,313.000=0.191
,314.000=0.191
,317.000=0.285
,318.000=0.287
,320.000=0.191
,321.000=0.096
,322.000=0.096
,325.000=0.096
,326.000=0.286
,329.000=0.096
,330.000=0.096
,331.000=0.096
,332.000=0.285
,333.000=0.096
,334.000=0.096
,335.000=0.287
,379.000=0.287
,380.000=0.287
,381.000=0.287
,382.000=0.287
,383.000=0.096
,384.000=0.096
,385.000=0.096
,386.000=0.096
,396.000=0.287
,397.000=0.287
,398.000=0.287
,399.000=0.287
,400.000=0.287
,401.000=0.287
,402.000=0.096
,403.000=0.096
,405.000=0.096
,407.000=0.287
,408.000=0.287
,409.000=0.287
,410.000=0.096
,411.000=0.096
,412.000=0.096
,413.000=0.096
,422.000=1.553
;
#DISPLAYBPM:157.000:632.000;
#BGCHANGES:;
#FGCHANGES:;

//--------------- dance-single - ----------------
#NOTES:
     dance-single:
     :
     Beginner:
     6:
     0,0,0,0,0:
0000
0000
0000
0000
,
0000
0000
0000
0000
,
0000
0000
0000
0000
,
0000
0000
0000
0000
,
0000
0000
0000
0000
,
0000
0000
0000
0000
,
1000
0010
0100
0001
,
1000
0001
0100
0010
,
0100
0000
1000
0000
,
0001
0010
0100
0000
,
2002
0000
0000
0000
,
3003
0000
0000
0000
,
0220
0000
0000
0000
,
0330
0000
0000
0000
,
1000
0000
0001
0000
,
0010
0000
0100
0000
,
1000
0000
0001
0000
,
0100
0010
1000
0000
,
2000
0000
3001
0000
,
1001
0000
0000
0000
,
0010
0000
0100
0000
,
1000
0000
0000
1000
,
0001
0100
0001
0000
,
0000
1000
0010
0100
,
0010
0000
0000
0010
,
1000
0100
0001
1000
,
0010
1000
0000
0000
,
0010
0000
0001
0100
,
0001
0000
1000
0010
,
0100
0000
0000
0010
,
0000
1000
0010
0100
,
1000
0001
0010
0100
,
0000
1000
0001
0010
,
0100
0001
1000
0001
,
0010
0100
0001
1000
,
0001
0100
0010
0100
,
1000
0000
0001
0000
,
0100
0010
0100
1000
,
0001
0100
0000
0000
,
0010
0000
1000
0010
,
0100
1000
2000
3001
,
0010
1000
0001
0100
,
0010
0100
1000
0001
,
0010
0100
0010
1000
,
0001
0100
0010
0000
,
1000
0100
0010
0001
,
0220
0000
0330
0000
,
1001
0000
0100
0000
,
1000
0001
1000
0000
,
0010
0100
1000
0100
,
0010
0100
1000
0001
,
0000
0100
0010
0000
,
1000
0001
0010
0100
,
1000
0001
0000
1000
,
0000
0010
0000
0000
,
0001
0100
0010
1000
,
0001
0100
0010
1000
,
0001
0010
0001
1000
,
0020
0000
0030
0000
,
1001
0100
0010
0000
,
0001
1000
0001
0000
,
0100
0000
0000
1000
,
0010
0000
0000
0100
,
0001
0010
0100
1000
,
0000
0001
0000
0010
,
0100
1000
0000
0001
,
0100
0010
0000
0000
,
1000
0010
0000
0001
,
0100
0010
0000
1000
,
0001
0000
0100
0010
,
0100
0000
0000
0001
,
0010
1000
0001
0100
,
0000
1000
0000
0001
,
0100
0000
1000
0010
,
0100
0001
0010
0100
,
1000
0010
0000
0100
,
0000
0001
0100
2002
,
0000
0000
0000
3003
,
0010
0100
1000
0001
,
0000
1000
0001
0010
,
0000
1000
0001
0100
,
0000
1000
0001
0010
,
0000
1000
0001
0000
,
0100
0001
1000
0010
,
0000
0000
0000
0000
,
1001
0000
0100
0000
,
0010
0001
1000
0000
,
0001
0000
0100
0000
,
0010
0000
1000
0000
,
0001
0000
0010
0000
,
0100
0000
0010
0000
,
1000
0000
0001
0000
,
0100
0000
1000
0000
,
0001
0000
0010
0000
,
0100
0000
1000
0001
,
0010
0100
0001
0100
,
0000
0010
0000
2002
,
0000
0000
0000
0000
,
0000
0000
0000
3003
,
0010
1000
0001
0100
,
0010
0100
1000
0000
,
0001
0000
0100
0000
,
0001
0100
1000
0000
,
0001
1000
0020
0000
,
0000
0030
0000
0000
,
0000
0000
1001
0000
;

//--------------- dance-single - ----------------
#NOTES:
     dance-single:
     :
     Easy:
     8:
     0,0,0,0,0:
0000
0000
0000
0000
,
0000
0000
0000
0000
,
0000
0000
0000
0000
,
0000
0000
0000
0000
,
0000
0000
0000
0000
,
0000
0000
0000
0000
,
0100
1000
0001
0100
,
0001
0010
0100
0010
,
0100
0010
0001
1000
,
0100
0010
0100
1000
,
2002
0000
0000
0000
,
3003
0000
0000
0000
,
0220
0000
0000
0000
,
0330
0000
0000
0000
,
1000
0001
0100
0010
,
0100
1000
0001
0100
,
1000
0001
0100
0000
,
0010
1000
0001
0000
,
0010
0100
0010
0110
,
1001
0000
0000
0000
,
0001
0000
1000
0000
,
0001
0000
0000
0010
,
0100
1000
0001
1000
,
0000
0010
0100
1000
,
0010
0000
0100
0010
,
0010
0100
0010
0100
,
0010
1000
0100
1000
,
0001
1000
0010
0100
,
1000
0001
0010
0100
,
1000
0001
0000
0000
,
1000
0010
0100
0010
,
1000
0001
0010
2002
,
0000
3003
0010
0100
,
0001
0100
1000
0001
,
0010
0000
1000
0000
0100
0010
0000
0000
0001
0000
0000
0000
0010
0000
0000
0000
,
0100
1000
0001
0010
,
0100
0100
0010
0100
,
0010
0100
1000
0010
,
1000
0010
0100
0000
,
0001
0010
0100
1000
,
0010
0100
1001
0010
,
1000
0001
0100
0000
0010
0100
1000
0000
,
0001
0010
0001
0000
0100
0010
1000
0000
,
0001
0100
0010
0000
,
1000
0001
0100
0000
,
0010
0000
0100
0000
1000
0001
0100
0000
,
0020
0000
0030
0000
,
1001
0100
0010
0001
,
0100
0010
0100
1001
,
0000
0010
0100
0010
,
1000
0010
0100
0001
,
0200
0000
0301
1000
,
0010
0100
0010
0100
,
1000
0000
0010
0000
,
0100
0000
0010
0000
,
1000
0000
0010
0000
1000
0000
0100
0001
,
0000
1000
0000
0001
0010
0000
0000
0000
0100
0000
0000
0000
0010
0000
0100
0000
,
1000
0100
0010
0001
0100
1000
0001
0010
,
2000
0000
3001
0000
,
1001
0100
0010
1000
,
0001
0010
0100
1001
,
0100
0000
0001
0100
,
1000
0000
0001
0100
,
0001
0010
0100
0001
,
1000
0010
0100
1000
,
0001
0010
1000
0100
,
0001
0010
0100
0000
,
0010
0100
0000
1000
,
0001
0100
0000
0001
,
0100
0001
1000
0001
,
0100
0000
0010
0000
,
0100
1000
0001
1000
,
0000
0110
0000
0000
,
0002
0000
1003
0001
,
1000
0100
0010
0100
,
1000
0010
0100
0010
,
0100
1000
0001
2000
,
0000
0000
0000
3001
,
1001
0110
1001
0000
,
0000
0010
0100
0010
,
0001
0100
0010
0001
,
0000
1000
0001
0100
,
0000
0010
1000
0001
,
0100
0010
1000
0020
,
0000
0000
0000
0000
,
1030
0010
0100
0001
,
1000
0010
0100
1001
,
0100
1000
0010
0000
,
0001
0010
0100
0000
,
0001
0000
1000
0001
,
0010
0000
0100
0001
,
1000
0100
0001
1000
,
0010
0000
0000
0100
1000
0000
0010
0000
,
0001
0000
0000
0100
0010
0000
1000
0000
,
0020
0000
0130
0001
,
0010
0100
0001
1000
,
0010
0100
1000
0020
,
0000
0000
0000
0000
,
0000
0000
0000
1030
,
0100
1000
0001
0010
,
0100
1000
0100
1000
,
0000
0100
0000
1000
,
0010
1000
0100
0010
,
0001
1000
0001
1000
,
0000
0000
0010
0000
,
0000
0000
1001
0000
;

//--------------- dance-single - ----------------
#NOTES:
     dance-single:
     :
     Medium:
     12:
     0,0,0,0,0:
0000
0000
0000
0000
,
0000
0000
0000
0000
,
0000
0000
0000
0000
,
0000
0000
0000
0000
,
0000
0000
0000
0000
,
0000
0000
0000
0000
,
1001
0100
0010
0000
1000
0000
0001
0100
,
0020
0000
1030
0001
0100
0000
0010
0000
,
0100
1000
0001
0010
2000
0000
3010
0100
,
0001
0010
0100
1000
,
2002
0000
0000
0000
,
3003
0000
0000
0000
,
0220
0000
0000
0000
,
0330
0000
0000
0000
,
1000
0001
0100
0010
,
0100
1000
0001
0100
,
0010
1000
0001
1000
,
0100
0010
0100
1000
,
0001
1000
1001
0110
,
1001
0000
0000
0000
,
0001
0000
0010
0000
,
0100
0000
0000
0010
,
0100
0010
1000
0100
,
1000
0001
0100
0010
,
1000
0100
1000
0010
,
1000
0001
0010
0001
,
0100
0001
0010
0100
,
0010
0100
0010
0001
,
1000
0010
1000
0100
,
0010
0000
1000
0000
,
0001
1000
0010
0001
,
0100
0000
1000
0010
1000
0010
0001
1000
,
0010
0100
0002
0000
1003
0000
0010
0100
,
0001
0000
1000
0000
0001
0100
0010
1000
,
0001
0000
0100
0000
0001
0010
0000
0100
1000
0000
0010
0000
0100
0000
0000
0000
,
0001
0000
0010
0100
0001
0000
1000
0001
,
0100
0010
1000
0001
,
0100
0001
0100
0010
,
1000
0100
0000
0000
,
0000
0001
0100
0001
,
0100
0000
0000
0000
0010
0000
0000
0000
1001
0000
0100
0010
0001
0010
0100
0001
,
1000
0010
0100
0001
1000
0001
0100
0010
,
0100
1000
0001
0100
0010
0100
1000
0001
,
0100
0010
1000
0001
,
0100
0010
0001
1000
,
0001
0010
0100
0001
1000
0001
0100
0010
,
2000
0000
0000
3000
,
1001
0100
0010
1000
,
0001
0010
1000
1001
,
0200
0310
1000
0010
,
0100
0010
1000
0001
,
1000
0000
0001
1000
0010
0000
0001
0000
,
0010
0100
1000
0010
,
1000
0000
0100
0000
,
0010
0000
0100
0000
,
0010
0000
1000
0000
0010
0000
0100
0001
,
0000
1000
0000
0000
0001
0000
0010
0000
0100
0000
0000
0000
0001
0000
0100
1000
,
0010
0001
0100
1000
0001
0000
0010
0100
,
0002
0000
1003
0000
,
0110
1000
0001
0100
,
0010
0100
1000
1001
,
0010
0000
0100
1000
,
0001
0000
0100
0010
,
1000
0010
0100
0001
,
1000
0100
1000
0010
,
1000
0010
0100
0001
,
0010
0100
0010
0000
,
0010
0100
0000
0010
,
1000
0100
0000
0001
,
0100
0001
1000
0001
,
0010
0000
1000
0000
,
0100
0001
1000
0010
,
0100
0010
1000
0100
,
0010
0000
1001
0010
,
1000
0100
1000
0100
,
0010
0001
0010
0100
,
1000
0010
1000
0100
,
0000
0010
0000
0001
,
0100
0001
1000
0010
,
0000
0001
0010
0000
,
0010
0100
1000
0010
,
0000
0010
1000
0001
,
0100
0001
0100
0001
,
1000
0100
1000
2002
,
0000
0000
0000
3003
,
0110
0000
1000
0001
0010
0000
0100
0001
,
1000
0000
0001
0100
0010
0000
1000
0000
,
0010
1000
0010
0100
,
0001
1000
0001
1000
,
0010
0100
0001
0010
,
0001
0100
0010
2000
,
3001
0000
0010
1000
0001
0000
1000
0000
,
0100
1000
0001
1000
,
0001
0010
0001
1000
,
0010
0100
1001
0100
,
0010
0001
0010
0100
,
1000
0010
1000
0001
,
0000
1000
0000
0001
,
0000
0010
0000
0100
,
1001
0010
1000
0100
,
1000
0100
1000
0010
,
0100
0010
1000
0100
,
0010
0100
0010
0001
,
1000
0010
0100
0010
,
0000
0010
0100
0000
,
0000
0000
1001
0000
;

//--------------- dance-single - ----------------
#NOTES:
     dance-single:
     :
     Hard:
     17:
     0,0,0,0,0:
0000
0000
0000
0000
,
0000
0000
0000
0000
,
0000
0000
0000
0000
,
0000
0000
0000
0000
,
0000
0000
0000
0000
,
0000
0000
0000
0000
,
1001
0100
0010
1000
0020
0000
1030
0100
,
2000
0000
3010
0001
0020
0000
0230
0000
,
1300
0100
0001
1000
0010
0100
0001
0100
,
0010
1000
0001
0100
0010
0100
0010
0001
,
2002
0000
0000
0000
,
3003
0000
0000
0000
,
0220
0000
0000
0330
,
0000
0000
0000
0000
,
0100
0001
1000
0000
0010
0000
0100
0000
0010
0001
0100
0000
0010
0000
1000
0000
,
0100
1000
0010
0000
0100
0001
0010
0000
0001
1000
0010
0000
0001
0100
1000
0000
,
0010
1000
0010
1000
0001
1000
0010
0100
,
0001
0100
0001
0010
0100
0010
0001
0010
,
0100
0110
1001
0110
,
2002
0000
0000
3003
,
0002
0000
0023
0000
,
0230
0000
0000
1300
0000
0000
0110
0000
,
0011
0110
1010
0011
,
0011
0011
1001
1001
,
0110
0110
0110
1001
,
0101
1010
0101
1010
,
0101
1010
0002
2003
,
3001
1001
0110
0101
,
1010
0110
1001
0101
,
1010
0000
0001
1000
0001
0000
0100
0000
,
1001
1010
1001
0101
,
1010
0000
1002
2003
3020
0230
0320
0032
,
2003
0000
3200
0000
0320
0000
0130
1000
0010
0000
1000
0001
0100
0000
1000
0001
,
0100
0010
1000
0000
0001
0100
0010
0000
0001
1000
0010
0000
0100
0001
1000
0100
,
0010
0000
1000
0000
0100
0001
1000
0000
0100
1000
0010
0000
0001
1000
0010
0100
,
0001
0000
0100
0000
0010
0001
0100
0000
0010
0001
0100
0000
0001
0000
0010
1000
,
0010
0110
1010
0101
,
0110
1010
0101
1001
,
0110
0000
0101
0000
1000
0001
0100
0000
,
1000
0001
1000
1001
,
0101
0000
0000
0000
0000
0000
0000
0000
1001
0000
0000
0000
0000
0000
0000
0000
0100
0000
0001
0000
0010
0000
0100
0000
1000
0000
0000
0010
0000
0000
0100
0000
,
1001
0000
0100
0000
0002
0000
0000
0000
1003
0000
0001
0000
1000
0000
0001
0000
0100
0000
0000
0000
1000
0000
0010
0000
0100
0000
0001
0000
0010
0000
1000
0001
,
0100
0000
1000
0010
0001
1000
0001
1000
0001
0010
0100
1000
0002
0000
0000
0000
,
1003
0001
0100
0001
1000
0001
0100
0010
,
0100
0010
0100
0001
1000
0010
0100
0001
,
0010
0100
0010
1000
0001
1000
0001
1000
0010
0100
0001
0010
0001
0100
0001
0100
,
0020
0000
0000
0000
,
1030
0001
1000
0010
0100
0001
1000
0010
,
0011
1001
0110
1000
,
0000
1001
0101
1010
,
0101
1010
0110
0101
,
1001
0000
0120
1030
1001
0000
0110
0000
,
0101
1001
0101
1001
,
1010
0001
1000
0001
,
1000
0002
0000
0000
,
1003
0000
0011
1100
0011
1000
0010
0100
,
0000
1001
0000
0010
0200
0000
0010
0000
0301
0000
1000
0000
0100
0000
0010
0001
,
0100
0000
1000
0000
0010
0000
0100
0000
0010
0000
1000
0000
0100
1000
0010
0100
,
0002
0000
0000
0000
0000
0000
2003
0000
3200
0000
0000
0320
0000
0000
0032
0000
,
1003
0100
0010
0001
,
1000
0001
1000
0000
0001
1000
0001
0000
0010
0100
0010
0000
1000
0000
0000
0000
,
0010
0100
1000
0110
,
1000
0100
1000
1001
,
0110
0101
1010
0110
,
1001
0110
1010
0101
,
1001
0110
0101
0110
,
1100
0000
0101
0000
1000
0001
1000
0000
,
0010
1000
0001
0010
,
1010
0100
0001
0100
,
1010
0101
1010
0110
,
0100
1000
0010
0100
,
0010
0000
1001
0000
0010
0100
1000
0000
,
0010
1000
0001
0010
,
0100
0010
0100
1010
,
0101
1010
0110
0101
,
0110
1010
0101
1000
,
0100
1010
0101
1000
,
0001
0100
1000
0001
,
0001
1001
0110
0010
,
1000
0010
0101
1000
,
0001
1001
0110
0001
,
1000
0100
1001
0001
,
1000
0010
0101
0110
,
1010
0101
0110
1010
,
0001
0010
0001
1000
,
0010
0001
1000
0010
0001
0100
1000
0001
,
1010
0000
0110
0000
1001
0000
0000
1000
,
0010
0100
0010
0100
0010
0000
1001
0000
,
0100
0010
0001
0100
0010
0000
0001
0100
,
0010
1000
0001
0010
0200
0000
0000
0000
,
0320
0000
0000
0000
0000
0000
0000
0000
0000
0000
0000
0000
1030
0100
1000
0100
,
1000
0001
0010
1000
0100
1000
0100
1000
,
0011
0000
0000
1001
0000
0100
0001
0100
,
0010
0000
0000
1000
0001
0000
0100
0010
,
0010
0100
0010
1000
0200
0000
0310
0000
,
0110
0101
1010
0110
,
0101
1010
0110
0010
,
0100
0000
0010
0000
1000
0000
0100
0010
,
0001
0100
1000
0100
0001
1000
0020
0000
,
1030
0101
1010
0110
,
0101
1010
1001
0101
,
0100
1000
0001
1000
,
0101
1010
1000
0001
,
0010
0100
0001
1000
,
0000
0010
0100
0000
,
0110
0000
0000
0000
0000
0000
0000
0000
2002
3003
0000
0000
0000
0000
0000
0000
;
