
//----- song ID: koha -----//
#TITLE:光芒の果;
#ARTIST:NAMCO Sound Team "内田哲也";
#TITLETRANSLIT:Kobo no Hate;
#ARTISTTRANSLIT:NAMCO Sound Team "Tetsuya Uchida";
#GENRE:ナムコオリジナル;
#MUSIC:Kobo no Hate.ogg;
#BANNER:Kobo no Hate.png;
#BACKGROUND:Kobo no Hate-bg.png;
#CDTITLE:./CDTitles/NSD A3.png;
#SAMPLESTART:64.129;
#SAMPLELENGTH:15.000;
#SELECTABLE:YES;
#OFFSET:0.000;
#BPMS:0.000=145.000;
#STOPS:;
#BGCHANGES:;
#FGCHANGES:;

//--------------- dance-single - ----------------
#NOTES:
     dance-single:
     :
     Beginner:
     3:
     0,0,0,0,0:
0000
0000
0000
0000
,
0000
0000
0000
0000
,
0000
0000
0000
0000
,
0000
0000
0000
0000
,
0000
0000
0000
0000
,
1001
0000
0000
0000
0110
0000
0000
2002
,
0000
0000
0000
0000
3003
0000
0000
0000
0001
0000
0000
0000
1000
0000
0000
0001
,
0000
0000
0000
0000
0010
0000
0000
0100
0000
0000
2002
0000
0000
0000
0000
0000
,
0000
0000
0000
0000
,
3003
0010
0100
1000
,
0000
0001
0000
0100
,
0000
0010
0000
0100
,
0000
1000
0000
0001
,
0000
0100
0000
0010
,
0000
1000
0000
0001
,
0000
0100
0000
0010
,
0000
0100
0000
1000
,
0000
0001
0000
0120
,
0000
0000
0000
1030
,
0000
0001
0000
0100
,
0000
0000
0000
0010
,
0000
0000
0000
0100
,
0000
0000
0000
0001
,
0000
0000
0000
1000
,
0000
0000
0000
0010
,
0000
0100
0010
0100
,
0000
1000
0000
0001
,
0000
0000
0000
2000
,
0000
0000
0002
0000
,
0000
0000
0000
0000
,
0000
0000
0000
3003
,
0000
0000
0000
0000
,
0000
0000
0000
0000
,
0000
0000
0000
0000
,
0000
0000
0000
0100
,
0000
0010
0000
1000
,
0000
0001
0000
0100
,
0000
0010
0001
0010
,
0000
0000
0000
1001
,
0000
0100
0000
0010
,
0000
1000
0001
0100
,
0000
0010
0000
0100
,
1000
0001
0000
0100
,
0000
0010
0000
0100
,
0000
1000
0000
0001
,
0000
0100
0000
0010
,
0000
1000
0001
1000
,
0000
0100
0000
0010
,
0000
0100
0000
0010
,
0000
0001
0000
0010
,
0100
1000
0000
0001
,
0000
1000
0000
0001
,
0000
0010
0000
0100
,
0000
1000
0000
0001
,
0000
0000
0100
0000
0000
2002
0000
0000
,
0000
0000
0000
0000
,
3003
0010
0010
0110
,
0000
1000
0000
0001
,
0000
0100
0000
0010
,
0000
0000
0000
0000
0100
0000
0000
0000
0000
0000
0000
1000
0000
0000
0000
0000
,
0000
0000
0000
0001
0000
0000
0000
0000
0000
0000
0000
0100
0000
0000
0000
0000
,
0000
0000
0000
0010
0000
0000
0000
0000
0000
0000
0000
0200
0000
0000
0000
0000
,
0000
0000
0000
0020
,
0000
0000
0000
0000
,
0000
0000
0000
0000
,
0330
0000
0000
0000
;

//--------------- dance-single - ----------------
#NOTES:
     dance-single:
     :
     Easy:
     5:
     0,0,0,0,0:
0000
0000
0000
0000
,
0000
0000
0000
0000
,
0000
0000
0000
0000
,
0000
0000
0000
0000
,
0000
0000
0000
0000
,
1001
0000
0000
0100
0000
0000
0000
0000
0110
0000
0000
0001
0000
0000
2002
0000
,
0000
0000
3003
0000
0000
0000
0000
0000
1000
0000
0000
0000
0001
0000
0000
1000
,
0000
0000
0000
0000
0001
0000
0000
0010
0000
0000
2002
0000
0000
0000
0000
0000
,
0000
0000
0000
0000
,
3003
0001
0110
1000
,
0001
0000
0000
0000
0100
0000
0000
0001
0000
0000
0100
0000
1000
0000
0000
0000
,
0001
0000
0000
0000
0010
0000
0000
1000
0000
0000
0100
0000
0001
0000
0000
0000
,
0010
0000
0000
0000
0100
0000
0000
0001
0000
0000
0010
0000
1000
0000
0000
0000
,
0001
0000
0000
0000
0100
0000
0000
0020
0000
0000
0000
0000
1030
0000
0000
0001
,
0000
0000
0000
0000
1000
0000
0001
0000
0000
0100
0000
0000
0000
0000
0010
0000
,
0000
1000
0000
0000
0010
0000
0100
0000
0000
1000
0001
0000
0100
0000
0000
0001
,
0000
0000
0000
0000
0010
0000
0100
0000
0000
1000
0000
0000
0010
0000
1000
0000
,
0000
0001
0000
0000
0010
0000
0000
0000
1000
0000
0001
0000
2000
0000
0000
0000
,
0000
0000
0000
3001
,
0000
1000
0000
0010
0000
0100
0020
0000
,
0000
0000
0000
0130
0000
1000
0002
0000
,
0000
1003
0100
0020
,
0000
0000
0000
0000
1030
0100
0000
0001
,
0000
0010
0000
0100
0000
1000
0002
0000
,
0000
0000
0000
1003
0100
0010
0200
0000
,
0000
0301
1000
1001
,
0000
0110
0000
0101
,
1000
0000
0100
0001
1000
0000
0010
0000
,
0000
0100
0000
0000
0220
0000
0000
0000
,
0000
0000
0000
0000
,
0000
0000
0330
1000
,
0000
0000
0000
0010
,
0000
0000
0000
0001
,
0000
0000
0000
0100
,
0000
0000
0000
0010
,
0000
1000
0000
0001
,
0000
0100
0000
0010
,
1000
0001
1000
1001
,
0000
0000
0000
1001
,
0100
0001
0010
0000
1000
0010
0001
0000
,
0100
1000
0010
0000
0100
0000
1000
0010
,
0001
0000
0100
1000
0010
0000
0100
0001
,
1000
0001
0100
0010
,
0001
1000
0010
0000
0100
0010
1000
0000
,
0001
1000
0100
0000
0010
0000
0100
0000
,
1000
0000
0001
0000
0100
0000
0010
1000
,
0001
0000
0010
0001
0100
0000
1001
0000
,
0100
1000
0010
0000
0100
0001
1000
0000
,
0001
1000
0100
0000
0010
1000
0001
0000
,
0010
0001
0100
0000
0010
0001
0100
0000
,
1000
0010
0001
0000
0100
0000
0010
1000
,
0100
0000
1000
0010
0001
0000
0100
1000
,
0010
0000
0000
0000
0001
0000
1000
0000
0000
0010
0000
0000
0100
0000
0000
0000
,
0001
0000
0000
0000
1000
0000
0000
0010
0000
0000
0000
0000
0100
0000
0000
0000
,
1000
0000
0001
0010
0100
2000
0000
0000
,
0000
0000
0000
0000
,
3000
0001
1000
1001
,
0000
0100
0000
0010
,
0000
0001
0000
0010
,
0000
0000
0000
0000
0100
0000
0000
0000
0001
0000
0000
1000
0000
0000
0000
0000
,
0100
0000
0000
0010
0000
0000
0000
0000
0001
0000
0000
0010
0000
0000
0000
0000
,
1000
0000
0000
0001
0000
0000
0000
0000
0000
0000
0000
0002
0000
0000
0000
0000
,
0000
0000
0000
2000
,
0000
0000
0000
0000
,
0000
0000
0000
0000
,
3003
0000
0000
0000
;

//--------------- dance-single - ----------------
#NOTES:
     dance-single:
     :
     Medium:
     13:
     0,0,0,0,0:
0000
0000
0000
0000
,
0000
0000
0000
0000
,
0000
0000
0000
0000
,
0000
0000
0000
0000
,
0000
0000
0000
0000
,
1001
0000
0000
0010
0000
0000
0000
0000
0110
0000
0000
1000
0000
0000
2002
0000
,
0000
0000
3003
0000
0000
0000
0000
0000
0001
0000
0100
0000
1000
0000
0000
0001
,
0000
0010
0000
0000
1000
0000
0000
0100
0000
0000
2002
0000
0000
0000
0000
0000
,
0000
0000
0000
0000
,
3003
0000
1000
0000
0110
0000
1000
0010
,
0001
0000
1000
0000
0100
0000
0000
0001
0000
0000
0100
0000
1000
0000
0100
0000
,
0001
0000
0100
0000
0010
0000
0000
1000
0000
0000
0100
0000
0001
0000
1000
0000
,
0010
0000
1000
0000
0100
0000
0000
0001
0000
0000
0010
0000
1000
0000
0100
0000
,
0001
0000
0010
0000
0100
0000
0000
0020
0000
0000
0000
0000
1030
0000
0000
0001
,
0000
0000
0100
0000
1000
0000
0001
0000
0000
0100
0000
0000
0001
0000
0010
0000
,
0000
1000
0000
0000
0010
0000
0100
0000
0000
1000
0001
0000
0100
0000
0000
0001
,
0000
0000
1000
0000
0010
0000
0100
0000
0000
1000
0000
0000
0010
0000
1000
0000
,
0000
0001
0100
0000
0010
0000
0000
0000
1000
0000
0010
0000
0002
0000
0000
0000
,
1000
0100
1000
0010
,
1003
0001
0010
0200
,
0010
0001
1000
0310
,
1000
0001
0100
2000
,
0100
0001
3100
0010
,
1000
0010
1000
0002
,
0100
1000
0100
1003
,
0100
0000
0000
0000
0010
0000
0000
0000
1000
0000
0000
0000
1001
0000
0000
0100
,
0000
0000
0000
0000
0110
0000
0000
1000
0000
0000
0000
0000
0101
0000
0000
0000
,
1000
0000
0010
0000
0100
0000
0001
0000
1000
0000
0100
0000
0010
0000
0000
1000
,
0000
0000
0100
0000
0000
0001
0000
0000
0220
0000
0000
0000
0000
0000
0000
0000
,
0000
0000
0000
0000
,
0000
0000
0330
2000
,
0000
3002
0000
0203
,
0000
0000
0000
0320
,
0000
0000
0000
2030
,
0000
0000
0000
3001
,
0010
0001
0100
0000
1000
0100
0001
0000
,
1000
0001
0100
0000
1000
0000
0001
0000
,
0100
0000
1000
0001
1000
0001
0020
0000
,
0000
0000
0030
1001
,
0100
0001
1000
0000
0001
0010
0100
0000
,
1000
0010
0001
0000
0100
0000
0010
0000
,
0100
0001
1000
0100
0010
0001
1000
0100
,
0001
1000
0010
0100
0001
0100
0010
0000
,
0001
0100
1000
0000
0100
0001
1000
0000
,
0001
1000
0010
0000
0001
1000
0010
0000
,
0001
0000
1000
0001
0100
1000
0010
0001
,
0100
1000
0010
0000
0100
0000
1000
0000
,
0001
1000
0100
0000
0010
0001
0100
0000
,
0010
1000
0100
0000
0001
0100
0010
0000
,
0001
0010
0100
1000
0010
0001
0100
0000
,
0001
0000
1000
0000
0001
0000
0100
0010
,
0001
0100
1000
0000
0100
0001
0010
1000
,
0100
0000
0001
0000
0010
0000
1000
0000
0000
0001
0000
0000
0100
0000
0000
0000
,
0010
0000
1000
0000
0100
0000
0000
0010
0000
0000
1000
0000
0010
0000
0000
0000
,
0001
0100
1000
0001
0100
0020
0000
0000
,
0000
0000
0000
0000
,
0030
1010
0101
1000
,
0001
0100
0010
0100
,
1000
0000
0100
0001
0100
0000
1000
0010
,
0001
0000
0000
0000
0100
0000
1000
0000
0010
0000
0000
2000
0000
0000
0000
0000
,
3001
0010
0000
2000
0000
0000
0000
0000
3001
0010
0000
0100
0000
1000
0000
0000
,
0001
0000
0000
1000
0100
0000
0001
0000
0100
0000
0010
2000
0000
0000
0000
0000
,
0000
0000
0000
0002
,
0000
0000
0000
0000
,
0000
0000
0000
0000
,
3003
0000
0000
0000
;

//--------------- dance-single - ----------------
#NOTES:
     dance-single:
     :
     Hard:
     16:
     0,0,0,0,0:
0000
0000
0000
0000
,
0000
0000
0000
0000
,
0000
0000
0000
0000
,
0000
0000
0000
0000
,
0000
0000
0000
0000
,
1001
0000
0000
0220
0000
0330
0000
0000
0101
0000
0000
2020
3030
0000
2002
0000
,
3003
0000
0100
0010
0100
0001
0000
0000
1000
0100
1000
0000
0001
0010
0100
1000
,
0000
0010
0000
0100
0001
0000
0000
0010
0000
0000
2002
0000
0000
0000
0000
0000
,
0000
0000
0000
0000
,
3003
0000
0000
0000
0001
0000
0000
0000
0110
0000
0000
0000
0100
0001
1000
0010
,
0100
0000
0010
0000
0100
0000
1000
0100
0010
0000
1000
0000
0010
0001
1000
0010
,
0100
0000
0010
0000
0001
0010
0100
0000
0001
0000
1000
0000
0100
1000
0010
0000
,
0100
0000
1000
0000
0001
1000
0010
0000
0100
0000
1000
0000
0100
1000
0010
0000
,
0001
1000
0010
0000
0001
0000
0010
1000
0000
0000
1000
0000
0002
0000
0000
1003
,
0000
0100
1000
0001
0200
0000
0000
0301
0000
1000
0000
0000
0001
1000
0100
0010
,
0000
0001
0000
1000
0001
0000
0100
1000
0001
0000
0100
0000
0010
0000
0000
0100
,
0000
0001
0010
0100
1000
0000
0001
0100
0000
2000
0000
0000
3010
0000
0001
0100
,
0000
0010
1000
0000
0001
0000
0100
0000
0010
0000
0000
0000
1002
0000
0000
0000
,
0103
0000
0000
0000
0001
0000
0000
0000
0100
0000
0001
0100
0001
0000
0000
0000
,
0100
1000
0010
0001
0100
0010
2000
0000
,
0001
0000
3100
0001
0010
1000
0001
0010
,
0100
0000
0010
0100
1000
0010
0002
0000
,
0100
0000
0013
0000
0001
1000
0100
0001
,
1000
0100
0001
0100
1000
0010
0002
0000
,
0100
0000
0013
1000
0100
0001
1000
0100
,
0001
0000
1000
0000
0100
0000
0001
0000
0010
0000
1000
0000
0100
0000
0000
0110
,
0000
0000
0000
0000
0001
0000
0000
0101
0000
0000
0000
0000
1001
0000
0010
1000
,
0000
0001
0010
0100
1000
0000
0001
0100
0000
0010
1000
0000
0020
0000
0030
0020
,
0000
0030
0200
0000
0300
0200
0000
0300
2002
0000
0000
0000
0000
0000
0000
0000
,
0000
0000
0000
0000
,
0000
0000
0000
0000
0000
0000
0000
0000
3003
0000
0000
0000
1001
0000
0000
0001
,
0000
0000
1000
0000
0001
0000
0000
0100
0000
0000
0010
0000
0100
0000
0000
1000
,
0000
0000
0001
0000
0100
0000
0000
0010
0000
0000
0100
0000
1000
0000
0000
0001
,
0000
0000
0100
0000
0001
0000
0000
1000
0000
0000
0100
0000
0001
0000
0000
0100
,
0000
0000
1000
0000
0001
0000
0000
0100
0000
0000
0010
0000
1001
0000
0000
0100
,
0000
0000
0001
0010
0100
0000
0000
1000
0000
0000
0001
0100
1000
0000
0000
0001
,
0000
0000
1000
0001
0100
0000
0000
0101
0000
0000
0001
0000
1000
0000
0001
0100
,
0001
0000
1000
0001
0100
0000
0001
0100
1000
0001
0100
0010
0200
0000
0000
0000
,
0000
0000
0000
0000
0300
0000
1001
0100
,
0010
1000
0001
0010
0100
0000
0001
0000
1000
0010
0001
0100
1000
0000
0010
0000
,
0100
0010
1000
0001
0100
0000
0010
0001
0000
1000
0001
0000
1000
0000
0100
0000
,
0010
0000
0001
1000
0001
0010
0100
1000
0010
0100
0001
1000
0010
0001
0100
0001
,
1000
0010
0100
0001
1000
0100
0001
1000
0001
0100
0010
0100
0010
0000
1000
0000
,
0001
0100
1000
0001
0100
0000
0001
0000
0100
0010
1000
0100
0001
0000
1000
0000
,
0010
0100
1000
0000
0100
0000
1000
0010
0001
0000
0100
1000
0001
0000
0010
1000
,
0001
0000
0010
0000
0100
0000
1000
0100
0010
0000
1000
0001
0100
1000
0010
0100
,
0001
1000
0010
0001
0100
0010
0001
1000
0100
0001
1000
0100
0010
0000
0100
0000
,
0001
0010
0100
1000
0001
0000
0010
0000
0100
0010
1000
0100
0001
0000
0100
0000
,
0001
0010
1000
0100
0010
0000
1000
0000
0100
0000
1000
0000
0010
0000
0100
0000
,
0010
1000
0100
0000
0010
0100
1000
0001
0100
1000
0010
0001
0100
0010
1000
0001
,
0100
1000
0010
0100
0001
1000
0100
0001
0010
1000
0100
0010
0001
0000
0100
0000
,
0001
0010
1000
0100
0001
0000
0010
0000
0100
1000
0010
0001
0100
0000
0010
1000
,
0001
0100
1000
0001
0100
0000
1000
0000
0100
0010
0000
0000
0010
0000
1000
0000
,
0010
0100
1000
0010
0001
0000
1000
0001
0000
0000
0010
0000
0001
0100
1000
0100
,
0010
0001
1000
0100
0010
0001
0100
1000
0010
0000
2002
0000
0000
0000
0000
0000
,
0000
0000
0000
0000
,
3003
0000
0000
0000
0220
0330
0000
0000
2002
3003
0000
0000
0100
0001
1000
0010
,
0100
0000
0010
0000
0100
0000
1000
0100
0010
0000
1000
0000
0010
0001
1000
0010
,
0100
0000
0010
0000
0001
0010
0100
0000
0001
0000
1000
0000
0100
1000
0010
0000
,
0100
0000
1000
0000
0001
1000
0010
0000
0100
0000
1000
0002
0000
0000
0003
0000
,
1000
0001
0010
0200
0000
0000
0300
0000
1000
0001
0100
0010
0000
1000
0001
0100
,
0010
0001
0100
1000
0001
0010
0100
1000
0001
0100
0010
2000
0000
0000
0000
0000
,
0000
0000
0000
0002
,
0000
0000
0000
0000
,
0000
0000
0000
0000
,
3003
0000
0000
0000
;
