#VERSION:0.83;
#TITLE:可愛くてごめん;
#ARTIST:HoneyWorks feat. ちゅーたん(CV:早見沙織);
#TITLETRANSLIT:Kawaikute Gomen;
#ARTISTTRANSLIT:HoneyWorks;
#GENRE:ポップス;
#MUSIC:Kawaikute Gomen.ogg;
#BANNER:Kawaikute Gomen.png;
#BACKGROUND:Kawaikute Gomen-bg.png;
#CDTITLE:./CDTitles/Synchronica REZONATED.png;
#SAMPLESTART:43.502;
#SAMPLELENGTH:14.996;
#SELECTABLE:YES;
#OFFSET:0.000;
#BPMS:0.000=160.000;
#STOPS:;
#DISPLAYBPM:160.000:880.000;
#FGCHANGES:;

//--------------- dance-single - ----------------
#NOTEDATA:;
#STEPSTYPE:dance-single;
#DESCRIPTION:;
#DIFFICULTY:Beginner;
#METER:9;
#RADARVALUES:0,0,0,0,0;
#NOTES:
0000
0000
0000
0000
,
0000
0000
0000
0000
,
0000
0000
0000
0000
,
0000
0000
0000
0000
,
0000
0000
0000
0000
,
0001
0000
1000
0000
,
0001
0000
1000
0000
,
0010
0000
0100
0000
,
0220
0000
0000
0000
0000
0000
0000
0330
,
0001
1000
0001
0000
1000
0001
1000
0000
,
0010
0100
0010
0000
0100
0010
0100
0000
,
0001
0010
0001
0000
1000
0100
1000
0000
,
0010
1000
0010
0000
0100
0001
0100
0000
,
0001
0010
0100
0000
0001
0010
0100
0000
,
1000
0010
0100
0000
1000
0010
0100
0000
,
0001
1000
0001
1000
0001
1000
0001
1000
,
0010
0100
0010
0100
0010
0100
0010
0000
,
1001
0000
1000
0100
0010
0001
1000
0000
,
1001
0000
0001
0100
0010
1000
0001
0000
,
1001
0000
0000
0010
1001
0000
0000
0010
,
1001
0000
0010
0000
0001
0100
1000
0100
,
0001
0000
0100
0000
0001
0100
0001
0000
,
1000
0000
0100
0000
1000
0100
1000
0000
,
0001
0000
0010
0000
0001
0010
0001
0000
,
1000
0000
0010
0000
1000
0010
1000
0000
,
0001
1000
1001
0000
,
0001
1000
1001
0000
,
0010
0100
0010
0100
,
0220
0000
0000
0330
,
1000
0100
1000
0000
0100
0000
0010
0000
,
0001
0010
0001
0000
0010
0000
0001
0000
,
0100
0001
0100
0000
0001
0000
1000
0000
,
0010
1000
0010
0000
1000
0000
0010
0000
,
1001
0000
1000
0001
1000
0000
0010
0000
,
0100
0000
0010
0100
0010
0000
1000
0000
,
1000
0000
0001
0000
0001
0000
1000
0001
,
1000
0001
1000
0001
1000
0000
0001
0000
,
0001
0000
1000
0001
1000
0000
0010
0000
,
0010
1000
0100
0001
0100
0000
0001
0000
,
0001
1000
0010
0000
0010
0001
0010
0000
,
0100
0001
0100
0010
1000
0100
1000
0000
,
0001
0000
0001
1000
0100
0000
0100
0000
,
0010
0001
0010
0100
1000
0000
0001
0100
,
0001
0000
1000
0000
1000
0000
0001
0100
,
0001
0000
1000
0000
0001
0000
1000
0100
,
1000
0001
1000
0000
,
0010
0000
1000
0010
1000
0000
0000
0000
,
0010
0001
0010
0000
0001
0000
1000
0010
,
1000
0000
0001
0010
0001
0000
0001
0000
,
0001
1000
0010
0000
1000
0001
0010
0000
,
0001
1000
0010
0000
1000
0001
0010
0000
,
0001
1000
0100
0000
1000
0001
0100
0000
,
0001
1000
0100
0000
1000
0001
0100
0000
,
0010
0001
1000
0100
,
0110
1001
0110
1001
,
0001
0010
0001
0000
0100
1000
0100
0000
,
0001
1000
0001
1000
0010
0100
0010
0000
,
1001
0110
1001
0000
,
0110
1001
0110
0000
,
0010
0000
0100
0000
,
0010
1000
0110
0000
,
1000
0010
1000
0000
0100
0000
0010
0000
,
0001
0010
0001
0000
0100
0000
0010
0000
,
1000
0001
1000
0000
0110
0000
0000
0000
,
1000
0100
0010
0000
;

//--------------- dance-single - ----------------
#NOTEDATA:;
#STEPSTYPE:dance-single;
#DESCRIPTION:;
#DIFFICULTY:Easy;
#METER:12;
#RADARVALUES:0,0,0,0,0;
#NOTES:
0000
0000
0000
0000
,
0000
0000
0000
0000
,
0000
0000
0000
0000
,
0000
0000
0000
0000
,
0000
0000
0000
0000
,
0001
0000
1000
0001
,
1000
0010
0100
0220
,
0000
0000
0000
0330
0001
0000
1000
0000
0001
0000
0000
0000
1000
0000
0001
0000
,
1000
0100
0010
0100
0010
0001
0100
0010
,
0100
0000
0001
0010
0001
0100
1000
0100
,
1000
0000
0010
1000
0010
0001
0100
0001
,
0100
0000
0001
0010
0100
1000
0001
0010
,
0100
0001
1000
0010
0100
0001
1000
0010
,
0100
0000
0001
1000
0001
1000
0001
1000
,
0001
1000
0010
0100
0010
0100
0010
0100
,
0010
0000
1001
0000
1000
0100
0010
0001
,
1000
0000
1001
0000
0001
0100
0010
1000
,
0001
0000
1001
0100
0000
0110
1001
0000
,
0000
0110
1000
0001
0010
0100
1001
0110
,
1001
0110
1001
0000
1000
0000
0010
0100
,
0010
0000
1000
0001
0010
0100
1000
0001
,
0010
0000
0100
0010
1000
0001
0010
0000
,
0100
1000
0001
0010
0100
0010
1000
0000
,
0001
0010
0100
1000
0001
0010
0100
0000
,
0010
1000
0000
0010
0100
0000
1000
0000
,
0001
0010
0100
1000
0001
0000
0010
0100
,
0000
1000
0001
0010
0100
0000
0010
1000
,
0001
0010
0100
1000
0001
0010
0100
0010
,
0220
0000
0000
0330
,
1001
0100
1000
0001
0010
0100
0001
0010
,
0110
0000
1010
0000
0110
0000
1000
0100
,
0001
1000
0001
0010
0100
0000
1000
0001
,
0010
0100
1000
0001
,
0110
0000
1000
0001
0010
1000
0001
0010
,
0100
1000
0001
0010
0100
0000
1000
0001
,
0010
0100
1000
0001
0010
0100
0001
0010
,
0100
1000
1001
0100
,
0110
0000
1000
0001
0010
0100
1000
0001
,
0010
0100
0001
0010
0100
0000
1000
0001
,
0010
0100
0001
0010
0100
1000
0001
0010
,
0100
0010
0001
0110
,
0100
0000
1000
0001
0010
0100
1000
0001
,
0010
0100
1000
0001
0010
0000
0100
0001
,
0010
0100
1000
0000
0001
0010
0100
1000
,
0001
0110
1001
0000
,
1000
0000
0100
0000
,
0001
0010
0100
0000
,
1001
0100
1000
0001
0010
0000
0100
1000
,
0001
0000
0010
0000
0110
0000
1000
0001
,
0010
0100
0000
1000
0001
0000
0100
0000
,
2000
3002
0203
0320
,
2030
0000
3001
0010
0100
1000
0001
0010
,
0100
1000
0001
0010
0100
0000
0001
1000
,
0001
0010
0100
0000
1000
0001
0010
0100
,
0010
0100
1000
0001
,
0110
0000
1000
0000
,
0001
0100
0010
0000
,
1001
0000
0100
1000
0001
0000
0010
0100
,
0001
0000
0010
0000
0100
0000
1000
0001
,
0010
0100
1000
0000
0001
0010
0100
0000
,
0010
0100
1000
0001
,
0110
0000
1000
0001
0010
0100
0001
0010
,
0100
0110
1010
0010
,
0110
0000
0000
0001
1000
0001
0010
0100
,
0110
1001
0110
0000
;

//--------------- dance-single - ----------------
#NOTEDATA:;
#STEPSTYPE:dance-single;
#DESCRIPTION:;
#DIFFICULTY:Medium;
#METER:15;
#RADARVALUES:0,0,0,0,0;
#NOTES:
0000
0000
0000
0000
,
0000
0000
0000
0000
,
0000
0000
0000
0000
,
0000
0000
0000
0000
,
0000
0000
0000
0000
,
0010
1000
0100
0000
0010
0001
0100
0000
,
0010
1000
0100
0000
0010
0001
0100
0000
,
0010
1000
0001
0100
0010
1000
0001
0100
,
0001
0000
0100
0000
0010
0000
1000
0000
0001
0100
0010
1000
0001
0100
0010
1000
,
0010
0100
0001
0100
1000
0100
1000
0100
,
0001
0100
1000
0100
0001
0100
1000
0100
,
0001
0010
0001
0010
1000
0010
1000
0010
,
0001
0010
1000
0010
0001
0010
1000
0010
,
0001
0100
0001
0100
0010
1000
0010
1000
,
0001
0100
0010
1000
0001
0100
0010
1000
,
0001
0010
0001
0010
0100
1000
0100
1000
,
0001
0000
0010
0000
0100
0000
1000
0000
0001
0010
0001
0000
1000
0000
0000
0000
,
1000
0100
1000
0000
0001
0000
0100
0000
0001
0000
0100
0000
0010
0000
1000
0000
,
0001
1000
0001
0000
1000
0000
0010
0000
1000
0000
0010
0000
0100
0000
0010
0000
,
1000
0010
1000
0000
0001
0000
0010
0000
0001
0000
0010
0000
0100
0000
0010
0000
,
0001
1000
0001
0000
1000
0000
0001
0000
0100
0000
0001
0000
0010
0000
0000
0000
,
0001
0010
0001
0000
1000
0000
0100
0000
1000
0100
1000
0000
0001
0000
0010
0000
,
0001
0100
0001
0000
1000
0000
0010
0000
1000
0010
1000
0000
0001
0000
0100
0000
,
0001
0000
0010
0000
0100
1000
0100
0000
1000
0000
0001
0000
0100
0001
0100
0000
,
0001
1000
0010
0100
0010
0010
0010
0000
,
0001
0010
1000
0100
0001
0010
1000
0100
,
0001
0010
1000
0100
0000
0010
0100
0010
,
0010
0001
0100
1000
0010
0001
0100
1000
,
0010
0000
0000
0000
0100
0000
1000
0000
0001
0010
0100
0000
0010
0000
0100
0000
,
0110
1000
0100
0001
0010
0100
0010
0100
,
0010
0001
0100
1000
0010
0100
0010
0100
,
0110
0000
0000
0000
0100
0001
0100
0000
0110
0000
0000
0000
0100
1000
0100
0000
,
0110
0010
0110
0000
0110
0100
0110
0000
,
0110
0001
0010
1000
0100
0010
0100
0010
,
0100
1000
0010
0001
0100
0010
0100
0010
,
0110
0000
0000
0000
0010
1000
0010
0000
0110
0000
0000
0000
0010
0001
0010
0000
,
0110
0100
0110
0000
0110
0010
0110
0000
,
0110
1000
0100
0001
0010
0100
0010
0100
,
0010
0001
0100
1000
0010
0100
0010
0100
,
0110
0000
0000
0000
0100
0001
0100
0000
0110
0000
0000
0000
0100
1000
0100
0000
,
0110
0010
0110
0000
0110
0100
0110
0000
,
0110
0001
0010
1000
0100
0010
0100
0010
,
0100
1000
0010
0001
0100
0010
0100
0010
,
0110
0000
0000
0000
0010
1000
0010
0000
0110
0000
0000
0000
0010
0001
0010
0000
,
0110
0100
0110
0000
0110
0010
0110
0000
,
1000
0000
0000
0100
0000
0000
0001
0000
0100
0000
0000
1000
0000
0000
0001
0000
,
0010
0100
0110
0000
,
0001
0010
0001
0000
1000
0000
0100
0000
0010
0000
0001
0000
0010
0000
0100
0000
,
1000
0001
1000
0000
0010
0000
0100
0000
0001
1000
0010
0000
0100
0000
0010
0000
,
1000
0001
0010
0000
0100
0000
1000
0000
0001
0000
0010
0000
0100
0000
0010
0000
,
0001
0010
0001
0000
1000
0100
1000
0000
0100
0010
0100
0000
0010
0001
0010
0000
,
0001
0000
0100
0010
1000
0000
0001
0000
1000
0010
0100
0000
0001
0000
0000
0000
,
1000
0000
0100
0010
0001
0000
1000
0000
0001
0010
0100
0010
0001
0000
0000
0000
,
0010
0000
0001
1000
0010
0000
0100
0001
1000
0000
0010
0100
0001
0000
1000
0000
,
0010
0000
0100
0000
0001
0000
1000
0000
0010
0100
0001
1000
0010
0100
0001
1000
,
0001
0000
1000
0000
0100
0000
0010
0000
1001
0000
0010
0000
0000
0010
0000
0000
,
1000
0001
0010
0100
1001
0000
0000
0000
,
1000
0010
0101
0000
0001
0010
1100
0000
,
0100
0000
0010
0000
0001
0010
0100
1000
0001
0000
0010
0000
0000
0010
0000
0000
,
1000
0000
0100
0000
0001
0100
0000
0100
2000
0000
0001
0000
0000
3010
0000
0000
,
0001
0000
0100
0000
1000
0100
0000
0100
0002
0000
1000
0000
0000
0013
0000
0000
,
1000
0001
0100
0010
1000
0000
0010
0000
1000
0100
0010
0001
1000
0000
0100
0000
,
1000
0010
0001
1000
0100
0000
0010
0000
1000
0000
0001
1000
0100
0010
0100
0000
,
1000
0000
0100
0000
0001
0010
0100
0000
1000
0000
0001
0000
0100
0010
1000
0000
,
0001
0110
1001
0000
;

//--------------- dance-single - ----------------
#NOTEDATA:;
#STEPSTYPE:dance-single;
#DESCRIPTION:;
#DIFFICULTY:Hard;
#METER:18;
#RADARVALUES:0,0,0,0,0;
#NOTES:
0000
0000
0000
0000
,
0000
0000
0000
0000
,
0000
0000
0000
0000
,
0000
0000
0000
0000
,
0000
0000
0000
0000
,
0001
1000
0001
0100
1000
0001
1000
0100
,
1010
0000
0101
0000
1002
0000
0103
0010
,
0100
0000
0000
0010
1000
0100
0010
0001
,
0101
1010
0110
1001
,
0001
0000
0010
1000
0100
0000
0001
0000
1000
0000
0010
0001
0100
0000
1000
0000
,
0001
0000
0010
0000
0100
0001
1000
0000
0010
0000
1000
0000
0110
0000
0000
0000
,
1000
0000
0100
1000
0010
0000
0100
1000
0001
0000
0100
0001
0010
0000
0100
0000
,
1000
0001
0100
0000
0010
1000
0001
0000
0100
0000
1000
0000
0110
0000
0000
0000
,
0010
0000
1000
0100
0001
0000
1000
0000
0010
0000
0001
0100
1000
0000
0100
0000
,
0010
0000
1000
0010
0001
0000
0010
0000
0100
0000
0001
0100
1000
0000
0001
0000
,
0100
0000
1000
0010
0001
0000
0010
0000
0100
0000
0001
0010
1000
0000
0100
0000
,
0001
1000
0010
0001
0100
0010
1000
0100
0001
0000
1000
0001
0100
0000
0010
1000
,
0001
0100
1000
0001
0200
0000
0010
0000
,
0320
0000
0000
0000
0031
0000
1000
0100
0001
0010
0100
0000
1000
0010
0001
0000
,
0100
0000
0010
0000
0001
0100
0010
0000
2000
0000
0000
0000
0100
0000
0000
0000
,
3100
0000
0010
0001
0100
1000
0001
0000
0100
0001
1000
0100
0010
0000
0001
0000
,
1000
0000
0100
0001
0010
1000
0000
0001
0100
0000
0001
0100
1000
0000
0001
0000
,
1100
0100
0101
0100
1100
0100
0101
0100
,
0001
1000
0010
0000
0100
0000
1000
0000
0100
0001
0010
1000
0001
0000
0010
0000
,
1000
0100
0010
0000
0100
0000
0001
0010
0100
1000
0010
0000
1000
0000
0100
1000
,
0001
0100
0010
0100
1000
0000
0001
0000
1000
0000
0010
1000
0001
0100
0010
0100
,
1000
0001
0010
1000
0001
0000
0100
0010
0001
0000
0010
0000
1000
0100
0010
1000
,
0001
0100
0001
0010
1000
0100
1000
0000
,
0001
0010
0100
1000
0001
0100
0010
1000
0100
0001
1000
0100
0001
0000
0000
0000
,
1100
0000
0001
0000
1000
0000
0100
0001
0010
0000
0100
0010
1000
0000
0001
0000
,
0101
0000
0100
0000
1100
0000
0100
0000
0101
0000
0100
0000
0001
0000
0010
1000
,
0100
0001
0100
0000
1000
0000
0100
1000
0010
0000
0001
1000
0010
0000
0100
0000
,
1010
0000
0010
0000
0011
0000
0010
0000
1010
0000
0010
0000
1000
0100
0010
0001
,
0100
0000
1000
0100
0001
0010
0100
0000
1000
0000
0100
1000
0001
0000
0010
0000
,
0101
0000
0100
0000
1100
0000
0100
0000
0101
0000
0100
0000
1000
0000
0010
1000
,
0100
0000
0001
0010
1000
0000
0100
1000
0001
0000
0010
0001
0100
0000
1000
0000
,
1100
0100
0101
0100
1100
0100
0110
0100
,
1001
0000
0100
0010
1000
0001
0010
1000
0100
0000
0010
0100
1000
0000
0001
0000
,
0101
0000
0100
0000
1100
0000
0100
0000
0101
0000
0100
1000
0001
1000
0010
0000
,
0100
1000
0100
0001
0010
0000
0100
0000
1000
0010
0001
1000
0100
0000
0001
0000
,
0011
0000
0010
0000
1010
0000
0010
0000
0011
0000
0010
0000
1000
0100
0010
0001
,
0100
0000
1000
0000
0010
0001
1000
0000
0100
1000
0001
0010
0100
0001
1000
0000
,
1010
0000
0010
0000
1010
0000
0010
0000
1010
0000
0010
0000
0001
0010
0100
0000
,
1000
0010
0001
0100
1000
0000
0100
0010
0001
0000
1000
0000
0100
0000
0010
0000
,
0011
0000
0001
0000
0101
0000
0001
0000
0011
0000
0000
0000
1000
0100
0001
1000
,
0200
0000
0000
0310
0100
0000
0001
0010
,
0110
1001
0220
0330
,
0101
0000
1000
0100
0001
0000
0010
1000
0100
0000
1000
0010
0001
0000
0100
0000
,
1010
0000
0100
0000
0101
0000
0100
0000
1010
0000
0100
0000
1000
0001
0010
0001
,
0100
0000
1000
0000
0001
1000
0010
0001
0100
0010
1000
0010
0001
0000
0010
0000
,
1100
0000
0100
0000
0011
0000
0010
0000
1100
0000
0100
0000
1000
0100
0010
0001
,
0010
0000
1000
0100
0001
0000
0010
0100
1000
0000
0100
0010
0001
0000
0100
0000
,
0110
0000
0110
0000
1001
0000
1001
0000
0110
0000
0110
0000
0001
1000
0010
0000
,
1000
0000
0001
0100
1000
0001
0010
0100
0001
0000
0100
0010
1000
0000
0100
0000
,
0110
0110
1001
1001
0110
0110
0100
0001
,
1000
0000
0000
0100
0010
0000
0001
1000
,
0110
1001
0110
0000
,
1100
0000
0001
0100
1000
0000
0010
0000
0100
1000
0001
1000
0010
0000
0100
0000
,
1100
0000
0100
0000
1001
0000
0100
0000
0011
0000
1000
0000
0001
0100
1000
0001
,
0010
1000
0000
0001
0100
0000
0001
0000
1000
0100
0001
1000
0100
0000
0010
0000
,
1010
0000
0100
0000
1001
0000
0100
0000
0101
0000
0001
0100
1000
0001
0100
1000
,
0010
1000
0100
0001
0100
0000
0010
1000
0001
0100
1000
0001
0010
0000
0100
0000
,
0101
0000
1010
0000
1010
0000
1010
0000
1001
0000
1000
0010
0001
1000
0010
0001
,
0100
1000
0001
0010
1000
0001
0100
1000
0010
0100
0001
0010
1000
0001
0100
0000
,
1100
0100
0101
0100
2002
0000
3003
0000
;

//--------------- dance-single - ----------------
#NOTEDATA:;
#STEPSTYPE:dance-single;
#DESCRIPTION:;
#DIFFICULTY:Challenge;
#METER:19;
#RADARVALUES:0,0,0,0,0;
#BPMS:0.000=320.000
,56.000=40.000
,57.000=320.000
,62.000=640.000
,68.000=320.000
,196.000=160.000
,208.000=880.000
,223.000=320.000
,364.000=888.000
,375.000=320.000
,439.000=80.000
,443.000=320.000
,560.000=80.000
,571.250=70.000
,571.500=65.000
,571.750=60.000
,572.000=55.000
,572.250=50.000
,572.500=40.000
,572.750=20.100
,572.875=9.370
,573.000=80.000
;
#STOPS:223.000=0.296
,499.000=0.315
,499.333=0.244
,711.000=0.316
,711.333=0.253
;
#DISPLAYBPM:160.000:320.000;
#NOTES:
0000
0000
0000
0000
,
0000
0000
0000
0000
,
0000
0000
0000
0000
,
0000
0000
0000
0000
,
0000
0000
0000
0000
,
0000
0000
0000
0000
,
0000
0000
0000
0000
,
0000
0000
0000
0000
,
0000
0000
0000
0000
,
0000
0000
0000
0000
,
0001
1000
0001
0000
0110
0000
1000
0000
,
0100
0010
0100
0000
0110
0000
0001
1000
,
0011
1010
0011
1010
,
0011
1010
0011
1010
,
0011
0000
0000
0000
0000
0000
0000
0000
0000
1000
0000
0000
0001
0000
0000
0100
0000
0000
0010
0000
0000
0100
0000
0000
1000
0000
0000
0000
0000
0000
0000
0000
0100
0000
0000
0000
0000
0000
0000
0000
0001
0000
0000
0000
0000
0000
0000
0000
1000
0000
0000
0000
0000
0000
0000
0000
0000
0000
0000
0000
0010
0000
0000
0000
0000
0000
0000
0000
0000
0000
0000
0000
0001
0000
0000
0000
0000
0000
0000
0000
1000
0000
0000
0000
0000
0000
0000
0000
0001
0000
0000
0000
0000
0000
0000
0000
,
0100
0000
0000
0010
0000
0000
0001
0000
1000
0000
0001
0000
0100
0000
0000
0000
0000
0000
0000
0000
0000
0000
0000
0000
,
0110
0000
0000
0000
,
0001
0000
0010
0000
0100
0000
1000
0000
0000
0001
0000
0000
0010
0000
0000
0100
0000
0000
1000
0000
0000
0001
0000
0000
,
0010
0100
0010
0001
0010
0100
1000
0000
,
0001
0000
0100
0000
0010
0000
1000
0000
0000
0001
0000
0000
0100
0000
0000
0010
0000
0000
1000
0000
0000
0001
0000
0000
,
0100
0010
0100
0001
0100
0010
1000
0000
,
0010
1000
0010
1000
0001
0100
0001
0100
,
0001
0010
0100
1000
0001
1000
0100
0000
,
1000
0100
1000
0000
0001
0100
0001
0000
,
0100
0000
0001
0000
0100
0000
0001
0000
0000
1000
0000
0000
0100
0000
1000
0000
0100
0000
1000
0000
0000
0001
0000
0000
,
0010
0001
1000
0100
1000
0001
0010
0100
,
0010
0000
0000
0001
0000
0000
1000
0000
0000
0010
0000
0000
0100
0000
0001
0000
0100
0000
0001
0000
0000
0000
0000
0000
,
1000
0100
0010
0100
1000
0001
0010
0100
,
0010
0000
0000
0001
0000
0000
1000
0000
0000
0010
0000
0000
0100
0000
0001
0000
0100
0000
0001
0000
0000
0000
0000
0000
,
1000
0100
0010
0000
0001
0100
0001
0000
,
1000
0010
0100
0000
0010
1000
0010
0000
,
1000
0010
0100
0001
1000
0100
0010
0001
,
1000
0000
0000
0010
0000
0000
1000
0000
0000
0100
0000
0000
1000
0000
0100
0000
1000
0000
0100
0000
1000
0000
0001
0000
,
1000
0010
0100
0001
0100
0001
1000
0010
,
1000
0001
0010
0100
0010
0001
1000
0000
,
0010
1000
0001
0010
0100
1000
0001
0100
,
0010
0100
0001
1000
0100
1000
0001
0000
,
1000
0100
1000
0001
0100
0010
1000
0001
,
0010
0100
0010
0001
1000
0010
0100
0001
,
1000
0010
0100
0000
0001
0010
0100
0000
,
1000
0001
0100
0000
0010
1000
0001
0000
,
1100
0010
0001
1000
0001
1000
0010
0100
,
0010
1000
0001
1000
0010
0100
0010
0001
,
0110
0110
1100
0110
,
0011
0000
0001
0010
0100
0000
1000
0001
,
0010
1000
0010
1000
0010
0100
0001
1000
,
0100
0010
0001
0100
0001
0010
0100
1000
,
0100
0010
0100
0010
0001
0100
0001
0010
,
0100
1000
0010
0100
0010
0100
0001
1010
,
0100
0001
1000
0100
0010
1000
0100
0001
0010
1000
0100
0001
0010
0100
1000
0010
,
0001
1000
0100
0001
0010
1000
0100
0010
0001
1000
0010
0100
1000
0100
0001
0010
,
0100
0000
0000
1000
0000
0000
0010
0000
0000
0100
0000
0000
0001
0000
0000
0000
0010
0000
0000
0000
0100
0000
0000
0000
1000
0000
0000
0000
0100
0000
0000
0000
0010
0000
0000
0000
0001
0000
0000
0000
0000
0000
0000
0000
0000
0000
0000
0000
,
2002
0000
0000
0000
,
0000
0000
0000
0000
,
0000
0000
0000
0000
,
0000
0000
0000
0000
0000
3003
0000
0000
,
0001
0000
1000
0000
0100
0000
1000
0000
0000
0010
0000
0000
0100
0000
0000
0010
0000
0000
0100
0000
0000
0001
0000
0000
,
0100
0000
0001
0000
0010
0000
0100
0000
0000
0010
0000
0000
0100
0000
0000
1000
0000
0000
0010
0000
0000
1000
0000
0000
,
0010
0000
1000
0000
0100
0000
1000
0000
0000
0100
0000
0000
1000
0000
0000
0001
0000
0000
0100
0000
0000
0001
0000
0000
,
0100
0000
0001
0000
1000
0000
0100
0000
0000
1000
0000
0000
0010
0000
0000
0100
0000
0000
0001
0000
0000
1000
0000
0000
,
0100
0000
0010
0000
0001
0000
1000
0000
0000
0100
0000
0000
1000
0000
0000
0001
0000
0000
0100
0000
0000
0010
0000
0000
,
1000
0000
0001
0000
1000
0000
0010
0000
0000
0100
0000
0000
0010
0000
0000
0100
0000
0000
0001
0000
0000
1000
0000
0000
,
0001
0000
0100
0000
0010
0000
1000
0000
0000
0010
0000
0000
1000
0000
0100
0000
0010
0000
0001
0000
0000
0010
0000
0000
,
0001
0000
1000
0000
0001
0000
0100
0000
0000
0010
0000
0000
1000
0000
0001
0000
1000
0000
0100
0000
0000
1000
0000
0000
,
0001
0000
0100
0000
0001
0000
1000
0000
0000
0010
0000
0000
0100
0000
0000
0001
0000
0000
0010
0000
0000
0100
0000
0000
,
1000
0000
0001
0000
0010
0000
0100
0000
0000
1000
0000
0000
0010
0000
0000
0100
0000
0000
0001
0000
0000
0100
0000
0000
,
0010
0000
1000
0000
0001
0000
0010
0000
0000
0100
0000
0000
1000
0000
0000
0001
0000
0000
0100
0000
0000
0010
0000
0000
,
1000
0000
0001
0000
0010
0000
0100
0000
0000
1000
0000
0000
0010
0000
0000
1000
0000
0000
0100
0000
0000
0010
0000
0000
,
0100
0000
1000
0000
0001
0000
0100
0000
0000
0001
0000
0000
1000
0000
0100
0000
1000
0000
0100
0000
0000
0010
0000
0000
,
0001
0000
0010
0000
0001
0000
0100
0000
0000
0010
0000
0000
1000
0000
0100
0000
1000
0000
0001
0000
0000
0010
0000
0000
,
0100
0000
1000
0000
0010
0000
1000
0000
0000
0001
0000
0000
0100
0000
0001
0000
0100
0000
0010
0000
0000
1000
0000
0000
,
0010
0000
0100
0000
0001
0000
1000
0000
0000
0100
0000
0000
0010
0000
0001
0000
1000
0000
0100
0000
0000
0010
0000
0000
,
0001
0000
1000
0000
0100
0000
1000
0000
0000
0010
0000
0000
0100
0000
0000
0010
0000
0000
0100
0000
0000
0001
0000
0000
,
0100
0000
0001
0000
0010
0000
0100
0000
0000
0010
0000
0000
0100
0000
0000
1000
0000
0000
0010
0000
0000
1000
0000
0000
,
0010
0000
1000
0000
0100
0000
1000
0000
0000
0100
0000
0000
1000
0000
0000
0001
0000
0000
0100
0000
0000
0001
0000
0000
,
0100
0000
0001
0000
1000
0000
0100
0000
0000
1000
0000
0000
0010
0000
0000
0100
0000
0000
0001
0000
0000
1000
0000
0000
,
0100
0000
0010
0000
0001
0000
1000
0000
0000
0100
0000
0000
1000
0000
0000
0001
0000
0000
0100
0000
0000
0010
0000
0000
,
1000
0000
0001
0000
1000
0000
0010
0000
0000
0100
0000
0000
0010
0000
0000
0100
0000
0000
0001
0000
0000
1000
0000
0000
,
0001
0000
0100
0000
0010
0000
1000
0000
0000
0010
0000
0000
1000
0000
0100
0000
0010
0000
0001
0000
0000
0010
0000
0000
,
0001
0000
1000
0000
0001
0000
0100
0000
0000
0010
0000
0000
1000
0000
0001
0000
1000
0000
0100
0000
0000
1000
0000
0000
,
0001
0000
0100
0000
0001
0000
1000
0000
0000
0010
0000
0000
0100
0000
0000
0001
0000
0000
0010
0000
0000
0100
0000
0000
,
1000
0000
0001
0000
0010
0000
0100
0000
0000
1000
0000
0000
0010
0000
0000
0100
0000
0000
0001
0000
0000
0100
0000
0000
,
0010
0000
1000
0000
0001
0000
0010
0000
0000
0100
0000
0000
1000
0000
0000
0001
0000
0000
0100
0000
0000
0010
0000
0000
,
1000
0000
0001
0000
0010
0000
0100
0000
0000
1000
0000
0000
0010
0000
0000
1000
0000
0000
0100
0000
0000
0010
0000
0000
,
0100
0000
1000
0000
0001
0000
0100
0000
0000
0001
0000
0000
1000
0000
0100
0000
1000
0000
0100
0000
0000
0010
0000
0000
,
0001
0000
0010
0000
0001
0000
0100
0000
0000
0010
0000
0000
1000
0000
0100
0000
1000
0000
0001
0000
0000
0010
0000
0000
,
0100
0000
1000
0000
0010
0000
1000
0000
0000
0001
0000
0000
0100
0000
0001
0000
0100
0000
0010
0000
0000
1000
0000
0000
,
0010
0000
0100
0000
0001
0000
1000
0000
0000
0100
0000
0000
0010
0000
0001
0000
1000
0000
0100
0000
0000
0010
0000
0000
,
0002
0000
0000
0000
,
2003
0000
0000
0000
,
3020
0000
0200
0300
,
0130
0000
0000
0000
,
0000
0000
0110
0000
,
0000
0000
0000
0000
0000
0000
0000
0000
0000
0001
1000
0100
,
1000
0000
0000
0010
0000
0000
0100
0000
0000
0010
0000
0000
0100
0000
0000
0001
0000
0000
0100
0000
0001
0000
0010
0000
,
0100
0000
0000
0010
0000
0000
0100
0000
0000
1000
0000
0000
0010
0000
0000
1000
0000
0000
0010
0000
1000
0000
0100
0000
,
1000
0000
0000
0100
0000
0000
1000
0000
0000
0001
0000
0000
0100
0000
0000
0001
0000
0000
0100
0000
0001
0000
1000
0000
,
0100
0000
0000
1000
0000
0000
0010
0000
0000
0100
0000
0000
0001
0000
0000
1000
0000
0000
0100
0000
0010
0000
0001
0000
,
1000
0000
0000
0100
0000
0000
1000
0000
0000
0001
0000
0000
0100
0000
0000
0010
0000
0000
1000
0000
0001
0000
1000
0000
,
0010
0000
0000
0100
0000
0000
0010
0000
0000
0100
0000
0000
0001
0000
0000
1000
0000
0000
0001
0000
0100
0000
0010
0000
,
1000
0000
0000
0010
0000
0000
1000
0000
0100
0000
0010
0000
0001
0000
0000
0010
0000
0000
0001
0000
1000
0000
0001
0000
,
0100
0000
0000
0010
0000
0000
1000
0000
0001
0000
1000
0000
0100
0000
0000
1000
0000
0000
0001
0000
0100
0000
0001
0000
,
1000
0000
0000
0010
0000
0000
0100
0000
0000
0001
0000
0000
0010
0000
0000
0100
0000
0000
1000
0000
0001
0000
0010
0000
,
0100
0000
0000
1000
0000
0000
0010
0000
0000
0100
0000
0000
0001
0000
0000
0100
0000
0000
0010
0000
1000
0000
0001
0000
,
0010
0000
0000
0100
0000
0000
1000
0000
0000
0001
0000
0000
0100
0000
0000
0010
0000
0000
1000
0000
0001
0000
0010
0000
,
0100
0000
0000
1000
0000
0000
0010
0000
0000
1000
0000
0000
0100
0000
0000
0010
0000
0000
0100
0000
1000
0000
0001
0000
,
0100
0000
0000
0001
0000
0000
1000
0000
0100
0000
1000
0000
0100
0000
0000
0010
0000
0000
0001
0000
0010
0000
0001
0000
,
0100
0000
0000
0010
0000
0000
1000
0000
0100
0000
1000
0000
0001
0000
0000
0010
0000
0000
0100
0000
1000
0000
0010
0000
,
1000
0000
0000
0001
0000
0000
0100
0000
0001
0000
0100
0000
0010
0000
0000
1000
0000
0000
0010
0000
0100
0000
0001
0000
,
1000
0000
0000
0100
0000
0000
0010
0000
0001
0000
1000
0000
0100
0000
0000
0010
0000
0000
0001
0000
0000
0000
0000
0000
,
1000
0010
0001
0100
0110
0000
1001
0000
,
1001
1100
1100
1001
,
1001
1100
1100
1001
,
1001
0101
0101
1001
,
1001
0101
0101
1010
,
1010
1100
1100
1010
,
1010
1100
1100
0011
,
0011
0101
0101
0011
,
0011
0101
0101
1001
,
1001
1100
1100
1001
,
1100
1001
1100
1001
,
1001
0101
0101
1001
,
0101
1001
0101
1010
,
1010
1100
1100
1010
,
1100
0000
0000
1010
0000
0000
1100
0000
0000
1001
0110
0000
,
2002
0000
0000
0000
,
3003
0000
0000
0000
;
