
//----- song ID: suri -----//
#TITLE:かわいくなりたいベイビーアイラブユー!;
#ARTIST:アタリメ;
#TITLETRANSLIT:Kawaikunaritai Baby I Love You!;
#ARTISTTRANSLIT:Atarime;
#GENRE:けものフレンズ×NonStopDance -フレンズの歌の音楽-;
#MUSIC:Kawaikunaritai Baby I Love You!.ogg;
#BANNER:Kawaikunaritai Baby I Love You!.png;
#BACKGROUND:Kawaikunaritai Baby I Love You!-bg.png;
#CDTITLE:./CDTitles/NSD A3.png;
#SAMPLESTART:44.130;
#SAMPLELENGTH:15.000;
#SELECTABLE:YES;
#OFFSET:0.000;
#BPMS:0.000=174.000;
#STOPS:;
#BGCHANGES:;
#FGCHANGES:;

//--------------- dance-single - ----------------
#NOTES:
     dance-single:
     :
     Beginner:
     3:
     0,0,0,0,0:
0000
0000
0000
0000
,
0000
0000
0000
0000
,
0000
0000
0000
0000
,
0000
0000
0000
0000
,
0000
0000
0000
0000
,
0000
0000
0000
0000
,
1000
0000
0000
0000
,
0001
0000
0000
0000
,
0100
0000
1000
0000
,
0001
0000
0000
0000
,
0010
0000
0100
0000
,
1000
0000
0000
0000
,
0001
0000
0000
0000
,
1000
0000
0001
0010
,
0100
0000
1000
0000
,
0001
0000
0000
0000
,
0100
0000
0000
0000
,
0010
0000
0100
0000
,
0001
0000
0000
0000
,
1000
0000
0001
0000
,
0100
0000
0000
0000
,
0010
0000
0100
0000
,
0001
0000
0000
0000
,
1000
0000
0000
0000
,
0001
0000
0000
0000
,
0010
0000
0100
0000
,
1000
0000
0000
0000
,
0001
0000
0010
0000
,
0100
0000
0000
0000
,
1000
0000
0001
0000
,
0010
0000
0000
0000
,
1000
0000
0000
0000
,
1001
0000
0100
0000
,
0010
0000
0000
0000
,
0001
0000
0010
0000
,
0100
0000
0000
0000
,
1000
0000
0000
0000
,
0001
0000
0000
0000
,
0100
0000
0010
0000
,
0100
0000
0000
0000
,
1000
0000
0001
0000
,
0100
0000
0000
0000
,
0010
0000
0000
0000
,
1000
0000
0001
0000
,
0100
0000
0000
0000
,
0010
0000
0100
0000
,
1000
0000
0000
0000
,
0001
0000
0100
0000
,
0010
0000
0000
0000
,
1000
0000
0000
0001
,
0000
0000
0010
0000
,
0200
0000
0000
0000
,
1300
0000
0000
0000
,
0010
0000
0001
0010
,
0100
0000
0000
0000
,
1000
0000
0001
0000
,
0010
0000
0000
0000
,
0100
0000
0010
1000
,
0001
0000
0000
0100
,
0000
1000
0000
0000
,
0001
0000
0100
0000
,
1000
0000
0000
0000
,
0001
0000
0000
0000
,
0010
0000
0100
1000
,
0001
0000
0000
0000
,
0010
0000
0100
0000
,
1000
0000
0000
0000
,
0001
0000
0000
0000
0000
0000
0000
1001
;

//--------------- dance-single - ----------------
#NOTES:
     dance-single:
     :
     Easy:
     5:
     0,0,0,0,0:
0000
0000
0000
0000
,
0000
0000
0000
0000
,
0000
0000
0000
0000
,
0000
0000
0000
0000
,
0000
0000
0000
0000
,
0000
0000
0000
0000
,
1000
0000
0000
0000
0001
0010
0000
0100
,
0000
0000
0000
0000
1000
0000
0000
0001
,
0000
0000
0000
0000
0100
1000
0000
0001
,
0000
0000
0000
0000
0010
0100
0000
0010
,
0000
0000
0000
0000
1000
0001
0000
0100
,
0000
0000
0000
0000
0100
0010
0000
1000
,
0000
0000
0000
0000
0001
0010
0000
0000
,
1000
0000
0100
0000
0010
0000
0001
0010
,
0000
0000
0000
0000
1000
0001
0000
0100
,
0000
0000
0000
0000
0010
0100
0000
1000
,
0000
0000
0000
0000
0001
1000
0000
0000
,
0010
0000
0000
0000
1000
0001
0000
0100
,
0000
0000
0000
0000
0010
0100
0000
0000
,
0001
1000
0000
0000
0000
0000
0000
0010
,
0000
0000
0000
0000
0100
1000
0001
0000
,
0100
1000
0001
0100
,
0010
0000
1000
0000
,
0001
0000
0000
0000
0010
0100
1000
0000
,
0000
0001
0000
0100
,
1000
0001
0000
0010
0000
0100
0000
0000
,
1001
0000
0100
0000
,
0010
0000
1000
0000
,
0001
0100
1000
0000
,
0010
0100
0001
0000
,
1000
0000
0001
0000
,
0100
0000
0001
0000
,
1001
0000
0100
0000
,
1000
0000
0000
0000
0001
0000
0000
1001
,
0000
0000
0010
0000
,
0100
0000
1000
0000
0001
0000
0000
0100
,
0000
0000
0010
0000
,
1000
0000
0000
0000
0001
0000
0000
0010
,
0000
0000
0000
0000
1000
0000
0000
0001
,
0000
1000
0000
0001
0000
0100
0000
0000
,
1001
0000
0100
0000
,
1000
0000
0000
0000
0001
0000
0000
1000
,
0000
0000
0001
0000
,
0100
0000
1000
0000
0001
0000
0100
0010
,
0000
1000
0001
0100
,
0010
0000
0000
0000
1000
0001
0000
0100
,
0000
0000
0010
0000
,
0100
1000
0000
0000
0001
0100
0000
1000
,
0000
1001
0000
0010
,
0000
0000
0100
0000
0000
0000
1000
0001
,
0000
0000
0000
0000
0100
1000
0000
2002
,
0000
0000
0000
0000
,
3003
0000
0010
0000
,
0100
0000
1000
0001
,
0100
0000
0010
0000
,
0100
0000
0000
0000
1000
0000
0000
0001
,
0000
1000
0010
0100
,
0000
0000
1000
0000
0000
0000
0001
0010
,
0000
0000
0100
0000
,
1000
0001
0100
0000
,
1000
0000
0001
0000
,
0100
0000
0010
0000
,
0100
0000
1000
0000
,
0001
0000
0100
0000
,
0001
0000
0100
0000
,
0010
0000
1000
0000
,
0001
0000
0100
0000
,
0010
0000
0000
0000
0000
0000
0000
2002
,
0000
0000
0000
0000
,
0000
0000
0000
0000
,
0000
0000
0000
0000
,
3003
0000
0000
0000
;

//--------------- dance-single - ----------------
#NOTES:
     dance-single:
     :
     Medium:
     8:
     0,0,0,0,0:
0000
0000
0000
0000
,
0000
0000
0000
0000
,
0000
0000
0000
0000
,
0000
0000
0000
0000
,
0000
0000
0000
0000
,
0000
0000
0000
0000
,
0001
0000
0010
0000
1000
0100
0000
0010
,
0000
0000
1000
0000
0001
0000
0010
1000
,
0000
0000
0100
0000
0010
0001
0000
1000
,
0000
0000
0001
0000
0100
0010
0000
0100
,
0000
0000
0010
0000
0001
1000
0000
0010
,
1000
0000
0001
0000
0010
0100
0000
0001
,
0100
0000
0010
0000
1000
0100
0010
0000
,
0001
0000
0010
0000
0100
0000
1000
0100
,
0000
0000
0010
0000
0001
1000
0000
0010
,
0000
0000
1000
0000
0100
0010
0000
0001
,
0100
0000
0010
0000
1000
0001
0010
0000
,
0100
0000
0010
0000
0001
1000
0000
0010
,
0000
0000
1000
0000
0100
0010
0000
0000
,
1000
0001
0000
0000
0010
0000
0000
0100
,
0000
0000
1000
0000
0010
0001
1000
0000
,
0010
0001
1000
0010
,
0100
0010
0001
0000
,
1000
0000
0001
0000
0100
0010
0001
0000
,
0100
1000
0100
0010
,
0001
1000
0000
0100
0000
0010
0000
0000
,
1001
0100
0010
0000
,
0100
0010
0001
0100
,
1000
0010
0001
1000
,
0100
0010
1000
0010
,
0001
0000
0100
0000
1000
0000
0001
1000
,
0010
0100
1000
0000
,
1001
0100
0010
1000
,
0001
0000
0100
0000
1000
0010
0000
1001
,
0000
0010
0100
1000
,
0010
0000
0001
0000
1000
0100
0000
0010
,
0000
0001
0100
0010
,
0001
0000
0010
0000
1000
0001
0000
0100
,
0000
0000
1000
0000
0001
0010
0000
1000
,
0000
0001
0000
1000
0000
0010
0000
0000
,
1001
0100
0010
1000
,
0001
0000
0100
0000
1000
0010
0000
0001
,
0000
0010
1000
0100
,
0010
0000
0001
0000
1000
0001
0000
0110
,
0000
0001
1000
0010
,
0100
0000
0010
0000
0001
1000
0000
0010
,
0000
1000
0100
0001
,
0010
0001
0000
0000
1000
0010
0000
0001
,
0000
1001
0010
0100
,
1000
0000
0010
0000
0100
0000
0001
1000
,
0000
0000
0100
0000
0010
0001
0000
2002
,
0000
0000
0000
3003
,
0010
1000
0100
0001
,
0010
0100
0001
1000
,
0010
0000
0100
1000
,
0010
0000
0100
0000
0001
0000
0000
1000
,
0000
0001
0100
0010
,
1000
0000
0001
0000
0010
0000
1000
0100
,
0000
1000
0010
0000
,
0001
1000
0010
1000
,
0001
0100
1000
0001
,
0010
0001
0100
1000
,
0010
0100
0001
0010
,
1000
0000
0001
0000
0010
0000
0100
0001
,
1000
0100
0010
0001
,
0100
1000
0001
0100
,
1000
0001
0010
1000
,
0200
0000
0000
0000
0300
0000
0000
2002
,
0000
0000
0000
0000
,
0000
0000
0000
0000
,
0000
0000
0000
0000
,
3003
0000
0000
0000
;

//--------------- dance-single - ----------------
#NOTES:
     dance-single:
     :
     Hard:
     11:
     0,0,0,0,0:
0000
0000
0000
0000
,
0000
0000
0000
0000
,
0000
0000
0000
0000
,
0000
0000
0000
0000
,
0000
0000
0000
0000
,
0000
0000
0000
0000
,
1000
0000
0100
0000
0001
1000
0000
0100
,
0000
0000
0000
0000
0010
1000
0000
0001
,
0000
0000
0100
0000
0010
0100
0000
1000
,
0000
0000
0000
0000
0001
0010
0000
0100
,
0000
0000
0000
0000
0001
1000
0000
0001
,
0000
0000
0000
0000
0100
0010
0000
0100
,
0000
0000
1000
0000
,
0001
0000
0000
0100
0000
1000
0000
0002
,
0000
0000
0000
0000
1003
0001
0000
0000
,
0100
0000
0000
0000
0001
0010
0000
0100
,
0000
0000
1000
0000
0001
0100
0000
0010
,
0000
0000
0000
0000
0100
1000
0000
0001
,
0000
0000
0010
0000
0100
1000
0000
0001
,
0000
0000
0000
0000
0010
0100
0000
1001
,
0000
0000
0000
0000
0100
0010
0000
0000
,
0001
1000
0000
0000
0001
1000
0000
0000
,
0010
0000
0000
0000
0100
1000
0000
0001
,
0000
0000
0000
0000
0100
0010
0000
0100
,
0000
0000
0000
0000
1000
0001
0000
0100
,
0001
1000
0000
0001
0000
1001
0000
0000
,
0100
0000
0010
0000
1000
0001
0000
0100
,
0000
0001
0000
1000
0001
0000
0100
0000
,
0001
1000
0000
0001
1000
0000
0001
1000
,
0000
0100
0000
0000
0010
0100
0000
1000
,
0001
0000
0100
0010
0000
0100
0010
0000
,
1000
0001
0000
0100
0010
0000
0100
0000
,
1001
0000
1000
0000
0001
1000
0010
0000
,
0100
0000
1000
0000
0001
0100
1000
0001
,
0000
0000
0010
1000
0001
0000
1000
0000
,
0010
0001
1000
0100
0010
1000
0000
0101
,
0000
0010
0100
0000
0001
0100
1000
0000
,
0100
0000
0010
0001
0100
0001
0000
1100
,
0000
0001
1000
0000
0100
0000
1000
0001
,
0000
0110
0000
1001
0000
0010
0100
0000
,
1001
0000
0100
0001
0010
0100
1000
0000
,
0001
0000
0100
0001
0010
0100
0000
1001
,
0000
0001
0100
0000
0001
0100
1000
0001
,
0010
0000
0100
1000
0001
1000
0000
0110
,
0000
0001
0010
0000
0001
0010
1000
0000
,
0100
0000
0010
1000
0100
0001
0000
0110
,
0000
0001
0100
0000
0001
0000
0010
1000
,
0001
0000
0010
0000
0100
0001
0010
1000
,
0100
0000
1001
0000
0001
1000
0010
0000
,
0100
0000
1000
0001
0010
0000
1000
0001
,
0100
1000
0010
0000
0100
0000
1000
0102
,
0000
0000
0000
0000
,
0103
0000
0010
0000
0001
0100
1000
0000
,
0010
0000
1000
0000
0100
0000
0010
1000
,
0001
0000
1000
0000
0001
0010
0100
0000
,
0010
0001
1000
0000
0100
0001
1000
0100
,
0010
0000
0100
0000
0001
1000
0010
0000
,
0001
0000
1000
0100
0010
0000
0100
0000
,
0001
0010
1000
0000
0100
0000
0020
0000
,
0130
0000
0010
0000
0001
0100
1000
0010
,
0100
0000
0010
0000
0100
0001
1000
0000
,
0010
0000
0100
0001
0010
0000
1000
0100
,
0010
0000
1000
0000
0100
0001
1000
0000
,
0010
0000
0100
0001
0010
1000
0100
0001
,
0010
0000
1000
0000
0001
0100
0010
0000
,
0001
0010
1000
0000
0001
0010
0100
1000
,
0010
0001
1000
0000
0010
0000
0100
1000
,
0010
0000
0100
0000
0001
1000
0000
2002
,
0000
0000
0000
0000
,
0000
0000
0000
0000
,
0000
0000
0000
0000
,
3003
0000
0000
0000
;
