#TITLE:KHYMΞXΛ;
#ARTIST:NAMCO Sound Team "のらねこさい" feat.ricono;
#ARTISTTRANSLIT:NAMCO Sound Team "nora2r, neco, xi" feat.ricono;
#GENRE:ナムコオリジナル;
#MUSIC:KHYMEXA.ogg;
#BANNER:KHYMEXA.png;
#BACKGROUND:KHYMEXA-bg.png;
#CDTITLE:./CDTitles/NSD A3.png;
#SAMPLESTART:80.717;
#SAMPLELENGTH:15.000;
#SELECTABLE:YES;
#OFFSET:0.000;
#BPMS:0.000=55.000
,4.000=440.000
,12.000=27.500
,16.000=55.000
,22.000=27.500
,23.000=880.000
,55.000=440.000
,151.000=220.000
,213.000=55.000
,219.000=440.000
,279.000=27.500
,282.000=55.000
,284.000=880.000
,292.000=440.000
,438.000=880.000
,442.250=440.000
,472.000=880.000
,476.000=440.000
,504.000=880.000
,640.000=27.500
,641.000=880.000
,670.000=900.000
,671.000=27.500
;
#STOPS:211.000=0.045
,211.167=0.045
,211.333=0.045
,211.500=0.045
,211.667=0.045
,211.833=0.045
,212.000=0.045
,212.167=0.045
,212.333=0.045
,212.500=0.045
,212.667=0.045
,212.833=0.045
,244.000=0.273
,246.000=0.273
,670.000=0.156
,671.000=2.682
;
#BGCHANGES:;
#FGCHANGES:;

//--------------- dance-single - ----------------
#NOTES:
     dance-single:
     :
     Beginner:
     10:
     0,0,0,0,0:
0000
0000
0000
0000
,
2002
0000
0000
0000
,
0000
0000
0000
3003
,
0110
0001
1000
0010
,
0100
1000
0010
0001
,
0100
0010
0200
0310
,
0000
0000
0000
0000
,
0000
0000
0000
0000
,
0000
0000
0000
0000
,
0000
0000
0000
0000
,
0000
0000
0000
0000
,
0000
0000
0000
0000
,
0000
0000
0000
0000
,
0000
0000
0000
0001
,
0000
0001
0000
0100
,
0001
0100
0000
1000
,
0000
1000
0000
0001
,
0000
1000
0000
0001
,
0000
1000
0000
0100
,
0010
0100
0000
1000
,
0000
1000
0000
0001
,
0000
0100
0000
0100
,
0000
0010
0000
0001
,
0000
0010
0000
0100
,
0000
1000
0000
0100
,
0000
0010
0000
0001
,
0000
0010
0000
0100
,
0000
1000
0000
0001
,
0000
0100
0000
0001
,
0000
0001
0000
1000
,
0000
0001
0000
0100
,
0010
0100
0000
1000
,
0000
1000
0000
0001
,
0000
0100
0000
2002
,
0000
0000
0000
0000
,
0000
0000
0000
3003
,
0000
0000
0000
0000
,
0000
0000
0000
1001
,
0001
0000
1000
0100
0010
0000
0001
1000
,
0010
0000
0100
0010
1000
0000
0110
0000
,
0010
0000
0100
0001
0010
0000
0001
1000
,
0100
0000
0010
0100
1000
0000
1001
0000
,
0010
0000
1000
0100
0001
0000
0100
0010
,
0001
0000
0100
0010
0100
0000
1000
0000
,
0100
0001
0010
0002
,
0000
0000
0003
0010
,
0001
0000
1000
0001
0100
0010
1000
0001
,
1000
0000
0000
0100
,
0010
0000
0001
0000
0100
0001
0100
0000
,
0010
1000
0000
0100
,
0001
0000
0100
0010
0100
0000
1000
0010
,
1000
0000
0001
0100
1000
0000
0200
0000
,
0000
0010
0310
0110
,
0110
0000
0000
0000
0000
0000
0000
0000
0002
0000
0000
0000
0010
0000
0000
0000
2003
0000
0000
0000
0010
0000
0000
0000
3200
0020
0000
0000
0000
0000
0000
0000
,
0330
0000
0110
0000
0000
1001
0000
0000
2000
0000
0000
0000
0100
0000
0000
0000
3002
0000
0000
0000
0100
0000
0000
0000
0023
0000
0000
0000
0000
0000
0000
0000
,
0000
0000
0000
2030
,
0000
0000
0000
3001
,
0010
0000
0001
0000
,
2000
0000
0000
3001
,
0100
0000
0000
0000
,
0000
0000
0000
0010
,
0001
1000
0001
1000
,
0000
0100
0000
0010
,
0000
1000
0000
0001
,
0000
0010
0000
0100
,
0000
2000
0000
3001
,
0010
0000
0100
0000
,
0001
0000
0010
0000
,
0001
0000
0100
1000
,
0010
0001
0100
0020
,
0130
0000
0000
0000
0000
0000
0000
0000
0000
0000
0210
0000
0010
0010
0000
0010
,
0310
0000
0000
0000
,
0000
0000
0000
0000
,
0020
0000
0000
0000
,
0130
0000
1000
0000
,
0010
0000
1000
0000
,
0001
0000
0100
0000
,
0001
0000
0100
0000
,
0010
0000
1000
0000
,
0010
0000
0100
0000
,
0001
0000
0010
0000
,
0100
0000
0010
0000
,
0001
0000
0001
0000
,
1000
0000
1000
0110
,
0000
0010
0000
1000
,
0000
0100
0000
0010
,
0000
0001
0000
0100
,
0000
0001
0000
1000
,
0000
0100
0000
1000
,
0000
0010
0000
0100
,
0000
0001
0000
1000
,
0000
0010
0000
1000
,
0000
0100
0000
0010
,
0000
0001
0000
1000
,
0000
0100
0000
1000
,
0000
0010
0000
1000
,
0000
0001
0000
0100
,
0000
0001
0000
0100
,
0000
0010
0000
1000
,
0000
0010
0000
0100
,
0000
0001
0000
0010
,
0000
0100
0000
0010
,
0000
0001
0000
0001
,
0000
1000
0000
1000
,
0110
0000
0010
0000
,
1000
0000
0100
0000
,
0010
0000
0200
0000
,
0000
0000
0000
0000
,
0000
0000
0000
0000
,
0000
0000
0310
0000
,
0000
0000
0001
1000
,
0001
1000
0000
0000
,
0100
0000
0100
0000
,
0100
0000
0001
0000
,
1000
0000
0000
0010
,
0001
0010
0001
0000
,
0010
0100
0010
0100
,
0010
0000
0100
0000
,
0100
0000
1000
0100
,
0001
1000
0001
1000
,
0000
0000
0100
0000
,
0100
0000
0100
0000
,
0001
0000
1000
0000
,
0000
0010
0001
0010
,
0001
0000
0010
0100
,
0010
0100
0010
0000
,
0100
0000
0100
0000
,
1000
0100
1000
0100
,
1001
0000
0000
0000
,
0000
0000
0000
0000
,
0000
0000
0000
0000
,
0000
0000
0000
0000
,
0000
0000
0000
0000
,
0000
0000
0000
0000
,
0000
0000
0000
0000
,
0000
0000
0000
0000
,
0000
0000
0000
0000
,
0000
0000
0000
0000
,
0000
0000
0000
0000
,
0000
0000
0000
0000
,
0000
0000
0000
0000
,
0000
0000
0000
0000
,
0000
0000
0000
0000
,
0000
0000
0000
0000
,
1001
0000
0000
0000
,
1000
0000
0000
0000
0000
1000
0000
0000
0000
0000
0000
0000
0000
0001
0000
0000
,
0000
0001
0000
0000
0000
0000
0000
0000
0000
1000
0000
0000
0000
0000
0000
0000
,
0000
0000
0000
0000
0000
0001
0000
0000
0000
0001
0000
0000
0000
0000
0000
0000
,
0000
0010
0000
0000
0000
0010
0000
0000
0000
0000
0000
0000
0000
1000
0000
0000
,
0000
1000
0000
0000
0000
0000
0000
0000
0000
0100
0000
0000
0000
0100
0000
0000
,
0000
0000
0000
0000
0000
0010
0000
0000
0000
0010
0000
0000
0000
0000
0000
0000
,
0000
0100
0000
0000
0000
0001
0000
0000
0000
0000
0000
0000
0010
0000
0000
0000
,
1000
0100
1000
0001
,
0010
0001
0010
0001
,
0100
0010
1000
0001
,
0010
0001
0010
0001
,
1000
0100
0010
0001
,
0100
0010
0100
0001
,
0010
0100
0010
0001
,
1000
0100
0010
0001
,
2002
0000
0000
0000
0000
0000
0000
0000
0000
3003
0000
0000
0000
0000
0000
0000
0220
0000
0000
0000
0000
0000
0000
0000
0000
0000
0000
0000
0000
0000
0000
0000
0000
0000
0000
0000
0000
0000
0000
0000
0000
0000
0000
0000
0000
0000
0000
0000
0000
0000
0000
0000
0000
0000
0000
0000
0000
0000
0000
0000
0000
0000
0000
0000
,
0000
0000
0000
0000
,
0000
0000
0000
0000
,
0000
0000
0000
0000
,
0000
0000
0000
0000
,
0000
0000
0000
0000
,
0000
0000
0000
0000
,
0000
0330
0110
1001
;

//--------------- dance-single - ----------------
#NOTES:
     dance-single:
     :
     Easy:
     12:
     0,0,0,0,0:
0000
0000
0000
0000
,
0110
2002
0000
0000
,
0000
0000
0000
0000
0000
0000
0000
0000
0000
0000
0000
0000
0000
0000
0000
0000
0000
0000
0000
0000
0000
0000
0000
0000
0000
0000
0000
0000
0000
0000
0000
3003
,
0001
0000
0000
0010
1000
0001
0200
0000
0000
0000
0300
0000
0010
0000
0000
0001
1000
0100
0010
0000
0000
0001
0010
0100
,
1000
0000
0010
0001
1000
0010
0100
0000
0000
0001
0010
0100
,
1000
0100
0010
0100
0010
0001
1000
0000
0000
2002
0000
0000
,
0000
0000
0000
0000
,
0000
0000
0000
0000
,
0000
0000
0000
0000
,
0000
0000
0000
0000
,
0000
0000
0000
0000
,
0000
0000
0000
0000
,
0000
0000
0000
3003
,
0000
0000
0000
1000
,
0000
0001
0000
0100
,
0001
0010
0000
1000
,
0001
0100
0010
1000
,
0100
0001
0000
0010
,
0000
0100
0000
1000
,
0001
0100
0000
0100
,
0001
0010
0100
0010
,
0001
0000
0000
1000
,
0001
0100
0000
0010
,
0000
0100
0000
1000
,
0001
0010
0000
1000
,
0000
0001
0000
0100
,
0010
1000
0000
0001
,
0010
0100
0000
1000
,
0000
0100
0000
0010
,
0000
0001
0000
1000
,
0000
0001
0100
0010
,
0000
1000
0001
0100
,
0010
0001
0000
0100
,
0000
0010
0000
2000
,
0000
0000
0000
0000
,
0000
0000
0000
3002
,
0000
0000
0000
0000
,
0000
0000
1003
0000
0000
0000
1000
0010
,
1000
0000
0100
0010
0001
0100
0010
0000
,
1000
0000
0010
0000
0100
0000
0001
0000
1000
0000
0000
0000
0001
0100
0001
0000
,
0100
0000
0000
0000
0010
1000
0010
0000
1000
0000
0000
0000
0002
0000
0023
0000
,
0230
2300
3002
0023
0230
2300
3001
0010
,
0001
0000
0100
0010
1000
0010
0100
0000
,
0001
1000
0100
0010
0001
0000
1000
0001
,
1000
0001
1000
0001
1000
0001
0100
0100
,
0100
0100
0100
0100
0100
0000
0010
1000
,
0001
0100
0110
0000
0001
0010
0110
0000
,
1000
0010
0200
0000
0302
0000
2003
3000
,
0100
1000
0000
0001
0010
0000
1000
0000
0100
0000
0010
0000
0001
0000
0000
0000
,
0100
1000
0001
0200
,
0000
0000
0000
0310
0000
0000
0000
0000
0001
1000
0000
0000
,
0100
0000
0010
0000
0001
0000
1000
0001
,
0100
0010
0100
0020
,
0230
0000
0000
0000
0000
0000
0000
0000
0302
0000
0000
0000
0010
0000
0000
0000
2003
0000
0000
0000
0010
0000
0000
0000
3200
0020
0000
0000
0000
0000
0000
0000
,
0330
0000
0110
0000
0000
1001
0000
0000
2000
0000
0000
0000
0100
0000
0000
0000
3002
0000
0000
0000
0100
0000
0000
0000
0023
0000
0000
0000
0000
0000
0000
0000
,
0000
0000
0000
2030
,
0000
0000
0000
3001
,
0010
1000
0001
0010
,
2000
0000
0000
3001
,
0120
0000
0000
0000
,
0000
0000
0030
0110
,
1001
1100
0101
1001
,
0000
0100
0000
0010
,
0000
1000
0000
0001
,
0000
0010
0000
0100
,
0000
2000
0000
3001
,
0100
0010
0001
1000
,
0010
1000
0010
0100
,
0010
1000
0001
0100
,
0001
0100
0001
0200
,
0020
0000
0000
0000
0330
0000
0000
0000
0000
0000
0210
0000
0010
0010
0000
0010
,
0310
0000
0000
0000
,
0000
0000
0000
0000
,
0020
0000
0000
0000
,
1030
0100
1000
0100
,
0000
0000
0010
0001
,
0010
0001
0100
0010
,
1000
0000
0110
0000
,
0000
1000
0100
0010
,
0001
0000
1000
0100
,
0010
0100
1000
0100
,
0001
0000
0100
0000
0001
0100
0000
0000
,
0001
0010
0001
1000
,
0001
0010
0001
1000
,
0100
0000
0001
0100
,
0000
0010
0100
0000
,
1000
0010
1000
0001
,
0010
0001
0010
0100
,
1000
0000
0000
0000
0000
0000
0001
0000
0000
0000
0100
0000
,
0000
0000
1000
0000
0000
0000
0000
0010
0000
0000
0000
0000
,
0001
0100
0001
0100
,
0000
0000
0010
1000
,
0010
1000
0100
0010
,
0110
0000
0011
0000
,
0000
0001
0100
0010
,
1000
0000
0001
0100
,
0010
0100
0001
0100
,
1000
0000
0100
0000
1000
0100
0000
0000
,
1000
0010
1000
0001
,
1000
0010
1000
0001
,
0100
0000
1000
0100
,
0010
0000
0000
0000
,
0001
0010
0001
1000
,
0010
1000
0010
0100
,
0001
0000
1000
0100
,
0010
0001
1000
0001
,
0100
0020
0000
0000
,
0000
0000
0000
0000
,
0000
0000
0000
0000
,
0000
0000
0030
0000
,
0000
0000
1000
0100
,
1000
0100
0000
0000
,
0010
0001
0010
0001
,
0100
0010
1000
0000
,
0110
0000
0000
1000
,
0100
0010
0001
0000
,
1000
0100
0010
0100
,
1000
0100
0001
0100
,
0001
0100
0000
0000
0001
0000
0010
0000
,
0001
1000
0001
0010
,
0001
1000
0100
0000
,
0001
0100
0000
0000
,
0000
0000
1000
0010
,
1000
0001
0010
0001
,
0010
0100
1000
0000
,
0001
0100
0010
0100
,
0001
0000
0100
0000
,
0001
0000
1000
0000
,
1001
0000
0000
0000
,
0000
0000
0000
0000
,
0000
0000
0000
0000
,
0000
0000
0000
0000
,
0000
0000
0000
0000
,
0000
0000
0000
0000
,
0000
0000
0000
0000
,
0000
0000
0000
0000
,
0000
0000
0000
0000
,
0000
0000
0000
0000
,
0000
0000
0000
0000
,
0000
0000
0000
0000
,
0000
0000
0000
0000
,
0000
0000
0000
0000
,
0000
0000
0000
0000
,
0000
0000
0000
0000
,
1001
0000
0000
0000
,
1000
0000
0000
0000
0000
1000
0000
0000
0000
0000
0000
0000
0000
0001
0000
0000
,
0000
0001
0000
0000
0000
0000
0000
0000
0000
1000
0000
0000
0000
0000
0000
0000
,
0000
0000
0000
0000
0000
0001
0000
0000
0000
0001
0000
0000
0000
0000
0000
0000
,
0000
0010
0000
0000
0000
0010
0000
0000
0000
0000
0000
0000
0000
1000
0000
0000
,
0000
1000
0000
0000
0000
0000
0000
0000
0000
0100
0000
0000
0000
0100
0000
0000
,
0000
0000
0000
0000
0000
0010
0000
0000
0000
0010
0000
0000
0000
0000
0000
0000
,
0000
0100
0000
0000
0000
0001
0000
0000
0000
0000
0000
0000
0010
0000
0000
0000
,
1000
0100
1000
0001
,
0010
0001
0010
0001
,
0100
0010
1000
0001
,
0010
0001
0010
0001
,
1000
0100
0010
0001
,
0100
0010
0100
0001
,
0010
0100
0010
0001
,
1000
0100
0010
0001
,
2002
0000
0000
0000
0000
0000
0000
0000
0000
3003
0000
0000
0000
0000
0000
0000
0220
0000
0000
0000
0000
0000
0000
0000
0000
0000
0000
0000
0000
0000
0000
0000
0000
0000
0000
0000
0000
0000
0000
0000
0000
0000
0000
0000
0000
0000
0000
0000
0000
0000
0000
0000
0000
0000
0000
0000
0000
0000
0000
0000
0000
0000
0000
0000
,
0000
0000
0000
0000
,
0000
0000
0000
0000
,
0000
0000
0000
0000
,
0000
0000
0000
0000
,
0000
0000
0000
0000
,
0000
0000
0000
0000
,
0000
0330
0110
1001
;

//--------------- dance-single - ----------------
#NOTES:
     dance-single:
     :
     Medium:
     16:
     0,0,0,0,0:
0000
0000
0000
0000
,
2000
0002
0000
0000
,
0000
0000
0000
0000
0000
0000
0000
0000
0000
0000
0000
0000
0000
0000
0000
3003
,
0100
0000
0000
0010
1000
0001
0200
0000
0000
0000
0000
0000
0310
0000
0000
0001
0010
0100
1000
0000
0000
0001
0100
0010
,
0100
0000
0000
1000
0100
0010
0001
0010
0100
1000
0001
0010
,
0100
1000
0001
0100
0010
0100
2000
0000
0000
0002
0000
0000
,
0000
0000
0000
0000
,
0000
0000
0000
0000
,
0000
0000
0000
0000
,
0000
0000
0000
0000
,
0000
0000
0000
0000
,
0000
0000
0000
0000
,
0000
0000
0000
3003
,
0000
0000
0000
1000
,
0010
1000
0000
0100
,
0010
0001
0100
0010
,
0000
1000
0010
0100
,
0001
0000
1000
0000
0000
0000
0001
0100
,
0001
0000
0100
0000
0000
0000
0010
1000
,
0010
1000
0000
0002
,
0023
0230
2300
3002
,
0023
0230
2300
3001
,
0010
0001
0000
0100
,
0010
1000
0010
0100
,
0000
0001
1000
0100
,
0010
0001
0000
1000
,
0000
1000
0000
0001
0000
1000
0000
0001
,
0000
1000
0000
0001
0000
0000
0100
0000
,
0100
0100
0100
0100
,
0100
0100
0000
0010
,
1000
0001
0100
0110
,
0000
0001
0010
0110
,
0000
1000
0010
0200
,
0000
0302
0000
2003
,
0000
0000
0000
0000
,
0000
0000
0000
0002
,
0000
0000
0000
0000
,
0000
0000
3003
0000
0000
0000
1000
0010
,
0100
0001
0100
0010
1000
0001
0010
0100
,
0010
0100
1000
0100
1000
0100
1000
1000
,
0001
0010
0001
0001
1000
0100
0001
0100
,
1000
0001
0010
0010
0001
1000
0010
0100
,
0010
1000
0001
1000
0100
1000
0010
0010
,
0001
1000
0100
0001
0100
1000
0010
0100
,
0001
0001
1000
0010
0100
0001
0100
0010
,
1000
0001
1000
1000
0100
0001
0100
0010
,
0001
1000
0010
1000
0100
0000
0011
0000
,
0101
0010
1010
1100
,
0001
0100
0010
1000
0010
0100
0001
1000
,
0100
0010
0100
0010
0001
0010
0001
0010
,
0001
0001
1000
0100
1000
1000
0001
0010
,
1000
0010
0001
1000
0100
0100
1000
0001
,
0100
0010
0100
0001
1000
0001
0010
0001
,
0100
0000
0000
0000
0010
0000
0000
0000
0002
0000
0000
0000
0010
0000
0000
0000
2003
0000
0000
0000
0010
0000
0000
0000
3200
0020
0000
0000
0000
0000
0000
0000
,
0330
0000
0110
0000
0000
1001
0000
0000
2000
0000
0000
0000
0100
0000
0000
0000
3002
0000
0000
0000
0100
0000
0000
0000
0023
0000
0000
0000
0000
0000
0000
0000
,
0000
0000
0000
2030
,
0000
0000
0000
3001
,
0010
1000
0001
0010
,
2000
0000
0000
3001
,
0120
0000
0000
0000
,
0000
0000
0030
0110
,
1001
1100
0101
1001
,
0000
0100
0000
0010
,
0000
1000
0000
0001
,
0000
0010
0000
0100
,
0000
2000
0000
3001
,
0100
0010
0001
1000
,
0010
1000
0010
0100
,
0010
1000
0001
0100
,
0001
0100
0001
0200
,
0020
0000
0000
0000
0330
0000
0000
0000
0000
0000
0210
0000
0010
0010
0000
0010
,
0310
0000
0000
0000
,
0000
0000
0000
0000
,
0200
0000
0000
0000
,
1300
0100
1000
0100
,
1000
0100
0010
0001
,
0010
0001
0100
0010
,
1000
0010
0100
0010
0100
0010
1000
0000
,
0000
1000
0100
0010
,
0001
0010
0001
0100
,
0010
0100
0001
0100
,
1000
0000
0100
0000
0010
0100
0010
0100
,
0001
0010
0001
1000
,
0001
0000
0010
0000
0001
0000
1000
0010
,
1000
0000
0001
0101
,
0000
0000
0000
0000
0010
0100
0010
0100
,
0001
0010
0010
1000
,
1000
0000
0001
0000
0010
0000
0100
0010
,
1000
0000
0001
0101
,
0000
1000
0100
0010
,
0001
0100
0001
0100
0001
0100
0001
0100
,
0010
0100
0010
0100
0010
0100
0010
0100
,
1000
0100
1000
0100
1000
0100
1000
0100
,
0010
0000
0010
0000
,
0001
0100
0001
0100
0001
1000
0001
1000
,
0010
0100
0010
0100
1000
0100
1000
0100
,
0010
0100
0010
0100
0001
0100
0001
0100
,
0010
0000
0002
0000
,
0003
1000
0010
1000
,
0001
1000
0100
1000
,
0100
0010
0001
0100
,
0001
0000
1000
0010
0100
0010
0100
0010
,
1000
0001
1000
0001
,
1000
0100
1000
0001
,
0100
0010
0001
0010
,
0100
0000
0010
0000
0100
0010
0100
0010
,
0200
0000
0000
0000
,
0000
0000
0000
0000
,
0000
0000
0000
0000
,
0000
0000
0310
0000
,
0000
0000
1000
0010
,
0100
0001
0100
0010
,
1000
0001
0010
0100
,
0010
0100
1000
0100
,
1000
0100
1000
1000
,
0001
0010
0001
0001
,
1000
0100
0001
0100
,
1000
0001
0010
0010
,
0002
0000
0000
0000
,
1003
0010
0001
0010
,
1000
0000
0001
0000
0010
0100
1000
0000
,
0010
0100
0001
0000
1000
0000
0010
0000
,
0100
0010
1000
0000
0001
0000
1000
0000
,
0100
1000
0010
0000
0100
0000
0010
0000
,
0100
0001
0010
0000
0100
0000
0010
0000
,
0001
0100
0010
0000
1000
0010
0100
0000
,
0001
1000
0100
0010
,
0001
0010
1000
0100
,
0010
0000
0000
0000
,
0000
0000
0000
0000
,
0000
0000
0000
0000
,
0000
0000
0000
0000
,
0000
0000
0000
0000
,
0000
0000
0000
0000
,
0000
0000
0000
0000
,
0000
0000
0000
0000
,
0000
0000
0000
0000
,
0000
0000
0000
0000
,
0000
0000
0000
0000
,
0000
0000
0000
0000
,
0000
0000
0000
0000
,
0000
0000
0000
0000
,
0000
0000
0000
0000
,
0000
0000
0000
0000
,
1001
0000
0000
0000
,
1000
0000
0000
0000
0000
1000
0000
0000
0000
0000
0000
0000
0000
0001
0000
0000
,
0000
0001
0000
0000
0000
0000
0000
0000
0000
1000
0000
0000
0000
0000
0000
0000
,
0000
0000
0000
0000
0000
0001
0000
0000
0000
0001
0000
0000
0000
0000
0000
0000
,
0000
0010
0000
0000
0000
0010
0000
0000
0000
0000
0000
0000
0000
1000
0000
0000
,
0000
1000
0000
0000
0000
0000
0000
0000
0000
0100
0000
0000
0000
0100
0000
0000
,
0000
0000
0000
0000
0000
0010
0000
0000
0000
0010
0000
0000
0000
0000
0000
0000
,
0000
0100
0000
0000
0000
0001
0000
0000
0000
0000
0000
0000
0010
0000
0000
0000
,
1000
0100
1000
0001
,
0010
0001
0010
0001
,
0100
0010
1000
0001
,
0010
0001
0010
0001
,
1000
0100
0010
0001
,
0100
0010
0100
0001
,
0010
0100
0010
0001
,
1000
0100
0010
0001
,
2002
0000
0000
0000
0000
0000
0000
0000
0000
3003
0000
0000
0000
0000
0000
0000
0220
0000
0000
0000
0000
0000
0000
0000
0000
0000
0000
0000
0000
0000
0000
0000
0000
0000
0000
0000
0000
0000
0000
0000
0000
0000
0000
0000
0000
0000
0000
0000
0000
0000
0000
0000
0000
0000
0000
0000
0000
0000
0000
0000
0000
0000
0000
0000
,
0000
0000
0000
0000
,
0000
0000
0000
0000
,
0000
0000
0000
0000
,
0000
0000
0000
0000
,
0000
0000
0000
0000
,
0000
0000
0000
0000
,
0000
0330
0110
1001
;

//--------------- dance-single - ----------------
#NOTES:
     dance-single:
     :
     Hard:
     19:
     0,0,0,0,0:
0000
0000
0000
0000
,
0000
0000
0100
1000
0010
1000
0001
0100
,
0001
0000
0100
0000
0010
0000
0100
0000
0010
0000
1000
0000
0010
0000
1000
0001
,
0020
0000
0000
0000
0000
0000
0000
0000
0000
0000
0000
0000
0000
0000
0000
0000
0000
0000
0000
0000
0000
0000
0000
0000
0130
0000
0000
0000
0000
0000
0000
0000
1000
0000
0000
0000
0000
0000
0000
0000
0001
0000
0000
0000
0000
0000
0000
0000
0010
0000
0000
0000
0000
0000
0000
0000
0000
0000
0000
0000
1000
0000
0000
0100
0000
0000
0010
0000
0000
0001
0000
0000
0010
0000
0000
0100
0000
0000
1000
0000
0000
0001
0000
0000
0010
0000
0000
0100
0000
0000
1000
0000
0000
0001
0000
0000
0200
0000
0000
0000
0000
0000
0000
0000
0000
0000
0000
0000
0000
0000
0000
0000
0000
0000
0000
0000
0000
0000
0000
0000
0010
0000
0000
0000
0000
0000
0000
0000
0001
0000
0000
0000
0000
0000
0000
0000
0010
0000
0000
0000
0000
0000
0000
0000
2300
0000
0000
0000
0000
0000
0000
0000
0000
0000
0000
0000
0000
0000
0000
0000
0000
0000
0000
0000
0000
0000
0000
0000
0001
0000
0000
0000
0000
0000
0000
0000
0010
0000
0000
0000
0000
0000
0000
0000
0100
0000
0000
0000
0000
0000
0000
0000
,
3002
0000
0000
0000
0010
0000
1003
0000
0100
1000
0010
0000
0001
0000
1000
0100
0010
0000
0100
0000
0001
0010
1000
0010
,
0001
0000
0100
1000
0010
0000
0001
0000
1000
0100
0010
0000
0200
0000
0000
0000
0000
0000
0320
0000
0000
0000
0000
0000
,
0000
0000
0000
0000
,
0000
0000
0000
0000
,
0000
0000
0000
0000
,
0000
0000
0000
0000
,
0000
0000
0000
0000
,
0000
0000
0000
0000
,
0000
0000
0000
0130
,
0000
0000
0000
0010
,
0100
0000
0010
0100
1000
0000
0100
0001
,
1000
0010
0100
0001
1000
0100
0010
0000
,
0100
0000
0010
1000
0100
0001
0010
0000
,
1000
0010
0001
1000
0100
0010
0001
1000
,
0010
0100
0001
1000
0100
0001
0010
0000
,
0100
0001
0010
0100
1000
0000
0001
0010
,
1000
0100
0001
0010
0100
0000
0010
0100
,
1000
0100
0010
0001
1000
0000
0010
0001
,
0100
0010
0001
0000
1000
0100
0010
0000
,
0100
0001
0010
1000
0100
0001
0010
0100
,
1000
0100
0001
0000
0010
1000
0100
0000
,
0010
0001
0100
0000
0010
1000
0001
0010
,
0100
0010
0001
0000
1000
0100
0010
0001
,
1000
0000
0001
0010
0100
1000
0001
1000
,
0010
0001
0100
1000
0010
0100
0010
1000
,
0000
0000
0100
0000
0000
0000
0010
0000
0000
0000
0100
0000
0000
0000
0010
0000
0000
0000
0100
0000
0000
1000
0000
0000
,
0010
0000
0001
0000
0100
0010
0100
0000
,
1000
0000
0001
0010
0001
1000
0001
0010
,
0100
0001
1000
0001
0100
1000
0010
1000
,
0000
0100
0000
0010
0000
1000
0000
0001
0000
0200
0000
0000
,
0000
0000
0000
0000
,
0000
0000
0000
0320
,
0000
0000
0000
0000
,
0000
0000
0030
0000
0000
0000
0010
0100
,
0010
0001
1000
0000
0100
0000
0010
0000
0001
1000
0100
0000
0001
0000
1000
0000
,
0001
0100
0010
0000
0100
0000
1000
0000
0100
0001
0010
0000
0100
0000
0010
0000
,
0001
0100
1000
0000
0100
0010
0000
0001
1000
0000
0100
0000
0001
0000
0100
0000
,
0001
1000
0010
0000
0100
0010
0000
0001
1000
0000
0100
0000
0010
0000
0100
0000
,
0001
0010
0100
0000
0010
0000
1000
0000
0100
1000
0010
0000
0001
0000
0100
0000
,
0010
0100
1000
0000
0001
0000
0100
0000
0001
0000
0100
0000
0010
0000
1000
0000
,
0100
0001
1000
0000
0010
0000
1000
0000
0001
1000
0010
0100
0001
0010
0100
0001
,
0010
0100
1000
0010
0001
1000
0100
0001
0010
0100
1000
0100
0010
0000
0100
0000
,
0001
1000
0100
0001
0010
0001
0100
0000
1000
0001
0100
0000
0010
0000
0100
0000
,
1000
0001
0100
0000
0002
0000
0000
0000
0013
0100
1000
0000
0001
0000
0010
0000
,
1000
0001
0000
0100
1000
0010
0001
0000
1000
0010
0001
0000
1000
0010
0001
0000
,
0100
1000
0010
0100
0001
1000
0010
0100
0001
1000
0010
0100
0002
0000
0010
0000
,
0103
0000
1000
0001
0100
0000
0001
0000
0010
0000
1000
0001
0100
0000
0010
0000
,
0100
0000
1000
0001
0100
0000
0010
0000
0001
1000
0001
0000
1000
0100
0010
0000
,
0001
0000
0000
1000
0000
0000
0100
0000
0000
0000
0000
0000
0001
0000
0000
1000
0000
0000
0001
0000
0000
0000
0000
0000
1000
0000
0000
0000
0000
0000
0001
0000
0000
0100
0000
0000
0001
0000
0010
0000
0100
0000
1000
0000
0001
0000
0100
0000
,
0010
0000
0000
0000
0000
0000
0000
0000
0100
0000
0000
0000
0000
0000
0000
0000
1000
0000
0000
0000
0000
0000
0000
0000
0001
0000
0000
0000
0000
0000
0000
0000
0100
0000
0000
0000
0000
0000
0000
0000
0001
0000
0000
0000
0000
0000
0000
0000
2000
0000
0000
0000
0000
0000
0000
0000
0000
0000
0000
0000
0000
0000
0000
0000
0000
0000
0000
0000
0000
0000
0000
0000
0000
0000
0000
0000
0000
0000
0000
0000
0000
0000
0000
0000
3010
0000
0000
0000
0001
0000
0000
0000
0010
0000
0000
0000
2000
0000
0000
0000
0000
0000
0000
0000
0000
0000
0000
0000
0000
0000
0000
0000
0000
0000
0000
0000
0000
0010
0000
0000
3020
0000
0000
0000
0000
0000
0000
0000
0000
0000
0000
0000
0000
0000
0000
0000
0000
0000
0000
0000
0000
0000
0000
0000
0230
0000
0000
0000
0000
0000
0002
0000
0000
0000
0000
0000
0000
0000
0000
0000
0000
0000
0000
0000
0000
0000
0000
0000
0000
0000
0000
0000
0000
0000
0000
0000
0000
0000
0000
0000
0303
0000
0000
0000
0000
0000
0000
0000
0000
0000
0000
0000
,
1010
0000
0000
0000
0000
0000
0000
0000
0000
0000
0000
0000
0000
0000
0000
0000
0000
0000
0011
0000
0000
0000
0000
0000
0000
0000
0000
0000
0000
0000
0000
0000
0000
0000
0000
0000
0110
0000
0000
0000
0000
0000
0000
0000
0000
0000
0000
0000
0002
0000
0000
0000
0000
0000
0000
0000
0000
0000
0000
0000
0000
0000
0000
0000
0000
0000
0000
0000
0000
0000
0000
0000
0000
0000
0000
0000
0000
0000
0000
0000
0000
0000
0000
0000
0013
0000
0000
0000
1000
0000
0000
0000
0010
0000
0000
0000
0002
0000
0000
0000
0000
0000
0000
0000
0000
0000
0000
0000
0000
0000
0000
0000
0000
0000
0000
0000
0000
0010
0000
0000
0023
0000
0000
0000
0000
0000
0000
0000
0000
0000
0000
0000
0000
0000
0000
0000
0000
0000
0000
0000
0000
0000
0000
0000
0031
0000
0000
0000
0000
0000
0000
0000
0000
0000
0000
0000
0000
0000
0000
0000
0000
0000
0000
0000
0000
0000
0000
0000
0000
0000
0000
0000
0000
0000
0000
0000
0000
0000
0000
0000
0000
0000
0000
0000
0000
0000
0000
0000
0000
0000
0000
0000
,
0001
0000
0100
0000
0010
1000
0001
0000
,
0100
0000
0001
0000
0100
0010
0001
0000
,
0010
0001
0010
0010
,
0001
0000
0001
1000
0100
0010
0200
0000
,
0310
0010
0100
0100
,
0010
0100
0010
0020
,
0130
0200
0310
1001
,
0000
0000
0000
0100
0000
0010
0000
0100
0000
0002
0000
0000
,
0000
0000
0000
0013
0000
0100
0000
0001
0000
0200
0000
0000
,
0000
0000
0000
0310
0000
1000
0000
0001
0000
1000
0000
0000
,
0000
0000
1000
0001
1000
0001
0010
0000
,
1000
0100
0001
0000
0010
1000
0100
0000
,
0010
0001
1000
0000
0001
0010
0100
1000
,
0010
0100
0001
0010
1000
0100
0010
0001
,
0100
1000
0001
0100
0010
1000
0200
0000
,
0020
0000
0000
0000
0330
0000
0000
0000
0000
0000
0210
0000
0010
0010
0000
0010
,
0310
0000
0000
0000
,
0000
0000
0000
0000
,
0200
0000
0000
0000
,
0301
0000
0010
0000
0001
0000
1000
0100
,
1000
0000
0010
0000
0100
0000
0001
0010
,
0100
1000
0010
0100
,
0001
1000
0100
1000
0001
0100
0001
0000
,
1000
0000
0001
0000
0010
0000
0100
1000
,
0001
0100
0001
0010
,
0100
0000
0010
0000
0001
0000
0100
0010
,
1000
0000
0010
0000
0100
0010
0100
0000
,
0001
0100
0001
0000
1000
0010
1000
0000
,
0001
1000
0001
0000
0010
0000
0001
0100
,
0010
0000
1000
0001
0100
0000
0010
0000
,
1000
0001
1000
0000
0100
0010
0100
0010
,
0001
0000
0100
0001
0100
0000
0010
0100
,
0001
0000
1000
0001
0100
0000
0010
0100
,
0001
0000
0010
0001
1000
0000
0001
0000
,
0000
0000
1000
0000
0010
1000
0100
0010
,
0001
0010
0001
0100
0001
0010
0001
1000
,
0100
0010
0001
0010
0100
1000
0001
0010
,
0100
0010
0001
1000
0001
0010
0001
0010
,
0100
0010
0001
0010
0100
1000
0100
0010
,
0001
1000
0001
0010
0001
1000
0001
1000
,
0100
0010
0001
0010
0100
1000
0001
0010
,
0100
1000
0100
0010
0001
0010
0001
1000
,
0100
0010
0001
0010
0001
0100
0001
1000
,
0001
0000
0100
0010
0100
0000
0001
0000
,
0010
0000
0001
1000
0010
0000
1000
0000
,
0010
0100
0010
0001
1000
0000
0001
0000
,
1000
0000
0001
0100
0010
1000
0010
1000
,
0001
0100
0001
0000
1000
0010
1000
0000
,
0001
0100
0010
0000
1000
0010
0100
0000
,
0001
1000
0001
0000
1000
0010
0100
0000
,
0001
0000
0010
0000
0100
1000
0100
0000
,
0001
0000
0010
0000
0001
0000
0010
0000
0001
0000
1000
0000
,
0100
0000
0010
0000
0100
0000
1000
0000
0100
0000
1000
0000
,
0001
0000
0010
0000
0001
0000
1000
0000
0001
0000
1000
0000
,
0100
0000
1000
0000
0001
0000
1000
0000
0000
0000
0000
0000
,
0000
0000
0000
0000
0000
0000
0001
0000
0010
0000
0001
0000
,
1000
0000
0100
0000
0001
0000
0100
0000
1000
0000
0010
0000
,
0100
0000
0001
0000
0100
0000
0010
1000
0010
1000
0010
0000
,
0100
0000
0010
0000
0010
0000
0001
0010
0001
0010
0001
0000
,
0100
0000
0000
0000
0100
0000
0000
0000
1000
0000
0000
0000
0001
0000
0000
0100
0000
0000
0010
0000
0000
1000
0000
0000
,
0010
1000
0100
0010
0001
1000
0001
0100
,
0010
1000
0001
0100
0001
0010
0100
0010
,
0001
1000
0100
1000
0010
0100
0001
0100
,
0010
0000
0000
0000
,
0010
0100
0001
0010
0100
1000
0010
1000
,
0100
1000
0100
0010
0100
0010
0001
0100
,
0010
0100
0010
0100
0001
1000
0100
0010
,
0001
1000
0010
0100
0001
0010
0100
0010
,
0001
0100
0010
0100
0010
0100
0001
0010
,
0001
0100
0010
0100
0010
1000
0100
0010
,
0001
0100
0010
0100
0010
1000
0010
1000
,
0010
0100
0010
0100
,
0001
1000
0001
0010
,
0100
0000
0000
0000
,
0000
0000
0000
0000
,
0000
0000
0000
0000
,
0000
0000
0000
0000
,
0000
0000
0000
0000
,
0000
0000
0000
0000
,
0000
0000
0000
0000
,
0000
0000
0000
0000
,
0000
0000
0000
0000
,
0000
0000
0000
0000
,
0000
0000
0000
0000
,
0000
0000
0000
0000
,
0000
0000
0000
0000
,
0000
0000
0000
0000
,
0000
0000
0000
0000
,
0000
0000
0000
0000
,
1001
0000
0000
0000
,
1001
0000
0000
0000
0000
1100
0000
0000
0000
0000
0000
0000
0000
0101
0000
0000
,
0000
0101
0000
0000
0000
0000
0000
0000
0000
1100
0000
0000
0000
0000
0000
0000
,
0000
0000
0000
0000
0000
0101
0000
0000
0000
0101
0000
0000
0000
0000
0000
0000
,
0000
0011
0000
0000
0000
0011
0000
0000
0000
0000
0000
0000
0000
1001
0000
0000
,
0000
1001
0000
0000
0000
0000
0000
0000
0000
0110
0000
0000
0000
0101
0000
0000
,
0000
0000
0000
0000
0000
0110
0000
0000
0000
1010
0000
0000
0000
0000
0000
0000
,
0000
0110
0000
0000
0000
1001
0000
0000
0000
0000
0000
0000
0100
0000
0000
0000
,
0010
0100
0010
0001
,
1000
0010
0100
0010
,
0100
0010
1000
0001
,
0010
0100
0010
0100
,
0001
0010
0001
0100
,
0010
1000
0001
0010
,
0001
0100
0010
0100
,
0010
1000
0010
0101
,
2002
0000
0000
3003
1000
0000
0000
0000
0001
0000
0000
0000
1000
0000
0000
0000
,
0001
1000
0001
1000
,
0001
1000
0001
1000
,
0001
1000
0001
1000
,
0001
1000
0001
1000
,
0001
1000
0001
1000
,
0001
1000
0001
1000
,
0001
1000
0001
1001
;

//--------------- dance-single - ----------------
#NOTES:
     dance-single:
     :
     Challenge:
     20:
     0,0,0,0,0:
0000
0000
0000
0000
,
2000
0000
0000
0000
3001
0010
1000
0001
0100
0010
1000
0001
0100
0010
1000
0100
,
0001
0010
0100
1000
0010
0001
0100
0010
1000
0100
0001
0010
0100
1000
0010
0001
,
0200
0000
0000
0000
0000
0000
0000
0000
0000
0000
0000
0000
0000
0000
0000
0000
0000
0000
0000
0000
0000
0000
0000
0000
0310
0000
0000
0000
0000
0000
0000
0000
0001
0000
0000
0000
0000
0000
0000
0000
1000
0000
0000
0000
0000
0000
0000
0000
0100
0000
0000
0000
0000
0000
0000
0000
0000
0000
0000
0000
0001
0000
0000
0010
0000
0000
0100
0000
0000
1000
0000
0000
0100
0000
0000
0010
0000
0000
0001
0000
0000
1000
0000
0000
0100
0000
0000
0010
0000
0000
0001
0000
0000
1000
0000
0000
0020
0000
0000
0000
0000
0000
0000
0000
0000
0000
0000
0000
0000
0000
0000
0000
0000
0000
0000
0000
0000
0000
0000
0000
0100
0000
0000
0000
0000
0000
0000
0000
1000
0000
0000
0000
0000
0000
0000
0000
0100
0000
0000
0000
0000
0000
0000
0000
0032
0000
0000
0000
0000
0000
0000
0000
0000
0000
0000
0000
0000
0000
0000
0000
0000
0000
0000
0000
0000
0000
0000
0000
1000
0000
0000
0000
0000
0000
0000
0000
0100
0000
0000
0000
0000
0000
0000
0000
0010
0000
0000
0000
0000
0000
0000
0000
,
2003
0000
0000
0000
0100
0000
3001
0000
0010
0001
0100
0000
1000
0000
0001
0010
0100
0000
0010
0000
1000
0100
0001
0100
,
1000
0000
0010
0001
0100
0000
1000
0000
0001
0010
0100
0000
0020
0000
0000
0000
0000
0000
0130
0000
0000
0000
0000
0000
,
0010
0100
0010
0100
,
0010
0100
0010
0100
,
0010
0100
0010
0100
,
0010
0100
0010
0100
,
0010
0100
0010
0100
,
0010
0100
0010
0100
,
0010
0100
0010
0100
,
0000
0000
0000
0000
0000
0000
0100
1000
,
0001
0010
0100
0010
0100
1000
0100
1000
,
0001
0100
0001
1000
0001
0010
0100
1000
,
0010
1000
0010
1000
0001
0100
0001
1000
,
0100
1000
0010
0100
0010
1000
0100
0010
,
0001
1000
0010
1000
0100
0010
0001
1000
,
0010
0100
0001
0100
0001
0100
0010
1000
,
0001
0010
0001
0100
0010
0100
0001
0100
,
0010
1000
0020
0000
0000
0000
0031
1000
,
0100
1000
0001
1000
0100
0010
0001
0100
,
0010
0100
0001
0100
0010
1000
0100
1000
,
0010
0100
0001
1000
0100
0010
0001
0010
,
0100
0010
0001
0100
0001
0100
0001
1000
,
0100
1000
0001
1000
0001
0100
0001
0100
,
0010
1000
0010
1000
0001
1000
0010
0100
,
0010
0100
0010
1000
0001
0100
0010
1000
,
0000
0000
0100
0000
0000
0000
0010
0000
0000
0000
0100
0000
0000
0000
0010
0000
0000
0000
0100
0000
0000
1000
0000
0000
,
0010
0100
0001
1000
0010
0100
0001
1000
,
0010
1000
0010
1000
0001
0100
0001
0100
,
0010
0100
0010
1000
0001
0100
0010
1000
,
0000
0100
0000
0010
0000
1000
0000
0001
0000
0200
0000
0000
,
0000
0000
0000
0000
,
0000
0000
0000
0320
,
0000
0000
0000
0000
,
0000
0000
0030
0000
0000
0000
0010
0100
,
0010
0001
1000
0000
0100
0000
0010
0000
0001
1000
0100
0000
0001
0000
1000
0000
,
0001
0100
0010
0000
0100
0000
1000
0000
0100
0001
0010
0000
0100
0000
0010
0000
,
0001
0100
1000
0000
0100
0010
0000
0001
1000
0000
0100
0000
0001
0000
0100
0000
,
0001
1000
0010
0000
0100
0010
0000
0001
1000
0000
0100
0000
0010
0000
0100
0000
,
0001
0010
0100
0000
0010
0000
1000
0000
0100
1000
0010
0000
0001
0000
0100
0000
,
0010
0100
1000
0000
0001
0000
0100
0000
0001
0000
0100
0000
0010
0000
1000
0000
,
0100
0001
1000
0000
0010
0000
1000
0000
0001
1000
0010
0100
0001
0010
0100
0001
,
0010
0100
1000
0010
0001
1000
0100
0001
0010
0100
1000
0100
0010
0000
0100
0000
,
0001
1000
0100
0001
0010
0001
0100
0000
1000
0001
0100
0000
0010
0000
0100
0000
,
1000
0001
0100
0000
0002
0000
0000
0000
0013
0100
1000
0000
0001
0000
0010
0000
,
1000
0001
0000
0100
1000
0010
0001
0000
1000
0010
0001
0000
1000
0010
0001
0000
,
0100
1000
0010
0100
0001
1000
0010
0100
0001
1000
0010
0100
0002
0000
0010
0000
,
0103
0000
1000
0001
0100
0000
0001
0000
0010
0000
1000
0001
0100
0000
0010
0000
,
0100
0000
1000
0001
0100
0000
0010
0000
0001
1000
0001
0000
1000
0100
0010
0000
,
0001
0000
0000
1000
0000
0000
0100
0000
0000
0000
0000
0000
0001
0000
0000
1000
0000
0000
0001
0000
0000
0000
0000
0000
1000
0000
0000
0000
0000
0000
0001
0000
0000
0100
0000
0000
0001
0000
0010
0000
0100
0000
1000
0000
0001
0000
0100
0000
,
0010
0100
1000
0001
0100
0001
0200
0000
0000
0000
0000
0000
0320
0000
0000
2030
0000
0000
3200
0000
0000
0320
0000
0000
,
0032
0000
0000
0000
0000
0000
0000
0000
0000
0000
0000
0000
0000
0000
0000
0000
0000
0000
0000
0000
0000
0000
0000
0000
0003
0000
0000
0000
0000
0000
0000
0000
0000
0000
0000
0000
0000
0000
0000
0000
0000
0000
0010
0000
0000
0100
0000
0000
1000
0000
0000
0000
0000
0000
0000
0000
0000
0000
0000
0000
0000
0000
0000
0000
0000
0000
0000
0000
0000
0000
0000
0000
0010
0000
0000
0000
0000
0000
0000
0000
0000
0000
0000
0000
0000
0000
0000
0000
0000
0000
0100
0000
0000
0010
0000
0000
0001
0000
0000
0000
0000
0000
0000
0000
0000
0000
0000
0000
0000
0000
0000
0000
0000
0000
1000
0000
0000
0100
0000
0000
0010
0000
0000
0000
0000
0000
0000
0000
0001
0000
0000
0000
0000
0000
0000
0000
0010
0000
0000
0000
0000
0000
0000
0000
0001
0000
0000
0000
0000
0000
0000
0000
0000
0000
0000
0000
0000
0000
0000
0000
0000
0000
0000
0000
0000
0000
0000
0000
1000
0000
0000
0000
0000
0000
0000
0000
0000
0000
0000
0000
0000
0000
0000
0000
0000
0000
0000
0000
0000
0000
0000
0000
,
0001
0010
0100
1000
0010
0100
0001
1000
,
0100
0010
0001
0010
0100
0010
0001
0100
,
0010
1000
0001
0100
0010
1000
0010
1000
,
0001
0100
0001
0010
0100
0010
0200
0000
,
0310
0000
0010
1000
0100
0010
0100
1000
,
0010
1000
0100
1000
0010
0000
0020
0000
,
0130
0200
0310
1001
,
0000
0000
0000
0100
0000
0010
0000
0100
0000
0002
0000
0000
,
0000
0000
0000
0013
0000
0100
0000
0001
0000
0200
0000
0000
,
0000
0000
0000
0310
0000
1000
0000
0001
0000
1000
0000
0000
,
0000
0000
1000
0001
1000
0001
0010
1000
,
0001
0100
0001
0010
0100
0010
0100
1000
,
0010
1000
0001
1000
0100
0010
0100
0010
,
0100
0000
1000
0000
0001
0000
1000
0000
0010
0000
0100
0000
0001
1000
0010
0100
,
0001
1000
0010
0100
0001
1000
0100
0001
0010
0100
1000
0001
0200
0000
0000
0000
,
0320
0000
0000
0000
0230
0000
0000
0000
0300
0000
0001
1000
0010
0001
0100
0010
,
2000
0000
0000
0000
,
0000
0000
0000
0000
,
3001
0000
0000
0000
,
0010
0100
0001
1000
0010
0100
0010
0100
,
0001
0100
0010
1000
0100
0010
0001
0010
,
0100
0010
0100
1000
0010
0100
0010
1000
,
0010
1000
0001
0010
0100
0010
0001
0100
,
0001
0100
0001
0010
0100
1000
0001
0100
,
0010
1000
0010
0100
0010
1000
0100
0010
,
0100
1000
0010
1000
0001
0100
0001
0100
,
0001
0010
0100
0010
0001
0010
0100
1000
,
0100
0010
0100
1000
0001
0010
0001
0100
,
0001
1000
0010
1000
0010
1000
0100
0010
,
0001
1000
0100
0010
0100
0010
0100
1000
,
0010
1000
0001
0010
0001
0010
0100
0010
,
0100
1000
0010
0100
0010
1000
0100
1000
,
0100
0010
0100
0010
0001
0100
0010
0100
,
1000
0000
0000
0101
0000
0000
1001
0000
,
0110
0000
0000
0101
0000
0000
1001
0000
,
0010
1000
0010
0100
0001
1000
0100
0010
,
0001
0100
0010
0100
0001
1000
0100
0010
,
0001
0100
0001
0100
0001
0010
0100
0010
,
0100
1000
0100
1000
0010
1000
0001
0100
,
0001
1000
0001
1000
0010
1000
0010
0100
,
0001
0100
0010
0100
0001
1000
0100
0010
,
0100
1000
0010
1000
0001
0010
0001
0010
,
0001
0100
0010
0100
0010
0100
0001
1000
,
0100
0010
0001
0010
0100
0010
0100
1000
,
0020
0000
0130
1100
,
0000
0000
0101
0000
0000
0000
1000
0001
,
0200
0000
0320
0000
,
0032
0000
1000
0000
0103
0010
0100
1000
,
0010
0100
0010
0100
0001
1000
0010
1000
,
0001
0010
0100
0010
0100
1000
0100
0010
,
0001
0010
0100
0010
0001
0100
0001
1000
,
0001
0100
0010
1000
0001
0010
0001
1000
,
0010
0100
0001
0010
0100
1000
0010
0100
,
0001
0010
0001
0100
0001
1000
0100
0010
,
0100
0010
0001
0100
0010
0000
0000
0000
,
0000
0000
0000
0000
0001
0010
0100
1000
,
0001
0100
0010
0100
0001
0100
0001
0010
,
0100
0010
0100
1000
0001
1000
0001
0100
,
0001
0100
0010
0100
0001
1000
0010
0100
,
0010
0100
0010
1000
0100
1000
0001
0100
,
0001
0010
0001
1000
0100
0010
0100
0010
,
0100
1000
0010
0100
0010
1000
0001
0010
,
0001
1000
0100
1000
0100
1000
0001
0100
,
0010
0000
0000
0000
,
1000
0001
0100
0010
0100
0000
0010
0000
0100
0000
0010
0000
0001
1000
0001
0100
,
0010
0000
0100
0000
0001
0000
0010
0000
1000
0001
0100
0010
1000
0000
0100
0000
,
0010
0100
1000
0001
0100
0010
0001
0100
,
1000
0001
0100
0010
0100
0000
1000
0000
0001
0000
0010
0000
0100
0000
0010
0000
,
0100
1000
0001
1000
0100
1000
0010
0100
0001
0000
1000
0000
0001
0010
0100
0010
,
0100
0010
0001
1000
0100
0000
0001
0000
0001
0010
0100
0010
0001
1000
0010
0100
,
0010
1000
0010
1000
0100
0010
0100
0010
0100
1000
0010
1000
0010
1000
0001
0100
,
0001
1000
0010
0100
0001
0100
0001
0010
0001
0100
0010
1000
0010
1000
0010
0100
,
0100
1000
0100
0010
0100
0010
0001
0100
0010
1000
0001
0010
0001
0010
0100
1000
,
2002
0000
0000
0000
,
0000
0000
0000
0000
,
0000
0000
0000
0000
,
0000
0000
0000
0000
,
3003
0000
0000
0000
,
0000
0000
0000
0000
,
0220
0000
0000
0000
,
0000
0000
0330
0000
,
2002
0000
0000
0000
,
0000
0000
0000
0000
,
0000
0000
0000
0000
,
0000
0000
0000
0000
,
0000
0000
0000
0000
,
0000
0000
0000
0000
,
0000
0000
0000
0000
,
0000
0000
0000
0000
0000
0000
0000
0000
0000
0000
0000
0000
0000
0000
0000
0000
0000
0000
0000
0000
0000
0000
0000
3003
0000
0000
0000
0000
0000
0000
0000
0000
,
1001
0000
0000
0000
,
1001
0000
0000
0000
0000
1100
0000
0000
0000
0000
0000
0000
0000
0101
0000
0000
,
0000
0101
0000
0000
0000
0000
0000
0000
0000
1100
0000
0000
0000
0000
0000
0000
,
0000
0000
0000
0000
0000
0101
0000
0000
0000
0101
0000
0000
0000
0000
0000
0000
,
0000
0011
0000
0000
0000
0011
0000
0000
0000
0000
0000
0000
0000
1001
0000
0000
,
0000
1001
0000
0000
0000
0000
0000
0000
0000
0110
0000
0000
0000
0101
0000
0000
,
0000
0000
0000
0000
0000
0110
0000
0000
0000
1010
0000
0000
0000
0000
0000
0000
,
0000
0110
0000
0000
0000
1001
0000
0000
0000
0000
0000
0000
0100
0000
0000
0000
,
0010
0100
0010
0001
,
1000
0010
0100
0010
,
0100
0010
1000
0001
,
0010
0100
0010
0100
,
0100
1000
0010
1000
0001
0010
0001
0010
,
0001
0100
0010
1000
0001
1000
0010
0100
,
0010
0100
0010
1000
0001
1000
0010
1000
,
0100
0010
0100
1000
0010
1000
0001
0010
,
1001
0000
0000
0000
0001
0100
0010
0100
0010
0100
0001
1000
0010
1000
0010
1000
,
0001
0100
0010
1000
0010
1000
0001
0010
0001
1000
0100
0010
0001
0010
0100
1000
,
0010
1000
0100
1000
0100
0010
0001
0010
0001
0100
0010
1000
0001
0100
0010
1000
,
0100
0001
1000
0100
0010
0001
0100
0010
0001
0100
1000
0010
0100
0001
0010
0100
,
0010
0100
0001
0010
0100
0010
0001
0010
,
0001
0100
0001
0010
0100
0010
0001
0010
,
0001
0100
0001
0010
0100
1000
0010
1000
,
0100
0000
0000
0000
0010
0000
0000
0000
0001
0000
0000
0000
1000
0000
0000
0000
0110
0000
0000
0000
0000
0000
0000
0000
2002
3003
0000
0000
0000
0000
0000
0000
;
