
//----- song ID: kemo3 -----//
#TITLE:KE・MO・の・DA・MO・NO;
#ARTIST:どうぶつビスケッツ×PPP;
#TITLETRANSLIT:KE・MO・NO・DA・MO・NO;
#ARTISTTRANSLIT:Doubutsu biscuits×PPP;
#GENRE:けものフレンズ;
#MUSIC:KE MO NO DA MO NO.ogg;
#BANNER:KE MO NO DA MO NO.png;
#BACKGROUND:KE MO NO DA MO NO-bg.png;
#CDTITLE:./CDTitles/NSD A3.png;
#SAMPLESTART:39.230;
#SAMPLELENGTH:10.000;
#SELECTABLE:YES;
#OFFSET:0.000;
#BPMS:0.000=162.000;
#STOPS:;
#BGCHANGES:;
#FGCHANGES:;

//--------------- dance-single - ----------------
#NOTES:
     dance-single:
     :
     Beginner:
     3:
     0,0,0,0,0:
0000
0000
0000
0000
,
0000
0000
0000
0000
,
0000
0000
0000
0000
,
0000
0000
0000
0000
,
0001
0000
0000
0000
,
1000
0000
0000
0000
,
0010
0000
0100
0000
,
0001
0010
0100
0000
,
0001
0000
1000
0000
,
0000
0000
0001
0100
,
1000
0100
0001
0000
,
0100
0000
0010
0000
,
0100
0000
1000
0000
,
0001
0000
0010
0000
,
0100
0000
1000
0000
,
0001
0000
0010
0000
,
0100
0000
0010
0000
,
1000
0000
0000
1001
0000
0000
0000
0000
,
0000
0000
0010
0000
,
0100
0000
0010
0000
,
1000
0000
0001
0000
,
0010
0000
0100
0000
,
1000
0000
0001
0000
,
0010
0000
0100
0000
,
0010
0000
1000
0000
,
0001
0000
0010
0000
,
0000
0000
1001
0000
,
0100
0000
0001
0010
,
0100
0000
1000
0000
,
0001
0000
0010
0100
,
0001
0000
0010
0000
,
0100
0000
1000
0000
,
0001
0000
0010
0000
,
0100
0000
2000
0000
,
3001
0000
0002
0000
,
1003
0000
1000
0100
,
0010
0000
0002
0000
,
1003
0000
0010
0100
,
0010
0000
0001
0000
,
1000
0000
0100
0000
,
0010
0000
0001
0000
,
2002
0000
0000
0000
,
3003
0000
0000
0000
,
0000
0000
0010
0000
,
0000
0001
0000
1000
0000
0000
0000
0000
,
0000
0010
0000
0100
0000
0000
0000
0000
,
0000
0000
0000
0001
0000
0000
0000
0000
,
0000
0010
0000
0100
0000
0000
0000
0000
,
0000
1000
0000
0001
0000
0000
0000
0000
,
0000
0010
0000
0000
0000
0100
0000
0000
,
0000
1000
0000
0001
0000
0000
0000
1000
,
0000
0000
0000
1001
0000
0000
0000
0000
,
0000
0100
0000
0010
0000
0000
0000
0000
,
0000
1000
0000
0001
0000
0000
0000
0100
,
0000
0000
0000
0010
0000
0000
0000
1000
,
0000
0000
0000
0001
0000
0000
0000
0010
,
0000
0001
0000
1000
0000
0000
0000
0100
,
0000
0010
0000
1000
0000
0000
0000
0001
,
0000
0000
0000
0100
0000
0000
0000
1000
,
0000
0000
0000
0001
0000
0000
0000
0010
,
0000
0000
0000
0200
0000
0000
0000
0000
,
0000
0300
0000
0000
;

//--------------- dance-single - ----------------
#NOTES:
     dance-single:
     :
     Easy:
     6:
     0,0,0,0,0:
0000
0000
0000
0000
,
0000
0000
0000
0000
,
0000
0000
0000
0000
,
0000
0000
0000
0000
,
1000
0000
0001
0000
,
0010
0100
1000
0000
,
0001
0000
1000
0000
,
0001
0000
0010
0000
,
0100
0000
1000
0000
,
0001
0000
0010
0100
,
1000
0001
0100
0000
,
0010
0000
1000
0000
,
0001
0000
0010
1000
,
0100
0001
0010
1000
,
0001
0100
0010
0000
,
0100
0001
1000
0000
,
0001
1000
0010
0000
,
0100
0000
0000
0002
0000
0000
0000
0000
,
0003
0000
0010
0000
,
1000
0000
0001
0100
,
0010
0000
0100
0010
,
0100
0000
1000
0001
,
0100
0000
1001
0000
,
0100
0000
0010
0000
,
0001
0000
0010
0100
,
1000
0001
0100
0000
,
0000
0000
1001
0100
,
0010
0000
0100
0000
1000
0000
0001
0100
,
0010
0000
0001
0100
,
1000
0001
0100
0010
,
1001
0000
0100
0010
,
0001
0000
0010
0100
,
1000
0000
0001
0100
,
0010
0000
1000
0000
0001
0000
0100
1000
,
0001
0000
0100
0000
,
0010
0000
1000
0000
,
0001
0000
0010
0100
,
0010
0000
1000
0001
,
0100
0000
0010
0001
,
0010
0000
1000
0100
,
0010
0000
1001
0000
,
0001
0000
0000
1000
0000
0000
0100
0000
0000
0001
0000
0000
0100
0000
0000
0000
,
0110
0000
0010
0100
,
0010
0100
1000
0001
,
0100
0001
0000
0100
0000
0000
1000
0000
,
0010
0100
0000
0001
0000
0000
0010
0000
,
0100
0010
0000
1000
0000
0000
0001
0000
,
0100
0010
0000
1001
0000
0000
0100
0000
,
0010
0100
0000
0001
0000
0000
1000
0000
,
0001
0100
0000
0010
0000
1000
0000
0001
,
0000
0010
0100
2000
0000
0000
0000
0000
,
3001
0000
0001
0010
0000
0001
0000
0100
,
1000
0010
0000
1001
0000
0000
0010
0000
,
0010
0100
0000
0100
0000
0000
1000
0000
,
0001
1000
0001
1001
0000
0000
0010
0000
,
0100
0000
0001
0010
0000
1000
0000
0001
,
0010
0100
0000
0010
0000
0000
1000
0000
,
0001
0100
0000
1000
0000
0001
0010
0000
,
0100
0010
0100
1000
0000
0001
0010
0000
,
0100
1000
0000
0001
0000
0100
1000
0000
,
0001
0100
0000
2020
0000
0000
0000
0000
,
0000
0000
0000
3030
0000
0000
0000
0000
;

//--------------- dance-single - ----------------
#NOTES:
     dance-single:
     :
     Medium:
     10:
     0,0,0,0,0:
0000
0000
0000
0000
,
0000
0000
0000
0000
,
0000
0000
0000
0000
,
0000
0000
0000
0000
,
0001
0000
1000
0100
0010
0000
0010
0100
,
1000
0001
0100
0000
,
0010
0100
1000
0001
,
0100
0000
0010
0000
0100
1000
0001
0000
,
0100
0000
0010
0000
1000
0001
0010
0000
,
0100
1000
0001
0000
0010
0100
1000
0001
,
0010
0100
0001
0000
0020
0000
0000
0000
,
1030
0000
0000
0100
0000
0000
0020
0000
0000
0000
0000
0000
0031
0000
0000
0000
,
0100
0000
0000
1000
0000
0000
0001
0000
0010
0000
0000
0000
1000
0000
0000
0000
,
0001
0100
0010
1000
,
0001
0000
1001
0000
0010
0000
0100
1000
,
0001
0000
0000
0010
0000
0000
0100
0000
0000
0000
0000
0000
0000
0000
0000
0000
,
1000
0000
0000
0001
0000
0000
0100
0000
0010
0000
0000
0000
0000
0000
0000
0000
,
1000
0000
0000
0001
0000
0000
0220
0000
0000
0000
0000
0000
0000
0000
0000
0000
,
0330
1000
0010
0100
,
1000
0001
0100
0010
,
1000
0000
0001
0000
0100
1000
0001
0000
,
0010
0000
0100
0000
0001
1000
0001
0000
,
0100
0000
0010
0100
1000
0000
0010
0100
,
0001
0000
0100
0010
1000
0000
0001
0100
,
0010
0100
2000
0000
,
3200
0000
0000
0000
0310
0000
0001
1000
,
0001
0010
0100
1100
,
0100
0000
0110
0000
0001
0000
0010
0100
,
1000
0000
0000
0000
0001
0010
0100
0000
,
0001
1000
0001
0000
0100
0000
0010
0000
,
1001
0000
0000
0000
0010
0100
1000
0000
,
0001
1000
0001
0000
0100
0000
0100
0000
,
1001
0000
0000
0000
0010
0000
0100
0010
,
0100
0000
1000
0001
0100
0000
0010
0000
,
0100
0000
1000
0000
0001
0000
0010
0001
,
0100
0000
1000
0000
0001
0000
0100
1000
,
0001
0000
0100
0000
0010
0100
1000
0000
,
0001
0010
0100
0000
0001
0000
1000
0001
,
0100
0000
0010
0000
0100
1000
0001
0000
,
0010
0100
1000
0001
,
0010
0100
1001
0000
,
0100
0000
0000
0010
0000
0000
0100
0000
0000
1000
0000
0000
0001
0000
0000
0000
,
1001
0000
0010
0000
0100
1000
0001
0000
,
0100
0010
0100
0000
1000
0000
0100
0001
,
0000
0010
0000
1001
0000
0100
0010
0001
,
0000
0010
0100
1000
0000
0010
0001
0100
,
0000
1000
0000
0010
0000
0000
0001
0000
,
1000
0000
0010
0100
0000
0000
0100
0001
,
0000
0110
0000
1001
0000
0100
0010
0001
,
0000
0001
0100
1000
0000
0010
0001
0100
,
0000
1000
0000
0010
0000
0000
0001
1000
,
0010
0001
0000
0100
0000
0000
0100
0001
,
0000
0110
0000
1001
0000
0100
0010
0001
,
1000
0010
0100
1000
0000
0010
0001
0100
,
0000
1000
0000
0010
0000
0000
0001
0000
,
1000
0010
0000
0100
0000
0010
0100
0001
,
0000
0110
0000
1001
0000
0100
0010
0001
,
0000
1000
0100
0001
0010
0000
0001
0100
,
0000
1000
0000
0010
0000
0000
0001
1000
,
0001
0100
0000
0010
0000
0000
1000
0000
,
0001
0010
0100
2200
0000
0000
0000
0000
,
0000
3300
0000
0000
;

//--------------- dance-single - ----------------
#NOTES:
     dance-single:
     :
     Hard:
     14:
     0,0,0,0,0:
0000
0000
0000
0000
,
0000
0000
0000
0000
,
0000
0000
0000
0000
,
0000
0000
0000
0000
,
0101
0000
0010
0100
1000
0000
0001
0010
,
0100
0000
1001
0000
0100
0010
0001
1000
,
0001
0100
0010
0100
1000
0001
0010
0100
,
1000
0001
0010
0100
0010
0001
0100
1000
,
0001
0010
0100
1000
0010
0100
1000
0001
,
0020
0000
1030
0000
0001
0010
0100
1000
,
0100
0010
0001
0010
0100
0000
0010
1000
,
0001
0000
0000
1001
0000
0000
0110
0000
0000
0000
0001
0000
0010
0000
0100
0000
,
1000
0000
0000
0001
0000
0000
0100
0000
0010
0000
0000
0000
2002
3003
0000
0000
,
0010
0000
0000
0000
2020
3030
0000
0000
0001
0000
0000
0000
0202
0303
0000
0000
,
0010
0000
0000
0000
0220
0330
0000
0000
2000
0000
0000
0000
3001
0000
0010
0000
,
0100
0000
0000
1000
0000
0000
2002
0000
0000
3003
0000
0010
0100
0000
0010
0000
,
1000
0000
0000
0001
0000
0000
0100
0000
1000
0000
0100
0000
1100
0000
0000
0000
,
0010
0000
0000
0100
0000
0000
2002
0000
0000
0000
0000
0000
0000
0000
0000
0000
,
3003
0010
0100
1000
0020
0000
0031
2000
,
0000
0000
3010
0200
0000
0000
0300
0000
,
0001
0010
0100
2000
0010
0000
3001
0020
,
0000
1030
0100
0020
0000
0000
0031
1000
,
0100
0000
0010
1000
0001
0000
0010
0000
0100
0000
0001
0000
1000
0000
0000
0000
,
0010
0100
1000
0000
0001
0010
0100
0000
,
0001
0010
0100
0000
0001
0010
0100
1000
,
0001
0010
0100
1000
0000
0000
0200
0000
,
0010
0310
1001
0010
,
0110
0000
1000
0000
0001
0000
0010
0100
,
1000
0000
1001
0000
0100
0010
0100
0000
,
1000
0001
0010
0000
0100
0000
1001
0000
,
0110
0000
0000
0000
0001
0010
0100
0000
,
1000
0001
0010
0000
0100
1000
0001
0010
,
0100
0000
0010
0000
0100
1000
0001
0010
,
0100
0000
1000
0001
0010
0001
0100
1000
,
0001
0000
0000
0000
0100
0000
1000
0000
0001
0000
0000
0000
0010
0000
0100
0010
,
1000
0000
0001
0000
0010
0000
0000
0000
0100
0000
0001
0000
0010
0000
0100
0001
,
1000
0000
0001
0000
0010
0000
0000
0000
0100
0000
0001
0000
0010
0000
0100
0001
,
1000
0010
0100
0001
0100
1000
0001
0010
,
0100
0000
0000
0001
1000
0010
0001
0000
0100
0000
0000
0000
0010
0000
0100
0000
,
1000
0001
0010
0000
0100
0010
0100
1000
,
0001
0010
0120
0030
,
0001
0000
0000
0010
0000
0000
0100
0000
0000
0000
1000
0000
0000
0001
0000
0000
,
1001
0000
0000
0000
0010
0010
0100
0100
,
1000
0001
1000
0001
0100
0000
0010
1000
,
0000
0110
0000
1001
0000
0010
0100
1000
,
0000
0001
0010
0001
0100
0000
1000
0010
,
1000
0001
0010
0200
0000
0000
1300
0010
,
0001
1000
0100
0010
0000
0001
0010
1000
,
0000
0110
0000
1001
0000
0010
0100
1000
,
0001
1000
0000
1001
0000
0010
1000
0010
,
1000
0001
0010
0100
0000
0000
1000
0001
,
0000
0000
1000
0100
0001
0000
0010
0000
1000
0000
0000
0000
0010
0000
1000
0000
,
0001
0110
0000
1001
0100
0010
0100
1000
,
0100
0001
0000
0010
0100
0001
1000
0010
,
1000
0001
0010
0200
0000
0000
1300
0000
,
0001
1000
0100
0010
0000
1000
0010
1000
,
0000
0110
0000
1001
0000
0010
0100
1000
,
0001
0100
0000
1001
0000
0100
1000
0010
,
1000
0001
0010
0200
0000
0000
1300
0000
,
0001
0010
0100
1000
0000
0001
0010
0100
,
0001
0010
0100
2002
0000
0000
0000
0000
,
0000
3003
0000
0000
;
