#TITLE:女装のNSD我こそがメシア。縄跳び女子とぴょんぴょんセッション;
#ARTIST:こはる。VS 啓太郎内田;
#TITLETRANSLIT:Joso no NSD ga koso ga meshia. Nawatobi joshi to pyonpyon sesion;
#ARTISTTRANSLIT:Koharu, VS Kentaro Uchida;
#GENRE:ナムコオリジナル;
#MUSIC:Joso no NSD ga koso ga meshia. Nawatobi joshi to pyonpyon sesion.ogg;
#BANNER:Joso no NSD ga koso ga meshia. Nawatobi joshi to pyonpyon sesion.png;
#BACKGROUND:Joso no NSD ga koso ga meshia. Nawatobi joshi to pyonpyon sesion-bg.png;
#CDTITLE:./CDTitles/NSD A3.png;
#SAMPLESTART:54.872;
#SAMPLELENGTH:15.000;
#SELECTABLE:YES;
#OFFSET:0.000;
#BPMS:0.000=176.000
,240.000=88.000
,242.000=176.000
,275.000=88.000
,276.000=176.000
;
#STOPS:;
#BGCHANGES:;
#FGCHANGES:;

//--------------- dance-single - ----------------
#NOTES:
     dance-single:
     :
     Beginner:
     5:
     0,0,0,0,0:
0000
0000
0000
0000
,
0000
0000
0000
0000
,
0000
0000
0000
0000
,
0000
0000
0000
0000
,
0000
0000
0000
0000
,
0100
0000
0100
0000
,
0100
0000
0100
0000
,
0100
0000
0100
0000
,
0100
0000
0100
0000
,
0010
0000
0010
0000
,
0010
0000
0010
0000
,
0010
0000
0010
0000
,
1000
0001
1000
0000
,
1001
0000
0100
0000
,
1000
0001
0100
0000
,
0010
0000
0001
0000
,
0010
0100
1000
0000
,
0001
0000
0100
0000
,
0010
1000
0001
0000
,
0100
0000
0010
0000
,
0001
1000
2002
0000
,
3003
0010
0000
0000
,
0001
1000
0000
0000
,
0001
0000
1000
0000
,
0001
0100
0000
1000
,
0001
0100
1000
0001
,
0000
0100
0001
0100
,
0000
1000
0001
0100
,
0010
1000
0001
0100
,
0010
2002
0000
0000
,
0000
0000
0000
3003
,
0000
0000
0000
0000
,
0000
1000
0000
0001
,
0000
0100
0000
0010
,
0000
0001
0010
1000
,
0000
0001
0000
1000
,
0000
0100
0010
0001
,
0000
0100
1000
0001
,
0000
0100
1000
0001
,
0010
0200
0000
0000
,
0301
0000
1000
0100
0000
0001
0000
1000
,
0001
0000
0010
0100
0000
1000
0000
0001
,
1000
0200
0310
1000
,
0001
1000
0001
0100
,
0010
0001
0000
0100
,
0000
0001
0100
1000
,
0000
0001
0000
0010
,
0000
0001
0100
1000
,
0000
0100
0001
0010
,
0000
0100
0001
1000
,
0100
0001
0000
1000
,
0000
0001
1000
0001
,
0000
0100
1000
0010
,
0000
1000
0100
0001
,
0000
0100
1000
0010
,
0000
0100
0000
0010
,
0000
0100
0010
0100
,
0000
0001
1000
0010
,
0000
0100
0001
1000
,
0010
0100
1000
0100
,
0000
0000
0000
1000
,
0000
0100
0001
0000
,
0000
1000
1000
0010
,
0000
0100
1000
0010
,
0000
0100
0100
0001
,
1000
0001
0010
0000
,
1000
0001
0001
1000
,
0000
0001
0000
0010
,
0000
0000
0100
0000
0000
0000
0100
0001
,
0100
0100
0001
0000
0100
0100
0001
0100
,
0000
0100
0001
0000
0100
0000
0001
0000
,
0100
0100
0001
0000
0100
0100
0001
0100
,
0000
0100
0001
0000
1000
0000
0001
0000
,
0010
0001
0010
0000
0001
0000
0100
0000
,
0010
0100
0010
0000
1000
0000
0001
0000
,
0100
0000
0010
0000
1000
0010
1000
0000
,
0001
1001
1000
0100
,
1000
0100
0010
0001
,
0010
0001
0010
0000
0001
0000
0100
0000
,
0010
1000
0001
0100
,
1000
0001
0010
0000
0100
0000
1000
0001
,
0000
0000
0100
0100
0001
0000
2000
0002
,
0000
3003
0000
0000
0000
0000
0000
0000
;

//--------------- dance-single - ----------------
#NOTES:
     dance-single:
     :
     Easy:
     9:
     0,0,0,0,0:
0000
0000
0000
0000
,
0000
0000
0000
0000
,
0000
0000
0000
0000
,
0000
0000
0000
0000
,
0000
0000
0000
0000
,
0100
1000
0100
0001
,
0100
1000
0100
0001
,
0100
1000
0100
0001
,
0100
1000
0100
0001
,
0010
1000
0010
0001
,
0010
1000
0010
0001
,
0010
0000
1000
0000
0001
1000
0001
0000
,
0010
1000
0001
0000
0100
1000
0001
0000
,
1000
1000
0001
0100
,
0010
0110
1000
1001
,
0001
0001
1000
0010
,
0100
0110
0001
1001
,
1000
0100
1000
0100
,
0010
0001
0010
0001
,
1000
0100
0010
0001
,
1000
0100
0010
0001
,
1001
0000
0110
0000
,
0001
0100
0010
0110
,
0000
1000
0000
0001
,
1000
0001
0000
0110
,
0001
0000
1000
0000
0001
0000
0010
0001
,
0010
0000
0001
0000
0100
0000
0010
0100
,
0010
1000
0001
0100
,
0010
0000
1000
0010
1000
0000
0001
0000
,
0100
2002
0000
0000
,
0000
0000
0000
0000
,
3003
0000
0000
0000
,
0000
1000
0100
1000
,
0100
0000
0010
0000
0001
0000
0010
0001
,
0010
0001
0100
0010
,
1000
0000
0001
0000
0100
0000
0001
0100
,
0001
1000
0010
0100
,
0110
0001
1000
0001
,
1001
1000
0100
1100
,
1001
0001
0010
0011
,
1001
0010
0100
0010
,
0110
1000
0001
1000
,
1001
0001
0100
0001
,
0100
0000
0010
1000
0010
1000
0010
0000
,
0100
0101
1000
0010
,
0100
0010
0100
0010
,
1000
0100
1000
0001
,
0100
0010
0100
1001
,
0100
0010
0001
1000
,
0010
0100
0010
1000
,
0010
0100
0001
0100
,
0001
0010
0100
1000
,
0010
0000
0100
0000
0010
1000
0100
0000
,
0010
0000
1000
0000
0001
0010
0100
0000
,
0010
0000
1000
0000
0010
0001
1000
0000
,
0001
0000
0010
1000
0001
0000
0100
0010
,
0001
0000
0100
0000
0010
0000
1000
0001
,
0010
0000
1000
0000
0001
1000
0100
0000
,
0010
0000
1000
0001
0010
0000
1000
0100
,
0010
0100
0001
1000
,
2002
0000
3003
0001
,
1000
0000
0000
0000
0010
0000
0000
0010
0000
0000
0010
0000
1000
0000
0000
0000
,
0001
0000
0000
0000
0100
0000
0000
0100
0000
0000
0100
0000
0010
0000
0000
0000
,
0100
0000
0000
0000
0001
0000
0000
0001
0000
0000
0001
0000
1000
0000
0000
0000
,
0100
0010
0001
1000
,
0001
0000
0000
0000
0100
0000
0000
0100
0000
0000
0100
0000
0001
0000
0000
0000
,
1000
0000
0000
0000
0010
0000
0000
0010
0000
0000
0010
0000
0100
0000
0000
0000
,
0010
0000
0000
0000
1000
0000
0000
1000
0000
0000
1000
0000
0001
0000
0000
0000
,
0010
0000
0100
0010
0100
0000
0100
0001
,
0100
0100
0001
0000
0100
0100
0001
0100
,
0000
0100
0100
0000
0100
0000
0001
0000
,
0100
0100
0001
0000
0100
0100
0001
0100
,
0000
0100
1001
0000
1000
1000
0000
0001
,
0001
0000
1000
1000
0000
0001
0001
0000
,
0100
0000
0100
0000
0000
0010
0010
0000
,
0100
0100
0000
0010
0010
0000
0100
0100
,
0001
0000
0001
0000
1000
1000
0000
0100
,
0100
0000
1000
1000
0000
0001
0001
0000
,
1001
0000
1001
0000
0000
0001
0001
0000
,
0100
0100
0000
0010
0010
0000
1000
0000
,
0100
0010
0110
0000
,
0000
0000
0100
0100
0001
0000
2000
0002
,
0000
3003
0000
0000
0000
0000
0000
0000
;

//--------------- dance-single - ----------------
#NOTES:
     dance-single:
     :
     Medium:
     12:
     0,0,0,0,0:
0000
0000
0000
0000
,
0000
0000
0000
0000
,
0000
0000
0000
0000
,
0000
0000
0000
0000
,
0000
0000
0000
0000
,
0001
0101
0100
1100
,
0100
0101
0100
1100
,
0100
0101
0100
1100
,
0100
0010
0001
0000
1000
0001
0100
0000
,
0010
0011
0010
1010
,
0010
0011
0010
1010
,
0010
0011
0010
1010
,
0001
0100
1000
0000
0001
1000
0001
0100
,
0010
0100
0010
0000
1000
0100
0010
0000
,
0001
0000
0100
0000
0000
0100
0000
0000
0010
0000
1000
0000
0010
0000
0000
0000
,
1000
0000
0100
0000
0000
0100
0000
0000
0010
0000
0001
0000
0010
0000
0000
0000
,
0001
0000
1000
0000
0000
1000
0000
0000
0010
0000
0100
0000
0010
0000
0000
0000
,
1000
0100
1000
0000
0001
0010
0100
0000
,
1000
0000
0010
0000
0000
0010
0000
0000
0100
0000
0000
0001
0000
0000
1000
0000
,
0001
0000
0100
0000
0010
0100
0000
0000
0001
0000
0000
0010
0000
0000
0100
0000
,
1000
0000
0010
0000
0100
0010
0000
0000
1000
0000
0001
0100
0000
0001
0100
0000
,
0002
0000
0013
1000
0100
0000
0010
0001
,
0100
0000
0010
1000
0010
0000
0001
0010
,
0001
0000
1000
0100
0010
0000
0001
0100
,
0010
0000
1000
0100
0010
0000
0001
0100
,
0010
0000
0010
1000
0010
1000
0001
0010
,
0100
0000
0010
0001
0010
0001
1000
0100
,
0010
0000
0001
0100
0010
1000
0001
0100
,
0010
1000
0001
0100
0001
0100
0010
1000
,
0002
0000
0000
0000
0000
0000
2003
0000
0000
0000
0000
0000
0000
0000
0000
0000
0000
0000
0000
3002
0000
0000
0000
0000
,
0000
0000
0000
0000
0203
0000
0000
0000
0000
0000
0000
0000
0310
0000
0000
0010
0000
0000
2000
0000
0000
0000
0000
0000
,
3001
0000
0110
0000
0001
1000
0000
0000
,
1001
0000
1000
0100
1000
0100
0010
0001
,
0010
0000
0001
0100
0001
0000
1000
0010
,
1000
0000
0000
0000
0001
0000
0100
0000
0000
0100
0000
0000
0010
0000
0000
0010
,
0000
0000
0010
0000
1000
0000
0100
0000
1000
0000
0000
0000
0001
0000
0010
0001
,
0000
0010
0001
0000
1000
0000
0100
0000
0010
0000
0001
0000
1000
0000
0010
0000
,
1000
0010
0100
0001
0010
0000
0001
0100
,
0010
0000
0000
0000
1000
0000
0001
0000
0000
0100
0000
0000
0001
0000
0000
1000
,
0000
0000
0100
0000
1000
0000
0010
0000
0100
0010
0000
0000
1000
0000
0001
0100
,
0000
0001
0100
0000
0010
0000
1000
0000
0000
0000
0101
0000
0000
0000
0100
0000
,
1000
0000
0001
0010
0000
1001
0000
0010
,
0100
2000
3002
0000
,
2003
0000
3100
0010
,
0001
0010
0100
0000
0001
0010
0100
0000
,
0010
0001
0010
0000
0100
1000
0100
0000
,
1000
0000
0001
0000
0000
0001
0000
0000
0100
0000
0000
0100
0000
0000
0100
0000
,
0010
0000
1000
0000
0010
0000
1000
0000
0100
0000
0010
0001
0000
0010
0001
0000
,
1000
0010
1000
0000
0100
0001
1000
0000
,
0001
0010
0001
0000
0100
1000
0001
0000
,
1000
0000
0100
0000
1000
0000
0100
0001
,
1000
0100
0010
0000
0001
0100
0010
0000
,
0001
0000
0100
0000
0010
0000
0000
0000
1000
0000
0000
0100
0000
0000
0010
0000
,
0001
0000
1000
0000
0100
0000
0000
0000
0010
0000
0000
0001
0000
0000
1000
0000
,
0010
0000
1000
0000
0100
0000
0000
0000
0010
0000
0000
0001
0000
0000
0100
0000
,
0010
0100
0010
0000
1000
0000
1001
0000
,
0001
0000
0100
0000
0001
0000
0000
0000
0010
0000
0000
0010
0000
0000
0010
0000
,
0100
0000
1000
0000
0100
0000
0000
0000
1000
0000
0000
0010
0000
0000
0100
0000
,
0010
0000
1000
0000
0010
0000
0000
0000
0100
0000
0000
0100
0000
0000
0100
0000
,
0001
0010
0001
0010
0001
0000
1001
0000
,
1000
0010
2000
0000
3000
0000
0001
1000
,
0000
0100
0010
0001
0010
0000
0001
0100
,
0000
0010
1000
0010
1000
0000
0100
0010
,
0000
0000
0001
0000
1000
0000
0000
0000
0110
0000
0000
0000
0001
0000
0100
0001
,
0000
0100
1000
0000
0010
0000
0000
0000
0001
0000
0000
0000
1000
0000
0001
0010
,
0000
0001
0010
0000
0100
0000
1000
0000
0100
0000
0000
0000
1000
0000
0010
0100
,
0000
0010
0100
0000
0001
0000
0100
0000
0001
0000
0000
0000
0010
0000
0100
1000
,
0000
0100
1000
0000
0001
0000
0000
0000
0110
0000
0000
0000
1000
0000
0010
1000
,
0000
0010
0001
0000
0100
0000
0001
0000
1000
0000
0010
0000
0100
0000
0001
0000
,
0100
0100
0001
0000
0100
0100
0001
0100
,
0000
0100
0100
0000
0100
0000
0001
0000
,
0100
0100
0001
0000
0100
0100
0001
0100
,
0000
0100
1001
0000
0001
0010
0001
1000
,
0001
0010
0100
0000
0010
1000
0010
0100
,
0001
1000
0100
0010
0100
1000
0001
1000
,
0010
0100
0001
0000
0001
1000
0001
0010
,
0100
0010
0001
0000
1000
0010
1000
0010
,
1000
0000
0110
0000
0001
1000
0100
1000
,
0001
0000
0100
0000
1000
0010
0100
0001
,
0010
0000
1000
0010
1000
0100
0010
0001
,
0100
0010
0100
0000
0001
1000
0010
1000
,
0000
0000
0100
0100
0001
0000
2000
0002
,
0000
3003
0000
0000
0000
0000
0000
0000
;

//--------------- dance-single - ----------------
#NOTES:
     dance-single:
     :
     Hard:
     16:
     0,0,0,0,0:
0000
0000
0000
0000
,
0000
0000
0000
0000
,
0000
0000
0000
0000
,
0000
0000
0000
0000
,
0000
0000
0000
0000
,
0001
0100
0001
0100
0010
1000
0010
1000
,
0100
0010
0100
0010
0100
1000
0001
0010
,
0001
1000
0001
0100
0010
1000
0010
0100
,
0001
0100
0001
0010
0100
0010
0001
1000
,
0100
0000
1000
0000
0100
0001
1000
0000
0001
0100
0010
0000
0100
0000
1000
0000
,
0010
0001
0100
0000
0010
1000
0100
0000
0010
0000
1000
0000
0100
0001
1000
0100
,
0010
0000
1000
0000
0100
0001
0010
0000
0100
1000
0010
0000
0001
0000
0100
0000
,
0001
0010
1000
0000
0100
0001
0010
0000
0100
0001
1000
0000
0010
0100
1000
0100
,
0010
0001
0100
1000
0100
1000
0001
0100
,
0010
0100
0001
0100
0001
1000
0010
0100
,
0010
0100
0010
1000
0001
1000
0001
0100
,
0001
1000
0100
1000
0100
1000
0001
0100
,
0001
0100
0010
0100
0010
1000
0001
0100
,
0010
1000
0010
1000
0001
0010
0001
0010
,
0001
1000
0100
1000
0100
1000
0010
0100
,
0010
1000
0010
1000
0001
0010
0001
2000
,
3000
0000
0220
0000
0330
0001
0000
1000
,
0001
0020
2030
0000
,
3002
0000
0000
0000
1003
0100
0000
0001
,
0110
0000
1001
0000
1000
0001
1000
0000
,
0101
0000
1001
0010
0100
0010
0100
0010
,
1000
0001
0010
0001
0100
0001
0010
0100
,
0010
0100
0010
0001
1000
0001
0010
0001
,
0100
0010
1000
0100
1000
0010
0100
0010
,
2000
0000
0000
0000
0000
0000
3002
0000
0000
0000
0000
0000
0000
0000
0000
0000
0000
0000
0000
2003
0000
0000
0000
0000
,
0000
0000
0000
0000
3020
0000
0000
0000
0000
0000
0000
0000
0130
0000
0000
0100
0000
0000
0002
0000
0000
0000
0000
0000
,
1003
0000
0110
0000
1000
0001
0000
0000
,
1001
0000
0001
0100
0001
1000
0010
1000
,
0100
1000
0010
0100
0001
1000
0010
1000
,
0001
0010
0100
0010
0001
1000
0100
1000
,
0001
0010
0001
0010
0001
0100
0010
0100
,
0010
0000
0100
0000
0001
1000
0010
0000
0100
0000
0010
0000
0001
0010
1000
0000
,
0001
0000
0100
0000
0010
1000
0100
0000
0001
0000
0010
0000
0100
0001
1000
0000
,
0010
0000
1000
0000
0100
0001
1000
0000
0010
1000
0100
0000
0010
0001
0100
0000
,
0001
1000
0100
0000
0010
0001
1000
0010
0100
1000
0010
0001
0100
1000
0010
0100
,
0020
0000
0130
1001
0000
0101
0000
1001
,
0101
0000
1001
0110
0000
1010
0000
1001
,
0220
0000
0000
0330
1001
0000
0101
0000
,
2002
3003
0220
0330
,
1001
0000
0000
0000
1000
0000
0010
0000
0001
0100
0000
0010
1000
0000
0010
0000
,
0100
0000
0001
0000
1000
0000
0001
1000
0010
0000
0001
0000
0100
0000
0010
0000
,
1000
0000
0001
0000
0010
1000
0000
0001
0100
0000
0010
0000
1000
0000
0010
0000
,
1000
0000
0001
0000
0010
0001
0100
0010
1000
0000
0100
0000
1000
0000
0010
0000
,
1000
0001
0010
0000
0100
1000
0010
0000
0100
0000
0001
0000
0100
0001
0000
0100
,
1000
0000
0001
0000
0010
1000
0001
0010
0100
0000
0010
0000
0100
0000
0001
0000
,
0100
0000
0001
0000
0010
1000
0001
0000
1000
0000
0100
0010
1000
0001
0000
0100
,
0010
0000
0100
0000
1000
0010
0001
1000
0100
0000
0001
0010
0100
1000
0010
0001
,
0100
0010
1000
0100
0010
0100
1000
0100
,
1000
0000
0010
0000
0100
0001
0010
0000
1000
0000
0010
0000
0100
0000
0001
0000
,
0100
1000
0000
0001
0100
0000
0010
0000
1000
0010
0000
0001
1000
0000
0100
0000
,
0010
0000
0100
0000
0010
1000
0001
0000
0010
0001
0100
0000
1000
0000
0001
0100
,
1000
0000
0010
0000
0100
1000
0001
0000
1000
0000
0001
0000
0010
0000
0100
0000
,
1000
0000
0001
0000
0100
0001
0010
0000
1000
0000
0100
0000
1000
0000
0001
0000
,
1000
0000
0010
0000
0100
1000
0001
0000
0100
0000
0010
0000
0100
0001
0010
0000
,
1000
0000
0100
0000
1000
0010
0001
0000
0100
1000
0010
0000
0100
0000
0010
0000
,
0200
0000
0000
0000
0310
0000
0001
0100
,
0010
0100
0010
1000
0100
1000
0010
1000
,
0100
0000
0010
0000
0001
0000
0010
0000
0100
0001
1000
0010
0001
0000
0010
0000
,
0100
1000
0010
1000
0010
1000
0001
0100
,
0001
0000
1000
0000
0010
0100
1000
0001
0010
0000
0100
0000
0010
0000
1000
0000
,
0001
0100
0001
0100
0001
0010
0100
1000
,
0001
0000
0010
0000
0100
0000
1000
0000
0100
1000
0010
0100
0001
0000
0100
0000
,
0001
1000
0100
1000
0010
0100
0010
1000
,
0100
0010
0001
0100
0001
0200
0000
0000
,
0000
0000
0000
0000
0300
0000
0000
0000
0100
0000
0001
0010
1000
0000
0000
0000
,
0100
0100
0001
0000
0100
0100
0001
0100
,
1000
0000
0100
0000
0001
0000
0000
0000
0100
0000
0100
0000
0001
0010
1000
0001
,
0100
0000
1001
0000
0110
1000
0100
0010
,
0001
1000
0001
1000
0010
1000
0010
0100
,
0001
0000
1000
0100
0010
0000
0100
1000
0001
0000
0100
0000
0010
0000
1000
0000
,
0001
0000
0100
0000
0001
0000
0100
0000
0010
0001
0100
0000
0010
0100
1000
0000
,
0100
0000
1000
0000
0010
0000
1000
0001
0100
0000
0010
1000
0100
0000
0010
0000
,
0100
0000
1000
0000
0010
0000
0100
0000
0010
0001
1000
0000
0100
0001
1000
0000
,
0001
0000
1000
0000
0010
0000
0100
0000
0010
0000
0100
1000
0001
0000
0010
0000
,
0001
0000
1000
0000
0100
0000
1000
0001
0100
0000
0010
0000
0001
0100
1000
0001
,
0100
0010
0100
1000
0010
0100
0001
1000
,
0000
0000
0100
0100
0001
0000
2000
0002
,
0000
3003
0000
0000
0000
0000
0000
0000
;
