#TITLE:It's a Juicy stew,;
#ARTIST:ACTRock feat. みゅい;
#ARTISTTRANSLIT:ACTRock feat. Myui;
#GENRE:miHoYo×SEGA 2021真夏の歌合戦5番勝負;
#MUSIC:It's a Juicy stew.ogg;
#BANNER:It's a Juicy stew.png;
#BACKGROUND:It's a Juicy stew-bg.png;
#CDTITLE:./CDTitles/NAMCO MUSEUM.png;
#SAMPLESTART:56.221;
#SAMPLELENGTH:11.664;
#SELECTABLE:YES;
#OFFSET:0.000;
#BPMS:0.000=175.000;
#STOPS:;
#BGCHANGES:;
#FGCHANGES:;

//--------------- dance-single - ----------------
#NOTES:
     dance-single:
     :
     Beginner:
     3:
     0,0,0,0,0:
0000
0000
0000
0000
,
0000
0000
0000
0000
,
0000
0000
0000
0000
,
0000
0000
0000
0000
,
0000
0000
0000
0000
,
1000
0000
0001
0000
,
0100
1000
0001
0000
,
1000
0000
0100
0000
,
0001
0000
0100
0000
,
0010
0000
1000
0000
,
0001
0000
0100
0000
,
0010
0000
0000
0000
,
0000
0000
0000
0000
,
1000
0000
0000
0000
,
0001
0000
0000
0000
,
0100
0000
0000
0010
,
0000
0000
0000
0000
,
1000
0000
0000
0010
,
0000
0000
0000
0000
,
0001
0000
0000
0100
,
0000
0000
0000
0000
,
1000
0000
0001
0000
,
0100
0000
0000
0000
,
0010
0000
0100
0000
,
1000
0000
0000
0000
,
0001
0000
0010
0000
,
0001
0000
0000
0000
,
0100
0000
0010
0000
,
0100
0000
0000
0000
,
1000
0000
0000
0000
,
0001
0000
0000
0000
,
0100
0000
0000
0000
,
0010
0000
0000
0000
,
0100
0000
0001
0000
,
1000
0000
0000
0000
,
0001
0000
0100
0000
,
0010
0000
0000
0000
,
0100
0000
0010
0000
,
0001
0000
0000
0000
,
1000
0000
0001
0000
,
0100
0000
0010
0000
,
1001
0000
0100
0000
,
0001
0010
0100
0000
,
1000
0000
0001
0000
,
0100
0010
1000
0000
,
0001
0000
0100
0000
,
0010
0000
0000
0000
,
1000
0000
0001
0000
,
0100
0000
0000
0000
,
0010
0000
0001
0000
,
1000
0000
0000
0000
,
0010
0000
0100
0000
,
0010
0000
0000
0000
,
0001
0000
1000
0000
,
0001
0000
0000
0000
,
0010
0100
1000
0000
,
0001
1000
0001
0000
,
0020
0000
0000
0030
,
0000
0000
0000
0000
,
0200
0000
0000
0300
,
0000
0000
0000
0000
,
0002
0000
0000
0003
,
2000
0000
0000
3000
,
1001
0000
0000
0000
,
0000
0000
0000
0000
,
0010
0000
0100
0000
,
1000
0000
0001
0000
,
0010
0000
0100
0000
,
0010
0000
0001
0000
,
1000
0000
0001
0000
,
0010
0000
0100
0000
,
1000
0001
0100
0000
,
0010
1000
0001
0000
,
0100
0000
0000
0000
,
0000
0000
0000
0000
,
0010
0000
0000
0100
0000
0000
0000
1001
;

//--------------- dance-single - ----------------
#NOTES:
     dance-single:
     :
     Easy:
     7:
     0,0,0,0,0:
0000
0000
0000
0000
,
0000
0000
0000
0000
,
0000
0000
0000
0000
,
0000
0000
0000
0000
,
0000
0000
0000
0000
,
1000
0000
0100
0000
,
0001
0000
0000
1000
,
0010
0000
1000
0000
,
0001
0100
0010
0001
,
1000
0001
0100
0010
,
0001
1000
0002
0000
,
1003
0000
0000
0100
0000
0000
0010
0000
,
0000
0001
0000
0000
,
1000
0001
0100
0010
,
0100
0001
1000
0001
,
0100
0010
1000
0001
,
0100
0010
0100
0000
,
0010
0001
1000
0001
,
0100
0010
0100
0000
,
0010
0001
1000
0001
,
0100
0010
1000
0000
,
0001
0100
0010
0001
,
1000
0001
0100
0000
0010
0000
1000
0000
,
0001
0100
0010
1000
,
0001
0010
0100
0000
1000
0000
0001
0000
,
0010
0000
1000
0000
0001
0010
0100
0000
,
0001
0000
1000
0000
1000
0100
0010
0000
,
0001
0010
0100
0010
,
0010
0100
0010
0000
0001
0000
1000
0000
,
2001
0000
3001
0000
,
0020
0000
0130
0000
,
2000
0000
3001
0000
,
0002
0000
1003
0000
,
0010
1000
0001
0100
,
0010
0000
0000
0000
,
0001
0010
0001
1000
,
0001
0000
0010
0000
,
0100
1000
0001
0100
,
0010
1000
0001
0100
,
1000
0001
0010
0000
1000
0001
0010
0000
,
0100
0000
0000
0000
,
1001
0100
0010
1000
,
0001
0100
0010
0000
,
0010
1000
0001
0100
,
0010
1000
0001
0000
,
0010
0001
0010
0000
,
0010
0100
1000
0000
,
0001
0000
0010
0000
,
0100
0000
0001
0000
1000
0001
0010
0000
,
0010
0100
1000
0000
,
0001
0000
0100
0000
,
0010
1000
0001
0000
,
0100
0000
0010
0001
1000
0000
0001
0000
,
0010
0000
0100
0000
,
0001
0000
1000
0000
,
0010
0000
0100
0000
,
0001
1000
0001
0000
,
0100
0000
1000
0000
,
0001
0000
0010
0000
,
0100
0000
0010
0000
,
1000
0000
0001
0000
,
0010
0000
0100
0000
,
0001
0000
1000
0000
,
0001
0000
0000
0000
,
0000
0000
0000
0000
,
0001
0000
1000
0000
,
0001
0100
0010
0000
,
0100
0000
0010
0000
,
1000
0001
0100
0000
,
0010
0000
0100
0000
,
1000
0000
0001
0000
,
0100
0000
0001
0000
,
0100
1000
0001
0000
,
0001
0000
0000
0000
,
0000
0000
0000
0000
,
0010
0010
0000
0100
0100
0000
0001
1000
;

//--------------- dance-single - ----------------
#NOTES:
     dance-single:
     :
     Medium:
     10:
     0,0,0,0,0:
0000
0000
0000
0000
,
0000
0000
0000
0000
,
0000
0000
0000
0000
,
0000
0000
0000
0000
,
0000
0000
0000
0000
,
1000
0000
0001
0000
,
0100
0010
0100
0000
,
1001
0100
0010
1000
,
0001
0100
0010
0000
,
0100
0001
1000
0001
,
0100
0000
0010
0000
1000
0001
0100
0000
,
0010
0000
0000
1000
0000
0000
0001
0000
,
0000
1000
0001
0010
,
0100
0000
1000
0000
,
0001
0100
0010
1000
,
0001
0010
0100
1000
,
0001
0100
0010
0000
,
1000
0001
0100
0010
,
1000
0001
0010
0000
,
0010
0100
0001
1000
,
0001
0000
0000
0000
,
0010
0100
0001
0000
,
0001
1000
0010
0100
,
1000
0001
0100
0000
,
0010
0000
1000
0010
0001
0000
0010
0000
,
0100
1000
0001
0000
,
0100
0000
0010
0000
0001
1000
0001
0000
,
0100
0010
0100
0000
,
1000
0000
0001
0100
0011
0000
1000
0000
,
0002
0000
0013
0000
,
2000
0000
3100
0000
,
0020
0000
0130
0000
,
2000
0000
3001
0000
,
0010
0000
0100
0000
,
0001
0000
1000
0001
,
0100
0010
1000
0001
,
0100
0000
0010
0000
1000
0001
0010
0100
,
1000
0000
0001
0000
,
0100
0010
0000
0001
1000
0000
0000
0000
,
0010
0100
0001
1000
,
0001
0100
0010
1000
,
0001
0010
0100
0000
1000
0000
0001
0000
,
0010
0100
0001
0000
1000
0000
0001
0000
,
0100
0010
1000
0000
0001
0010
0100
0000
,
0010
0100
1000
0001
,
0100
0010
0001
0000
0100
0000
0001
0000
,
0010
0100
0001
0000
1000
0000
0001
0000
,
0100
0010
0100
0000
1000
0001
0010
0000
,
0100
0000
0001
0000
1000
0001
0010
0000
,
0100
0000
0010
0000
1000
0000
0001
0010
,
0100
0001
1000
0001
,
0010
0100
0001
0010
,
0100
0001
0100
0000
1000
0000
0001
0000
,
0100
0010
0100
0000
0001
0000
1000
0000
,
0010
0100
0001
0000
0010
0000
0100
0000
,
1000
0001
0010
0000
0100
0001
0010
0000
,
0002
0010
1000
0010
,
1003
0010
0100
0010
,
0001
1000
0001
0000
0010
0000
0110
0000
,
0001
0010
0100
0000
0000
0001
0010
0000
,
0100
0001
1000
1001
,
0200
0000
0320
0000
,
1030
0001
0100
0000
,
1001
0000
0000
0000
,
0000
0000
0000
0000
,
1001
0100
0010
1000
,
0011
0000
0100
0001
0001
1000
0010
0000
,
0100
0010
1001
0001
,
1010
0000
0010
0000
0001
0010
0100
1000
,
0001
0010
0100
0001
,
1000
0001
0010
0000
0100
0001
0010
0000
,
0100
0000
0001
0000
1000
0001
0010
0000
,
0100
0000
0010
0000
1000
0001
0010
0000
,
1001
0000
0000
0000
,
0000
0000
0000
0000
,
0001
0100
0000
1000
0001
0000
0001
1000
;

//--------------- dance-single - ----------------
#NOTES:
     dance-single:
     :
     Hard:
     13:
     0,0,0,0,0:
0000
0000
0000
0000
,
0000
0000
0000
0000
,
0000
0000
0000
0000
,
0000
0000
0000
0000
,
0000
0000
0000
0000
,
1000
0000
0001
0000
,
0010
0100
0010
0000
,
1000
0000
0001
0000
0010
0100
1000
0000
,
0001
0100
0010
1000
0001
0010
0100
0000
,
1000
0000
0001
0010
0100
0000
0010
1000
,
0001
0010
0100
1000
0001
0010
0100
1000
,
0002
0000
0000
2003
0000
0000
3002
0000
,
0003
0000
0000
0000
,
0010
0001
1000
0000
0001
1000
0100
0000
,
0010
1000
0001
0100
,
0010
0001
1000
0000
0010
0100
1000
0000
,
0010
0000
0100
0000
0001
0010
1000
0000
,
0010
0000
1000
0001
0100
1000
0010
0000
,
0001
0000
0010
0000
0100
0001
1000
0000
,
0001
0100
0010
0000
0001
0100
1000
0000
,
0100
0000
1000
0000
0100
0001
0010
0000
,
0010
0100
1000
0001
0100
0000
1000
0000
,
0001
0010
1000
0001
0100
0000
0110
0000
,
0100
0001
1000
0010
0001
0000
0100
0000
,
0001
1000
0100
0010
0001
0000
0110
0000
,
0100
0001
1000
0100
0010
0000
1000
0000
,
0001
1000
0010
0100
0001
0000
0101
0000
,
1000
0001
0100
1000
0010
0001
1000
0010
,
0000
0010
1000
0010
0001
0000
1001
0000
,
0010
0100
1000
0001
0100
0001
1000
0001
,
0100
1000
0010
0001
0100
0001
0010
1000
,
0001
0100
0010
0001
0100
0000
1000
0000
,
0001
1000
0010
0001
0100
1000
0010
0100
,
0001
1000
0000
0001
0010
0000
1000
0001
,
0010
1000
0010
0001
,
0100
0010
0000
1000
0001
0000
0100
0010
,
0000
0100
1000
0000
0001
0000
0010
0000
,
0100
0001
0010
1000
0001
0100
1000
0001
,
0100
0010
1000
0001
0010
0100
1000
0001
,
1000
0100
0001
0010
1000
0001
0010
0100
,
1000
0001
0010
0100
0001
1000
0001
0000
,
1001
0000
0101
0000
1000
0010
0100
0001
,
0010
0100
1000
0001
0010
0000
0100
0000
,
1010
0000
0101
0000
1000
0001
0010
0000
,
0100
0001
1000
0001
0010
0100
1000
0001
,
0010
0100
1000
0001
0010
0000
0100
0001
,
0010
0100
1000
0001
0010
0000
0110
0000
,
0001
1000
0001
0000
0010
0000
0100
0000
,
1000
0001
0010
0000
0200
0000
0000
0000
,
0310
0001
0010
0100
1000
0001
0010
1000
,
0010
0000
0001
0010
0100
1000
0001
0000
,
1001
0000
1010
0000
0010
0001
1000
0000
,
0001
0010
0100
0001
1000
0001
0010
0100
,
2000
0000
3002
0000
,
0203
0000
0320
0000
,
0130
1000
0001
0100
,
0010
1000
0001
0010
0100
1000
0001
0010
,
0200
0000
2300
0000
,
3002
0000
0103
0000
0010
1000
0001
0000
,
0010
0000
1000
0001
0100
0000
1000
0000
,
0001
0100
2000
0000
3001
0010
0100
1000
,
0001
0100
0010
0000
1000
0000
0001
0000
,
0010
0100
1000
0000
0001
0000
0010
0000
,
2000
0000
3002
0000
,
2003
0000
0000
3001
,
0110
0000
0100
0000
1000
0001
0100
0000
,
0010
1000
0001
0000
0100
0001
0010
0000
,
0100
0000
0001
0000
0010
1000
0001
0000
,
1000
0001
0100
0000
0010
0100
0001
0000
,
1000
0000
0010
0000
0100
0010
0001
0000
,
0100
0001
0010
0000
1000
0001
0010
0000
,
1000
0000
0001
0000
0100
0001
0010
0000
,
0100
0010
0001
0000
0100
1000
0001
0000
,
2000
0000
0000
0000
,
3002
0000
0000
1003
,
1000
0001
0000
0010
0100
0000
1000
2002
,
0000
3003
0000
0000
;
