
//----- song ID: luvl -----//
#TITLE:In Luv;
#ARTIST:Connexio;
#GENRE:ナムコオリジナル;
#MUSIC:In Luv.ogg;
#BANNER:In Luv.png;
#BACKGROUND:In Luv-bg.png;
#CDTITLE:./CDTitles/NSD A3.png;
#SAMPLESTART:11.994;
#SAMPLELENGTH:15.000;
#SELECTABLE:YES;
#OFFSET:0.000;
#BPMS:0.000=200.000
,164.000=100.000
,196.000=200.000
;
#STOPS:;
#BGCHANGES:;
#FGCHANGES:;

//--------------- dance-single - ----------------
#NOTES:
     dance-single:
     :
     Beginner:
     3:
     0,0,0,0,0:
0000
0000
0000
0000
,
0000
0000
0000
0000
,
0000
0000
0000
0000
,
0000
0000
0000
0000
,
0000
0000
0000
0000
,
0000
0000
0000
0000
,
0000
0000
0000
0000
,
0000
0000
0000
0000
,
0000
0000
0000
0000
,
0000
0000
0000
0000
,
1001
0000
0000
0000
0000
0000
0000
0101
,
0000
0000
0000
0000
,
1001
0000
0000
0000
0000
0000
0000
1100
,
0000
0000
0000
0000
,
1000
0000
0001
0000
,
0100
0000
0010
0000
,
1000
0001
1000
0000
,
0100
0000
0000
0000
,
1001
0000
0100
0000
,
0000
0010
0000
0100
,
1000
0001
0000
0000
,
0000
0000
0100
0000
0000
1000
0000
0000
,
0001
0000
0100
0000
,
0000
0010
0100
1000
,
0001
0000
1000
0000
,
0001
0000
0100
0000
,
0010
0000
0000
0000
,
0000
0000
0000
0000
,
1000
0000
0001
0000
,
0100
0000
0010
0000
,
1000
0000
0001
0000
,
1000
0001
0100
0000
,
0010
0000
0100
0000
,
0010
0000
1000
0000
,
0001
0000
0000
0000
,
1000
0000
0000
0000
,
0100
0000
0000
0000
,
0010
0000
0000
0000
,
0100
0000
0000
0000
,
0001
0000
0000
0000
,
1000
0000
0001
0000
,
1000
0001
1001
0000
,
0000
0000
0000
0000
,
0000
0000
0100
0000
,
0000
0010
0000
1000
,
0000
0000
0001
0000
,
1000
0000
0100
0000
,
0010
0000
0001
0000
,
1000
0000
0100
0000
,
0010
0000
0000
0000
,
0110
0000
0000
0000
,
1000
0000
0000
0000
,
0001
0000
0000
0000
,
1000
0000
0000
0000
,
0001
0000
0000
0000
,
1000
0000
0000
0000
,
0010
0000
0100
0000
,
1000
0000
0000
0000
,
1001
0000
0100
0000
,
0010
0001
1000
0000
,
0100
0000
0010
0000
,
0001
0000
1000
0000
,
0001
0000
0100
0000
,
0010
0000
0100
0000
,
1000
0000
0001
0000
,
1000
0001
1000
0000
,
0100
0000
0010
0000
,
0010
0000
0100
0000
,
1000
0000
0001
0000
,
1000
0000
0001
0000
,
0100
0000
0010
0000
,
0100
0000
1000
0000
,
0001
0000
1000
0000
,
0001
1000
0001
0000
,
1001
0000
0000
0000
,
0000
0100
0000
0000
,
0010
0000
0000
0000
,
0000
1000
0000
0000
,
0000
0000
0001
0000
,
0000
1000
0000
0000
,
0100
0000
0000
0000
,
0010
0000
0000
0000
,
2000
0000
0000
3000
,
0002
0000
0000
0003
,
0200
0000
0300
0020
,
0000
0000
0030
0000
,
1001
0000
0000
0000
;

//--------------- dance-single - ----------------
#NOTES:
     dance-single:
     :
     Easy:
     10:
     0,0,0,0,0:
0000
0000
0000
0000
,
0000
0000
0000
0000
,
0000
0000
0000
0000
,
0000
0000
0000
0000
,
0000
0000
0000
0000
,
0000
0000
0000
0000
,
0000
0000
0000
0000
,
0000
0000
0000
0000
,
0000
0000
0000
0000
,
0000
0000
0000
0000
,
1001
0000
0000
0000
0000
0000
0000
0101
,
0000
0000
0000
0000
,
1001
0000
0000
0000
0000
0000
0000
1100
,
0000
0000
0000
0000
,
0010
1000
0010
0100
,
0001
0010
0001
0100
,
0001
0010
0100
1000
,
0100
0001
1000
0100
0010
0000
0000
0000
,
1001
0000
0000
0000
1000
0000
0001
0100
,
0000
0000
0100
0010
0001
0000
1000
0000
,
0100
0010
0100
0000
0001
0000
1000
0010
,
0002
0103
1000
0010
,
0100
0000
0000
0001
1000
0000
0001
0000
,
0100
0010
1000
0001
,
0100
0010
0100
1000
,
0001
0000
0100
0000
0010
1000
0001
0000
,
0200
0000
0010
0000
,
0301
0000
1010
0000
,
0001
1000
0001
0000
,
0100
0010
0100
0000
,
1001
0000
0010
0000
0100
1000
0001
0000
,
0100
0000
0101
0000
1000
0000
0100
0001
,
1000
0000
0010
0000
1000
0000
0100
1000
,
0010
0000
0001
0000
0100
0100
0001
0000
,
1001
0000
0100
0000
0010
0000
1000
0100
,
0010
0000
1010
0000
0010
0001
0100
0000
,
0001
0000
0100
0000
0001
0100
1000
0000
,
0101
0000
0010
1000
0100
0000
1000
0000
,
0010
0001
1000
0000
0001
0000
0010
0000
,
0100
1000
0010
0000
0101
0000
1000
0100
,
0010
0000
0000
1100
0000
0000
0101
0000
,
0000
1100
0010
0001
1002
0000
0000
0000
,
0203
0000
0320
0000
,
0032
0000
2003
3100
,
0002
0013
0200
0310
,
0020
0000
0130
0000
0001
1000
0010
1000
,
0001
0100
0010
0001
0100
1000
0010
1000
,
0001
0000
1000
0000
0100
0100
0001
0000
0010
0000
0100
0000
1000
0000
0100
0000
,
0010
0000
0001
0000
1000
0001
0000
1000
0100
0000
1001
0000
1000
0000
0100
0000
,
0020
0000
1000
0000
,
0130
0000
0010
0000
0100
1000
0001
0000
,
0110
0000
0001
0000
1000
0001
0100
0000
,
1000
0000
0010
0000
1000
0100
0001
0000
,
0110
0000
0001
0000
0100
1000
0001
0000
,
0100
1000
0010
0000
1000
0000
1001
0000
,
0010
1000
0100
0000
0010
0000
0100
0000
,
0010
0000
0001
0100
1000
0000
0001
0010
,
0100
0100
0001
0000
,
1001
0000
1000
0100
0010
0000
0100
1000
,
0010
0001
1000
0000
0100
1000
0010
0000
,
0100
1000
0010
0000
0001
0010
0100
0000
,
0010
1000
0100
0010
0001
1000
0100
1000
,
0001
0000
0010
0000
0001
1000
0010
0000
,
0100
0000
1000
0000
0001
0100
0010
0000
,
0001
0010
1000
0000
0100
0001
0010
0000
,
0001
0100
1000
0100
0001
0100
1000
0010
,
0002
0000
1003
0000
0100
1000
0010
0000
,
0001
0000
0010
1000
0001
0000
0010
0000
,
0100
0000
1000
0001
0010
0000
0100
0000
,
0001
0010
1000
0010
0100
0000
1000
0000
,
0100
0001
0010
0000
0100
0000
1000
0000
,
0001
0010
0100
0000
0001
0000
0010
0000
,
0100
0001
1000
0000
0100
1000
0010
0000
,
0001
0100
1000
0100
0001
0100
0010
0100
,
0010
0000
0000
0000
1001
0000
0100
0010
,
0000
0000
1000
0001
1000
0010
0000
0000
,
0101
1010
0110
0001
,
2000
3100
0010
0100
,
1000
0000
0000
0001
1000
0001
1000
0001
,
0000
0110
1000
0001
,
0100
0010
0100
1000
,
0001
1000
0001
0000
0100
0000
0010
0000
,
0200
0000
0000
0300
,
0020
0000
0000
0030
,
2000
0000
0000
3000
,
0002
0000
0000
0003
,
1001
0000
0000
0000
;

//--------------- dance-single - ----------------
#NOTES:
     dance-single:
     :
     Medium:
     14:
     0,0,0,0,0:
0000
0000
0000
0000
,
0000
0000
0000
0000
,
0000
0000
0000
0000
,
0000
0000
0000
0000
,
0000
0000
0000
0000
,
0000
0000
0000
0000
,
0000
0000
0000
0000
,
0000
0000
0000
0000
,
0000
0000
0000
0000
,
0000
0000
0000
0000
,
2002
0000
0000
0000
3003
0000
0000
2020
,
0000
0000
3030
0000
,
2002
0000
0000
0000
3003
0000
0000
0022
,
0000
0000
0033
0000
,
0100
1000
0001
0010
0100
0000
0010
0000
,
1000
0001
0100
0001
1000
0000
0010
0000
,
1000
0001
0100
1000
0010
0100
0001
0100
,
0010
1000
0001
0010
0100
0000
0000
0000
,
1001
0000
0100
0000
0001
0000
1000
0010
,
0000
0000
1000
0000
0010
0000
0100
0000
1000
0010
0100
1000
0001
0000
0000
0000
,
0010
0100
0010
0000
1000
0000
0001
0100
,
2000
0000
3010
0000
0001
1000
0100
0001
,
0010
0000
0000
1000
0001
0100
1000
0100
,
0010
0000
0100
0010
0001
0100
1000
0000
,
0010
1000
0100
0000
0010
0100
0001
0000
,
1000
0000
0100
0000
0010
0000
0001
0000
0100
0000
0001
0000
1000
0001
0100
0000
,
0020
0000
0100
0000
,
1030
0101
0101
0000
,
1010
0000
0101
0000
1010
0000
0100
1000
,
0010
0001
0100
0000
0010
0000
0110
0000
,
1001
0000
0100
1000
0010
0001
1000
0000
,
0010
0000
1010
0000
0001
0100
0010
1000
,
0001
0010
0100
1000
0001
0100
0010
0001
,
0100
0010
1000
0001
0100
0100
0001
0000
,
1001
0000
0010
1000
0100
1000
0001
0010
,
0100
0000
0101
0000
0100
1000
0010
0100
,
1000
0100
0010
0000
1000
0010
0001
0000
,
1010
0000
0100
0001
0010
1000
0001
0000
,
0100
1000
0001
0010
1000
0001
0100
1000
,
0010
0001
0100
0000
1010
0000
0001
0010
,
0100
0000
0000
1000
0000
0000
0100
0000
0000
0010
0000
0000
0100
0000
0010
0000
,
0100
0000
0000
1000
0000
0000
0001
0000
0000
0010
0000
0000
0110
0000
0000
0000
2001
0000
0000
0000
0000
0000
0000
0000
0001
0000
0000
0000
0000
0000
0000
0000
,
3020
1000
0230
0001
,
2300
0000
0100
0000
3002
0100
0013
0000
,
2000
0001
3100
0000
0020
1000
0130
0000
,
0200
0000
0001
0000
0310
0000
0110
0000
1000
0000
0001
0010
0100
0000
0001
0000
,
1000
0100
0010
0000
0100
0001
1000
0000
0010
0000
0001
0000
0100
1000
0001
0000
,
1000
0100
0001
0000
0100
0100
0001
0000
0100
1000
0010
0000
0001
1000
0010
0000
,
0100
0001
1000
0000
0001
1000
0000
0001
0010
0000
1001
0000
0001
1000
0010
0000
,
0200
0000
0001
0000
,
0310
0000
1100
0000
0010
0001
1000
0000
,
0110
0000
1000
0000
0001
1000
0010
0100
,
0001
0000
0110
0000
0001
0010
1000
0000
,
0110
0000
1000
0000
0010
0001
1000
0000
,
0010
0001
0100
1000
0001
0000
1001
0000
,
0100
0001
0010
1000
0100
0001
0010
0001
,
0100
0000
0010
0000
1000
0000
0010
0000
0001
0010
0100
0000
1000
0001
0010
0000
,
0100
0100
0001
0000
,
1001
0000
0001
0010
0100
1000
0010
0001
,
0100
1000
0001
0100
0010
0001
0100
1000
,
0010
0001
0100
0010
1000
0100
0010
1000
,
0100
0001
0010
0100
1000
0001
0010
0001
,
1000
0010
0100
0000
1000
0001
0100
1000
,
0010
0100
0001
0100
1000
0010
0100
0001
,
1000
0100
0001
0100
0010
1000
0100
0001
,
1000
0010
0001
0010
1000
0010
0001
0100
,
2000
0000
3001
0100
0010
0001
0100
0010
,
1000
0010
0100
0001
1000
0010
0100
1000
,
0010
0100
0001
1000
0100
0001
0010
0100
,
1000
0100
0001
0100
0010
1000
0001
0100
,
0010
1000
0100
0001
0010
1000
0001
0100
,
1000
0100
0010
0100
1000
0001
0100
1000
,
0010
1000
0001
0100
0010
0001
0100
0010
,
1000
0010
0001
0010
1000
0010
0100
0010
,
0100
0000
0000
0000
1001
0000
0010
0100
,
1000
0000
0000
0000
0001
0000
1000
0000
0001
0010
0100
0000
0000
0000
0000
0000
,
0100
0010
0100
0000
0110
0000
1000
0100
,
0002
0000
0000
0000
0013
0000
0000
0000
1100
0000
0000
0110
0000
0000
0101
0000
,
1010
0000
0000
1000
0001
1000
0001
1000
,
0000
0000
0110
0000
0001
0100
1000
0001
,
0010
1000
0100
0001
0010
0100
0001
0010
,
1000
0001
1000
0100
0010
1000
0100
0000
,
1000
0000
0000
0001
0000
0000
1000
0000
0000
0001
0000
0000
1000
0000
0000
0000
,
0010
0000
0000
0100
0000
0000
1000
0000
0000
0100
0000
0000
0020
0000
0000
0000
,
0031
0000
0000
1000
0000
0000
0001
0000
0000
1000
0000
0000
0001
0000
0000
0000
,
1000
0000
0000
0001
0000
0000
0100
0000
0000
0010
0000
0000
0100
0000
0000
0000
,
1001
0000
0000
0000
;

//--------------- dance-single - ----------------
#NOTES:
     dance-single:
     :
     Hard:
     17:
     0,0,0,0,0:
0000
0000
0000
0000
,
0000
0000
0000
0000
,
0000
0000
0000
0000
,
0000
0000
0000
0000
,
0000
0000
0000
0000
,
0000
0000
0000
0000
,
0000
0000
0000
0000
,
0000
0000
0000
0000
,
0000
0000
0000
0000
,
0000
0000
0000
0000
,
2002
0000
0000
0000
0000
3003
0000
0220
,
0000
0000
0000
0330
,
2002
0000
0000
0000
0000
0000
3003
0202
,
0000
0000
0000
0000
0300
0000
0000
0000
1003
0000
0100
0000
0001
0010
0100
0000
,
0001
0100
0010
1000
0100
1000
0001
0100
,
0001
1000
0100
1000
0100
0010
0001
0010
,
0001
0010
0100
1000
0010
0100
0001
1000
,
0001
1000
0010
0001
0100
1000
0010
0100
0020
0000
0000
0000
0000
0000
0000
0000
,
0230
0000
0310
0000
1001
0000
0101
0102
,
0000
0000
0000
0000
1003
0000
0100
0000
0001
0100
1000
0000
0002
0000
0000
0000
,
1003
0100
0010
1000
0001
0100
0010
1000
,
0002
0000
0000
0000
1003
0000
0000
0000
0110
0000
0000
0101
0000
0000
1001
0000
,
0020
0000
0000
0000
0030
0000
0200
0000
0301
0000
1000
0000
0001
0100
0010
0000
,
0200
0302
2003
3200
,
0320
0000
0031
0100
0010
0001
0010
0100
,
1000
0000
0001
0000
1000
0000
0010
0000
1000
0100
0010
0001
0100
1000
0010
0100
,
0010
0000
0001
0000
1000
0001
0100
0010
,
0100
0000
0001
0000
1000
0000
0000
0000
0001
0000
0100
0000
0010
0100
1000
0001
,
0010
0100
0001
0100
0001
0100
0010
1000
,
0001
0010
1000
0100
0001
0010
1000
0001
0100
1000
0010
0001
0100
0010
1000
0100
,
0010
1000
0100
0010
0100
1000
0100
1000
,
0001
1000
0100
0010
0100
0010
0001
0100
,
0010
0100
0010
1000
0001
0100
0001
1000
,
0100
0010
0001
1000
0100
0100
0001
0000
,
1000
0000
0001
0100
0010
0001
1000
0100
0002
0000
2003
0000
3010
0000
0000
0100
,
1000
0001
0100
0000
0020
0000
0000
0000
2030
0000
0000
0000
3001
0000
0010
0000
,
0200
0000
0000
0000
0301
0000
0010
0000
1000
0000
0001
0000
0100
1000
0001
0000
,
0100
0010
0001
0100
1000
0010
0200
0300
,
0002
0000
0003
0000
0100
0000
1000
0100
0001
0000
0010
0000
1000
0000
0100
0010
,
0001
0010
0100
1000
0010
1000
0010
1000
,
0010
0000
0000
0101
0000
0000
1010
0000
0000
1001
0000
0000
0010
0000
1000
0000
,
0001
0000
0000
0101
0000
0000
0110
0000
0000
1001
0000
0000
0020
0000
0000
0000
0130
0000
0000
0000
0000
0000
0000
0000
0000
0000
0000
0000
0000
0000
0000
0000
,
0000
0000
0000
0000
,
0000
0000
0000
0000
2000
3200
0320
0032
,
2003
3200
0320
2030
3002
0203
0320
0230
,
2300
0000
0000
0000
3002
0000
0000
0000
0203
0000
0000
0000
0320
0000
0000
0000
1030
0000
0000
0000
0001
0000
0000
0000
0100
0000
0000
0010
0000
0000
1000
0000
,
0001
0000
0010
0000
0100
0000
1000
0000
0010
0000
0001
0000
0100
0000
0010
0000
1000
0000
0000
0000
0001
0000
0000
0000
0100
0000
0000
0010
0000
0000
1000
0000
,
0001
0000
0000
0000
0010
0000
0000
0000
0100
0000
0000
0000
2000
0000
0000
0000
3001
0000
0000
0000
0100
0000
0000
0000
0010
0000
0000
0100
0000
0000
0001
0000
,
1000
0000
0000
0000
0001
0000
0000
0000
0100
0000
0000
0010
0000
0000
1000
0000
0100
0000
0000
0000
0001
0000
0000
0000
1000
0000
0000
0100
0000
0000
0010
0000
,
0001
0000
0000
0000
,
0110
0000
0000
0000
1000
0000
0000
0001
0000
0000
0100
0000
0010
0000
0000
0000
,
0100
0000
0010
0100
0010
0000
1000
0000
0001
0000
0100
0000
0010
0000
1000
0000
,
0001
0010
0001
0000
1000
0100
1000
0000
0001
0100
0010
1000
0001
0000
0000
0000
,
1001
0000
0001
1000
0001
0000
0100
0000
0010
0000
1000
0000
0001
0000
0000
0000
,
0200
0000
0310
0001
1000
0100
0001
0010
,
0001
1000
0100
0010
1000
0010
0100
0010
,
1000
0000
0100
0000
0001
1000
0010
0001
1000
0100
0010
0100
0001
0010
1000
0001
,
0200
0300
0200
0300
0002
0003
1001
0000
,
0001
0000
0100
0000
0010
0000
1000
0100
0010
0000
0001
0000
0100
0000
0001
0010
,
0100
0000
1000
0000
0010
0000
1000
0001
0100
0000
0010
0000
0100
0000
0001
1000
,
0100
0000
1000
0000
0010
0000
0100
0001
1000
0000
0100
0000
0010
0000
0001
1000
,
0001
0100
0001
0010
1000
0010
0001
0100
,
0001
0000
1000
0000
0100
0000
1000
0010
0100
0000
0001
0000
1000
0000
0001
0010
,
0100
0000
1000
0000
0001
0000
0100
0001
0010
0000
0001
0000
1000
0000
0100
1000
,
0010
1000
0001
0010
0100
1000
0001
1000
,
0101
0000
1010
0000
0001
0000
1100
0000
0011
0000
1000
0000
1001
0000
0001
0010
,
0100
0000
1000
0000
0001
0000
0100
0010
1000
0000
0001
0000
0010
0000
0001
0100
,
0010
0000
1000
0000
0100
0000
1000
0010
0100
0000
0001
0000
0010
0000
0100
1000
,
0010
0000
1000
0000
0100
0000
1000
0010
0100
0000
0010
0000
1000
0000
0100
1000
,
0010
0100
0001
0010
1000
0010
0001
0100
,
0010
0000
1000
0000
0001
0000
0010
0100
1000
0000
0010
0000
0100
0000
0001
0010
,
0100
0000
1000
0000
0010
0000
0100
0001
1000
0000
0100
0000
0010
0000
0001
1000
,
0010
0000
0110
0000
1010
0000
1000
0001
0010
0000
0011
0000
0001
1000
0010
0000
,
0010
0000
0110
0000
0010
0000
1010
0000
0010
0000
0011
0000
0110
0000
0100
0001
,
2000
0000
3002
0000
0103
0000
0110
0110
,
2000
0000
0000
0000
3001
0000
0100
0000
1000
0001
0100
1000
0020
0000
0000
0000
,
1030
0100
0020
0000
0032
0000
1003
0200
,
0000
0000
0000
0000
0310
0000
0000
0000
1001
0000
0000
0101
0000
0000
1001
0000
,
0220
0030
0000
0301
1000
0100
0010
0001
,
0200
0310
1001
0101
,
1001
0000
1010
0000
0101
0000
1000
0001
,
1000
0000
0000
0000
0100
0000
0000
0000
0001
0010
0100
0001
1000
0100
0001
1000
,
0020
0000
0030
0020
0000
0030
0020
0000
0030
0200
0000
0300
0200
0000
0300
0000
,
0002
0000
0003
2000
0000
3000
0002
0000
0003
2000
0000
3000
0001
1000
0001
1000
,
0001
0000
0000
0000
0000
0000
0100
0000
0000
1000
0000
0000
0010
0000
0000
0100
0000
0000
0001
0000
0000
1000
0000
0000
0001
0000
0000
1000
0000
0000
0010
0000
0000
1000
0000
0000
0100
0000
0000
0000
0010
0000
0000
0000
0001
0000
0000
0000
,
1000
0000
0000
0000
0000
0000
0001
0000
0000
0100
0000
0000
0001
0000
0000
0000
0000
0000
0010
0000
0000
0100
0000
0000
0010
0000
0000
0000
1000
0000
0000
0000
0001
0000
0000
0000
0100
0000
0000
0000
0010
0000
0000
0000
0100
0000
0000
0000
,
1001
0000
0000
0000
;
