#TITLE:Illusion Flare;
#ARTIST:ミハイル;
#ARTISTTRANSLIT:Mihile;
#GENRE:ナムコオリジナル;
#MUSIC:Illusion Flare.ogg;
#BANNER:Illusion Flare.png;
#BACKGROUND:Illusion Flare-bg.png;
#CDTITLE:./CDTitles/NSD A3.png;
#SAMPLESTART:64.410;
#SAMPLELENGTH:15.000;
#SELECTABLE:YES;
#OFFSET:0.000;
#BPMS:0.000=180.000;
#STOPS:;
#BGCHANGES:;
#FGCHANGES:;

//--------------- dance-single - ----------------
#NOTES:
     dance-single:
     :
     Beginner:
     4:
     0,0,0,0,0:
0000
0000
0000
0000
,
0000
0000
0000
0000
,
0000
0000
0000
0000
,
0000
0000
0000
0000
,
0000
0000
0000
0000
,
0000
0000
0000
0000
,
0000
0000
0000
0000
,
0010
0000
0000
1000
,
0000
0000
0001
0000
,
0010
0000
0000
1001
,
0000
0000
0010
0000
,
0000
1000
0000
0000
,
0000
0000
0000
0000
,
2000
0000
0000
3000
,
0001
0000
1000
0000
,
0001
0000
0010
0000
,
0100
0000
1000
0000
,
0001
0000
0000
1000
,
0000
0000
0000
0000
0000
0001
0000
0000
,
1000
0000
0000
0001
0000
0000
0000
0000
,
0100
1000
0000
0000
,
0001
0000
0000
0010
,
0000
0000
0100
0000
,
0000
1000
0000
0000
,
0000
0001
0000
0000
,
0000
0000
0100
0000
0000
0010
0000
0000
,
0000
0000
0000
0000
,
0000
0000
0010
0000
0000
0100
0000
0000
,
0000
0000
0000
0000
,
1000
0000
0000
0000
0000
0000
0000
0000
0000
0001
0000
0000
0000
0000
1000
0000
,
0000
0000
0000
0000
0000
0020
0000
0000
0000
0000
0000
0000
0000
0000
0000
0000
,
0000
0000
0000
0000
0000
0030
0000
0000
0000
0000
0000
0000
0000
0000
0000
0000
,
0000
0000
0000
0000
0000
1000
0000
0000
0000
0000
0000
0000
0000
0001
0000
0000
,
0000
0000
0000
0000
0000
0000
0000
0000
0000
0000
0000
0000
0000
0010
0000
0000
,
0000
0000
0000
0000
0000
0001
0000
0000
0000
0000
0000
0000
0000
0000
0000
0000
,
0000
1000
0000
0000
0000
0100
0000
0000
0000
0000
0000
0000
0000
0001
0000
0000
,
0000
0000
0000
0000
1000
0000
0000
0000
0000
0000
0000
0000
0000
0001
0000
0000
,
0000
0000
0000
0000
0000
0010
0000
0000
0000
0000
0000
0000
0000
0100
0000
0000
,
0000
0000
0000
1000
,
0000
0000
0001
0000
,
0000
0000
0000
0010
0000
0000
0000
0000
,
0000
0000
0100
0000
0000
0000
0000
0000
0000
1000
0000
0000
0000
0000
0000
0000
,
0000
0000
0000
0000
0000
0001
0000
0000
0000
0000
0000
0000
0000
0000
0000
0000
,
0000
0000
0000
0000
0000
1000
0000
0000
0000
0000
0000
0000
0000
0000
0000
0000
,
0000
0010
0000
0000
0000
0000
0000
0000
0000
0000
0000
0000
0000
0000
0000
0000
,
0000
2000
0000
0000
0000
0000
0000
0000
0000
0000
0000
0000
0000
0000
0000
0000
,
0000
0000
0000
0002
0000
0000
0000
0000
0000
0000
0000
0000
0000
0000
0000
0000
,
0000
0000
0000
0000
,
0000
0000
0000
0000
0000
3003
0000
0000
0000
0000
0000
0000
0000
0000
0000
0000
,
0110
0000
0000
0000
0000
0000
0000
0000
0000
0000
0000
0000
0000
1000
0000
0000
,
0000
0000
0000
0000
0001
0000
0000
0000
0000
0000
0000
0000
0000
0000
0000
0001
,
0000
0000
0000
0000
0000
1000
0000
0000
0000
0000
0000
0000
0000
0000
0000
0000
,
0000
0000
0000
0000
0000
1000
0000
0000
0000
0010
0000
0000
0000
1000
0000
0000
,
0000
0001
0000
0000
0000
0000
0000
0000
0000
1000
0000
0000
0000
0000
0000
0000
,
0000
0010
0000
0000
0000
0000
0000
0000
0000
0000
0000
0000
0000
0000
0000
0001
,
0000
0000
0000
0000
,
0000
1000
0000
0000
0000
0100
0000
0000
0000
0010
0000
0000
0000
0001
0000
0000
,
0000
0000
0000
1001
0000
0000
0000
0000
0000
0000
0000
0000
0000
0000
0000
1000
,
0000
0000
0000
0000
0000
0000
0000
0000
0000
0000
0000
0000
0000
0000
0000
0001
,
0000
0000
0000
0000
0000
0010
0000
1000
0000
0000
0000
0001
0000
0000
0000
0100
,
0000
0000
0000
0000
,
0000
1000
0000
0000
0000
0000
0000
0001
0000
0000
0000
0000
0000
0000
0000
0000
,
0000
0000
0000
0000
0000
0000
0000
0000
0000
0000
0000
0000
0000
0010
0000
0000
,
0000
1000
0000
0000
0000
0000
0000
0001
0000
0000
0000
0000
0000
0000
0000
0000
,
0000
0000
0000
0000
0000
0000
0000
0000
0000
0000
0000
0000
0000
0010
0000
0000
,
0000
1000
0000
0000
0000
0000
0000
0001
0000
0000
0000
0000
0000
0100
0000
0000
,
0000
0000
0000
0010
0000
0000
0000
0000
0000
1000
0000
0000
0000
0000
0000
0001
,
0000
0000
0000
0000
0000
0000
0000
0000
0000
0000
0000
1000
0000
0000
0000
0000
,
0001
0000
0000
0000
,
0000
0010
0000
0000
0000
0000
0000
0000
0000
0100
0000
0000
0000
0000
0001
0000
,
0000
0000
0000
1000
0000
0000
0000
0010
0000
0001
0000
0000
0000
0000
1000
0000
,
0000
0000
0000
0001
0000
0000
0000
0000
0010
0000
0000
0000
0000
1000
0000
0100
,
0000
0010
0000
0001
0000
0000
0000
0000
0010
0000
0000
1000
0000
0001
0000
0000
,
0000
0000
0100
0000
0000
1000
0000
0001
0000
1000
0000
0010
0000
0001
0000
1000
,
0000
0000
0000
0000
0100
0000
0000
0000
0000
0010
0000
0000
0001
0000
0000
0000
,
0000
0000
0000
0000
0000
0000
0000
0000
0000
1000
0000
0000
0000
0000
0001
0000
,
0000
0000
0000
1000
0000
0000
0000
0001
0000
0000
0000
0000
0000
0000
0000
0000
,
0000
0000
0000
1000
0000
0000
1000
0000
0000
1000
0000
0000
1000
0000
0000
1000
,
0000
0000
0000
0001
0000
0000
0001
0000
0000
0001
0000
0000
0001
0000
0000
0001
,
0000
0000
0000
1000
0000
0000
0001
0000
0000
1000
0000
0000
0001
0000
0000
1000
,
0000
0000
0001
0000
0000
1000
0000
0000
0001
0000
0000
2002
0000
0000
0000
0000
,
3003
0000
0000
0000
,
0000
0000
0000
0000
,
0000
0000
0000
0000
,
0000
0000
0000
0010
0000
0000
0010
0000
0000
0000
0000
1000
0000
0000
0001
0000
,
0000
0110
0000
0000
0000
0000
0000
0000
0000
0000
0000
0000
0000
0000
0000
0000
;

//--------------- dance-single - ----------------
#NOTES:
     dance-single:
     :
     Easy:
     8:
     0,0,0,0,0:
0000
0000
0000
0000
,
0000
0000
0000
0000
,
0000
0000
0000
0000
,
0000
0000
0000
0000
,
0000
0000
0000
0000
,
0000
0000
0000
0000
,
0000
0000
0000
0000
,
0100
0000
1000
0001
,
0000
0010
0000
0000
1000
0000
0001
0000
,
0100
0000
0000
0010
0000
0000
1001
0000
,
0000
0000
0001
0000
0100
0000
0000
1000
,
0000
0000
0001
0000
1000
0000
0000
0010
,
0100
1000
0100
0010
,
0002
0000
0000
0003
,
1000
0000
0001
0100
,
1000
0000
0000
0000
0001
0000
0000
0000
0100
0000
0000
1000
0000
0000
0000
0000
,
0010
1000
0001
0010
,
1000
0000
0000
0010
0000
0000
0000
0000
1000
0000
0000
0000
0001
0000
0000
0000
,
0010
0000
0001
0000
0000
1000
0000
0000
,
0001
0000
0000
1000
0000
0000
0100
0000
,
0010
0001
0010
0100
,
1000
0010
0001
0000
0010
0000
0100
0000
,
1000
0001
0010
0100
,
0000
1001
0000
0100
,
0000
1000
0000
0001
,
0000
0000
0010
0000
0000
0100
0000
0000
,
1000
0000
0000
0001
0000
0010
0000
0100
,
0000
0000
0100
0000
0000
0010
0000
0000
,
0000
1000
0000
0001
0000
0100
0000
1000
,
0001
0000
0100
0000
0000
0000
0000
0001
0000
1000
0000
0000
0000
0000
0001
0000
,
1000
0000
0000
0000
0000
0200
0000
0000
0000
0000
0000
0000
0000
0000
0000
0000
,
0000
0000
0000
0000
0000
0300
0000
0000
0000
0000
0000
0000
0000
0000
0000
0000
,
0000
0000
0000
0000
0000
0001
0000
0000
0000
0000
0000
0000
0000
1000
0000
0000
,
0000
0000
0000
0000
0000
0000
0000
0001
0000
0000
0000
0000
0000
0100
0000
0000
,
0000
0000
0000
0001
0000
1000
0000
0000
0000
0000
0000
0000
0000
0010
0000
0000
,
0000
0001
0000
0000
0000
0010
0000
0000
0000
0000
0000
0000
0000
1000
0000
0000
,
0000
0000
0000
0000
0001
0000
0000
0000
0000
0000
0000
0000
0000
1000
0000
0000
,
0000
0000
0000
0001
0000
0100
0000
0000
0000
0000
0000
0000
0000
0010
0000
0000
,
0000
0000
0000
0000
0000
1000
0000
0000
0100
0000
0000
0000
0001
0000
0000
0000
,
0000
0100
0000
0000
0001
0000
0000
0000
1000
0000
0000
0000
0000
0001
0000
0000
,
0000
0000
0010
0000
0000
0000
0100
0000
0000
0000
0000
1000
0000
0000
0001
0000
,
0000
0000
0010
0000
0000
0000
0000
1000
0000
0001
0000
0000
0000
0000
0000
0100
,
0000
0000
0000
0000
0000
1000
0000
0000
0000
0000
0000
0000
0000
0000
0000
0000
,
0000
0000
0000
0000
0000
0001
0000
0000
0000
0000
0000
0001
0000
0000
0000
0000
,
0000
0100
0000
0000
0000
0000
0000
0000
0000
0000
0000
0000
0000
1000
0000
0000
,
0000
0002
0000
0000
0000
0000
0000
0000
0000
0000
0000
0000
0000
0000
0000
0000
,
0000
0000
0000
2000
0000
0000
0000
0000
0000
0000
0000
0000
0000
0000
0000
0000
,
0000
0000
0000
0000
,
0000
0000
0000
0000
0000
3003
0000
0000
0000
0000
0000
0000
0000
0000
0000
0000
,
0110
0000
0000
1000
0000
0010
0000
0000
0000
0100
0000
0000
0000
0001
0000
0000
,
0000
1000
0000
0000
0000
0100
0000
0000
0000
0010
0000
0000
0000
0100
0000
1000
,
0000
0000
0000
1000
0000
0001
0000
0000
0000
0100
0000
0000
0000
1000
0000
0000
,
0000
0001
0000
0000
0000
0001
0000
0000
0000
0100
0000
0000
0000
0001
0000
0000
,
0000
1000
0000
0000
0000
0010
0000
0000
0000
0001
0000
0000
0000
1000
0000
0000
,
0000
0100
0000
0000
0000
0001
0000
0000
0000
0010
0000
0000
0000
0100
0000
1000
,
0000
0000
0000
0000
0000
0001
0000
0000
0000
0100
0000
0000
0000
0010
0000
0000
,
0000
0001
0000
0000
0000
0010
0000
0000
0000
0100
0000
0000
0000
1000
0000
0000
,
0000
0000
0000
1001
0000
0000
0000
0000
0000
0100
0000
0000
0000
0010
0000
0000
,
0000
0100
0000
0000
0000
1000
0000
0000
0000
0010
0000
0000
0000
0100
0000
0000
,
0000
0010
0000
0000
0000
0100
0000
0000
0000
0010
0000
0000
0000
1000
0000
0000
,
0000
0001
0000
0000
0000
0010
0000
0000
0000
0100
0000
0000
0000
0010
0000
0000
,
0000
0001
0000
0000
0000
0000
0000
1000
0000
0000
0000
0000
0000
0001
0000
1000
,
0000
0001
0000
0000
0000
0010
0000
0000
0000
1000
0000
0000
0000
0100
0000
0000
,
0000
0001
0000
0000
0000
0000
0000
1000
0000
0000
0000
0000
0000
0001
0000
1000
,
0000
0001
0000
0000
0000
0010
0000
0000
0000
1000
0000
0000
0000
0100
0000
0000
,
0000
0001
0000
0000
0100
0000
0000
1000
0000
0000
0000
0000
0000
0010
0000
0000
,
1000
0000
0000
0100
0000
0000
0000
0000
0000
0001
0000
0000
0100
0000
0000
1000
,
0000
0000
0000
0000
0000
0100
0000
0000
0000
0000
0000
0001
0000
0100
0000
0000
,
1000
0000
0000
0000
,
0000
0100
0000
0000
0000
1000
0000
0001
0000
0010
0000
0000
0000
0000
1000
0000
,
0000
0100
0000
0001
0000
0000
0000
0100
0000
1000
0000
0000
0000
0000
0001
0000
,
0000
0100
0000
1000
0000
0000
0000
0000
0100
0000
0000
0010
0000
0001
0000
0010
,
0000
0100
0000
1000
0000
0000
0000
0000
0100
0000
0000
0001
0000
1000
0000
0000
,
0000
0000
0010
0000
0000
0001
0000
1000
0000
0001
0000
0100
0000
1000
0000
0001
,
0000
0000
0000
0000
0010
0000
0000
0000
0000
0100
0000
0000
1000
0000
0000
0000
,
0000
1000
0000
0000
0100
0000
0000
1000
0000
0001
0000
0000
0000
0000
1000
0000
,
0000
0000
0000
0001
0000
0000
0000
2000
0000
0000
0000
0000
0000
0000
0000
0000
,
0000
0000
0000
3001
0000
0000
1000
0000
0000
0001
0000
0000
1000
0000
0000
0001
,
0000
0000
0000
1000
0000
0000
0001
0000
0000
1000
0000
0000
0001
0000
0000
1000
,
0000
0000
0000
0001
0000
0000
0010
0000
0000
0001
0000
0000
0010
0000
0000
0001
,
0000
0000
0010
0000
0000
0001
0000
0000
0010
0000
0000
2002
0000
0000
0000
0000
,
3003
0000
0000
0000
,
0000
0000
0000
0000
,
0000
0000
0000
0000
,
0000
0000
0000
0100
0000
0000
0100
0000
0000
0000
0000
0001
0100
0000
1000
0000
,
0000
1001
0000
0000
0000
0000
0000
0000
0000
0000
0000
0000
0000
0000
0000
0000
;

//--------------- dance-single - ----------------
#NOTES:
     dance-single:
     :
     Medium:
     10:
     0,0,0,0,0:
0000
0000
0000
0000
,
0000
0000
0000
0000
,
0000
0000
0000
0000
,
0000
0000
0000
0000
,
0000
0000
0000
0000
,
0000
0000
0000
0000
,
0000
0000
0000
0000
,
0010
0000
0000
1000
0000
0000
0001
0000
1000
0000
0000
0000
0000
0001
0000
0000
,
0010
0000
0100
0000
0000
0000
0000
1000
0000
0000
0100
0000
0001
0000
0000
0000
,
0010
0000
1000
0000
0001
0000
0100
0000
0010
0000
0000
0000
1001
0000
0000
0100
,
0000
0000
1000
0000
0001
0000
0000
0000
0000
0010
0000
0000
0100
0000
1000
0000
,
0000
0000
0000
0001
0000
0000
0010
0000
1000
0000
0001
0000
1000
0000
0100
0000
,
0010
1000
0010
0100
,
2002
0000
0000
3003
,
1000
0000
0100
0000
0001
0100
0010
0000
,
1000
0000
0000
0000
0001
0000
1000
0000
0010
0000
0000
1000
0000
0000
0000
0000
,
0100
0001
1000
0000
0001
0000
0100
0000
,
1000
0000
0000
0100
0000
0000
0001
0000
1000
0000
0100
0000
0001
0000
0000
0000
,
0100
0000
0000
0000
0001
0000
0000
0000
0000
0000
1000
0000
0000
0010
0000
0000
,
0001
0000
0000
0010
0000
0000
1000
0000
0000
0100
0000
0000
0010
0000
0000
0000
,
0100
0000
0001
0000
0100
0000
0010
0100
,
1000
0100
0001
0000
0100
0000
0010
0100
,
1000
0000
0001
0000
0100
0001
0010
0000
,
0000
0000
0000
1001
0000
0100
0000
1000
0100
0010
0000
0001
,
0000
0010
0000
1000
0000
0100
0000
1000
0100
0001
0000
1000
,
0000
0000
0000
0000
0001
0000
0000
0000
0000
0000
0000
0000
0100
0000
0000
0000
0000
0000
0000
0000
0000
1000
0000
0000
0000
0000
0000
0000
0000
0000
0010
0000
0000
0000
0000
0000
0000
0000
0000
0000
0000
0000
0000
0000
0000
0000
0000
0000
,
1000
0000
0100
0001
1000
0100
0001
0010
,
0100
0000
1000
0000
0010
0000
0000
0001
0000
0000
0100
0000
0000
0000
0000
0000
,
0100
0000
1000
0000
0010
0000
0001
0000
1000
0000
0010
0000
0000
0100
0000
0000
,
0001
0000
0010
0000
1000
0000
0000
0001
0000
1000
0000
0000
0100
0000
0001
0000
,
1000
0000
0000
0100
0000
0220
0000
0000
0000
0000
0000
0000
0000
0000
0000
0000
,
0000
0000
0000
0000
0000
0330
0000
0000
0000
0000
0000
0000
0000
0000
0000
0000
,
0000
1000
0000
0000
0000
0001
0000
0000
0000
0000
0000
0000
0000
1000
0000
0000
,
0000
0000
0000
0000
0000
0000
0000
0001
0000
0000
0000
0000
0000
0010
0000
0000
,
1000
0000
0000
0001
0000
1000
0000
0000
0000
0000
0000
0000
0000
0100
0000
0000
,
0000
0000
0000
0001
0000
0000
0000
0000
0000
0000
0000
0000
0000
0000
0000
0100
0000
0000
0000
0000
0000
0000
0000
0001
0000
0000
0000
1000
0000
0000
0000
0000
0000
0000
0000
0000
0000
0000
0000
1000
0000
0000
0000
0000
0000
0000
0000
0000
,
0000
0000
0000
0000
0000
0000
0000
0000
1000
0000
0000
0000
0001
0000
0000
0000
1000
0000
0000
0000
0000
0000
0000
0000
0000
0000
0000
0000
0000
0000
0000
0000
0000
0000
0000
0000
0000
0000
0000
1000
0000
0000
0000
0000
0000
0000
0000
0000
,
0000
0000
0000
0001
0000
0010
0000
0000
0000
0000
0000
0000
0000
0100
0000
0000
,
0000
0001
0000
0000
0000
1000
0000
0000
0010
0000
1000
0000
0001
0000
0000
0000
,
0000
0010
0000
0000
0001
0000
0100
0000
1000
0000
0000
0100
0000
0001
0000
1000
,
0000
0000
0010
0000
1000
0000
0001
0000
0000
0000
0000
1000
0000
0000
0001
0000
,
0010
0000
0100
0000
0000
0000
0000
1000
0000
0001
0000
0000
1000
0000
0000
0010
,
0000
0000
0001
0000
0000
0100
2000
0000
0000
0000
0000
0000
0000
0000
0000
0000
,
0000
0000
0000
0000
0000
3001
0000
0000
0100
0000
0000
0001
0000
0000
1000
0000
,
0000
0010
0200
0000
0000
0000
0000
0000
0000
0000
0000
0000
0000
1300
0000
0000
,
0000
0002
0000
0000
0000
0000
0000
0000
0000
0000
0000
0000
0000
0000
0000
0000
,
0000
0000
0000
2000
0000
0000
0000
0000
0000
0000
0000
0000
0000
0000
0000
0000
,
0000
0000
0000
0000
,
0000
0000
0000
0000
0000
3003
0000
0000
0000
0000
0000
0000
0000
0000
0000
0000
,
0110
0000
0000
1000
0000
0100
0000
0000
1000
0010
0000
0000
0000
0001
0000
0100
,
0000
1000
0000
0001
0000
0010
0000
0000
0000
0100
0000
1000
0000
0010
0000
1000
,
0000
0000
0000
1000
0000
0001
0000
0000
0000
0010
0000
0100
0000
1000
0000
0000
,
0000
0001
0000
1000
0000
0001
0000
0000
0000
0010
0000
1000
0000
0001
0000
0010
,
0000
1000
0000
0000
0000
0100
0000
0010
0000
0001
0000
0000
0000
1000
0000
0100
,
0000
0010
0000
0000
0000
0001
0000
0000
0000
0100
0000
0000
0000
0010
0000
1000
,
0000
0100
0000
0000
0000
0001
0000
0000
0000
0010
0000
0000
0000
0100
0000
1000
,
0000
0000
0000
0001
0000
0000
0000
0000
0000
0000
0000
0000
0000
0000
0000
0100
0000
0000
0000
0000
0000
0000
0000
0000
0000
0000
0000
0010
0000
0000
0000
0000
0000
0000
0000
0000
0000
0000
0000
1000
0000
0000
0000
0010
0000
0000
0000
0100
,
0000
0000
0000
1001
0000
0000
0000
0100
0000
0010
0000
1000
0000
0100
0000
0000
,
0000
0010
0000
0001
0000
1000
0000
0001
0000
0100
0000
0001
0000
0010
0000
0000
,
0000
0100
0000
0001
0000
0010
0000
0000
0000
0100
0000
0001
0000
1000
0000
0000
,
0000
0001
0000
1000
0000
0100
0000
0000
0000
0010
0000
1000
0000
0100
0000
0010
,
0000
0001
0000
0000
0100
0000
0000
1001
0000
0000
0000
0000
0000
0001
0000
1000
,
0000
0001
0000
0010
0000
0100
0000
0000
0000
1000
0000
0000
0000
0010
0000
0000
,
0000
0001
0000
0000
0100
0000
0000
1000
0000
0000
0000
0000
0000
0001
0000
1000
,
0000
0001
0000
0000
0000
0100
0000
0000
0000
1000
0000
0000
0000
0010
0000
0000
,
0000
0001
0000
0000
0010
0000
0000
1000
0000
0000
0000
0000
0000
0100
0000
0000
,
1000
0000
0000
0010
0000
0000
0000
0000
0000
0001
0000
0000
0010
0000
0000
1000
,
0000
0000
0000
0100
0000
0010
0000
0000
0000
0000
0000
0001
0000
0010
0000
0000
,
1000
0000
0000
0000
0000
0001
0000
0000
0000
0100
0000
0000
0000
0010
0000
0000
,
0000
0010
0000
0000
0000
1000
0000
0001
0000
0100
0000
0001
0000
0000
1000
0000
,
0000
0010
0000
0001
0000
1000
0000
0010
0000
1000
0000
0100
0000
0000
0001
0000
,
0000
0010
0000
1000
0000
0000
0000
0000
0010
0000
0000
0100
0000
0001
0000
0100
,
0000
0010
0000
1000
0000
0000
0000
0000
0010
0000
0000
0001
0000
1000
0000
0000
,
0000
0000
0100
0000
0000
0001
0000
1000
0000
0001
0000
0010
0000
1000
0000
0001
,
0000
0000
0010
0000
0100
0000
0000
1000
0000
0010
0000
0000
1000
0000
0000
0000
,
0000
1000
0000
0000
0010
0000
0000
1000
0000
0001
0000
0000
0010
0000
1000
0000
,
0000
0010
0000
0001
0000
0000
0000
2000
0000
0000
0000
0000
0000
0000
0000
0000
,
0000
0000
0000
3001
0000
0000
1000
0000
0000
0001
0000
0000
1000
0000
0000
0001
,
0000
0000
0000
1000
0000
0000
0001
0000
0000
1000
0000
0000
0001
0000
0000
1000
,
0000
0000
0000
0001
0000
0000
0100
0000
0000
0001
0000
0000
0100
0000
0000
0001
,
0000
0000
0100
0000
0000
0001
0000
0000
0100
0000
0000
2002
0000
0000
0000
0000
,
3003
0000
0000
0000
0000
0000
1000
0000
0000
0001
0000
0000
0000
0000
0000
0100
,
0000
0000
1000
0000
0000
0001
0000
0000
0100
0000
1000
0000
0000
0000
0000
0001
,
0000
0100
0000
1000
0000
0000
0000
0001
0000
0000
0000
0100
0000
0000
0000
1001
,
0000
0000
0000
0010
0000
0000
0010
0000
0000
0000
0000
0001
0010
0000
1000
0000
,
0000
1001
0000
0000
0000
0000
0000
0000
0000
0000
0000
0000
0000
0000
0000
0000
;

//--------------- dance-single - ----------------
#NOTES:
     dance-single:
     :
     Hard:
     15:
     0,0,0,0,0:
0000
0000
0000
0000
,
0000
0000
0000
0000
,
0000
0000
0000
0000
,
0000
0000
0000
0000
,
0000
0000
0000
0000
,
0000
0000
0000
0000
,
0000
0000
0000
0000
,
0001
0000
0100
1000
0000
0000
0010
0000
1000
0000
0001
0000
0000
0100
1000
0000
,
0001
0000
0010
0000
0100
0000
0000
1000
0001
0000
0100
0000
0010
0000
0100
0000
,
0001
0000
1000
0000
0010
0000
0001
0000
0100
0000
0001
0000
1000
0000
0000
0001
,
0100
0000
1000
0000
0001
0000
0010
0000
0000
1000
0001
0000
0100
0000
1000
0000
,
0010
0000
0000
0100
0010
0000
0001
0000
1000
0000
0100
0000
0010
0000
0001
0000
,
1000
0000
0100
0000
1000
0000
0001
0000
0100
0000
0010
0000
0100
0000
0001
1000
,
0020
0000
0200
0330
,
1000
0000
0000
0010
0000
0000
0100
0000
0001
0000
0010
0000
0100
0000
1000
0001
,
0100
0000
0010
0000
0100
0000
0001
0000
1000
0000
0010
0002
0000
0000
0000
0000
,
1003
0000
0100
0000
0010
0000
0000
0001
1000
0000
0010
0000
0100
0000
0001
0010
,
0100
0000
0000
1000
0000
0000
0001
0000
0100
0000
1000
0000
0001
0000
0000
0100
,
0000
1000
0010
1000
0000
0001
1000
0000
,
1000
0001
0000
0010
0100
1000
0001
0100
,
0010
0000
0100
0001
1000
0000
0000
0001
0000
0000
1000
0000
0010
0000
0100
0000
,
0001
0000
0000
1000
0000
0000
0001
0000
0010
0000
1000
0000
0001
0000
1000
0200
,
0000
0000
0000
0000
0000
0000
0310
0000
0001
0000
1000
0001
0000
0000
0100
0000
,
0010
0000
0000
1000
0000
0000
0001
0000
0000
0000
1000
0000
0000
0000
0010
0000
1000
0000
0001
0000
0000
0000
0100
0000
,
0000
0010
0000
1000
0000
0100
0010
0001
0100
1000
0000
0001
,
0000
0000
0100
0000
0000
0000
1001
0000
0000
0000
0000
0000
0000
0000
0000
0101
0000
0000
0000
0000
0000
0000
0000
0000
,
0001
1000
0010
0100
0001
0010
0100
1000
,
0010
0100
1010
0000
0000
1001
0000
0000
,
0010
0000
1000
0000
0100
0000
1000
0000
0010
0000
0100
0010
0000
1000
0000
0000
,
0001
0000
0100
0000
0000
1000
0000
0001
0000
0010
0000
0000
1000
0000
0001
0000
,
1000
0000
0000
0001
0000
2002
0000
0000
0000
0000
0000
0000
0000
0000
0000
0000
,
0000
0000
0000
0000
0000
3003
0000
0000
0000
0000
0000
0000
0000
0000
0000
0000
,
0000
1000
0000
0000
0000
1001
0000
0000
0000
0000
0000
0000
0000
0110
0000
0000
,
0000
0000
0000
0000
0000
0100
0000
0001
0000
0000
0000
0000
0000
1000
0000
0000
,
0010
0000
0000
0100
0000
1000
0000
0001
0000
0000
0000
0000
0000
0100
0000
0000
,
0000
0000
0110
0000
0000
0000
0000
0000
0000
0000
1000
0000
0000
0000
0000
0100
0000
0000
0001
0000
0000
0000
0000
0000
0000
0000
0100
0000
0000
0000
0000
0000
,
0000
1000
0000
0001
0000
1000
0000
0000
0000
0000
0000
0100
0000
0001
0000
0000
,
0010
0000
1000
0000
0000
0020
0000
0000
0000
0000
0000
0000
0000
2030
0000
0000
,
0000
0000
0000
0000
3000
0001
0000
0000
0100
0000
0000
0001
1000
0000
0000
0000
,
0000
1000
0000
0000
0001
0000
0000
0010
1000
0000
0000
0001
0000
0010
0000
0001
,
0000
0000
0010
0000
0000
0001
1000
0000
0000
0000
0000
1000
0000
0000
0001
0000
,
0100
1000
0000
0001
0000
1000
0000
0010
0000
1000
0001
0000
0010
0000
0000
1000
,
0001
0000
0100
0000
0000
0001
0020
0000
0000
0000
0000
0000
0000
0000
0000
0000
,
0000
0000
0000
0000
0000
0130
1000
0000
0001
0000
0000
0010
0100
0000
1000
0000
,
0000
0000
0000
0001
0000
0000
0100
0000
0000
0000
0000
0000
0000
0000
0000
0001
0000
0000
0000
0010
0000
0000
0000
0001
0000
0000
0000
0010
0000
0000
0000
0001
0000
0000
0000
0010
0000
0000
0000
0001
0000
0000
0000
0010
0000
0000
0000
0000
,
0000
0100
0000
1000
0000
0100
0000
0010
0000
0001
0000
0010
0000
0001
0000
0010
,
0000
0100
0000
1000
0000
0010
0000
0100
0000
0010
0000
1000
0000
0100
0000
0010
,
0000
0100
0000
0010
0000
0001
0000
0100
0000
0010
0000
1000
0000
0010
0000
1000
,
0000
0010
0000
0100
0000
1000
0000
0000
0000
0001
0000
0000
0000
1000
0000
0000
,
1001
0000
0010
0001
0000
1000
0000
0010
0000
0100
1000
0001
0000
0100
0000
0001
,
0010
1000
0000
0100
0000
0010
0001
0100
0000
1000
0000
0001
0000
0100
0000
0010
,
0000
1000
0000
0100
0000
1000
0000
0010
0000
0100
0000
0001
1000
0100
0000
0001
,
0000
1000
0010
0001
0000
0010
0000
0100
0000
1000
0000
0100
0000
1000
0000
0100
,
0001
0010
1000
0001
0000
0100
0000
0001
0000
1000
0001
0100
0000
0010
0000
0100
,
0000
1000
0100
0001
0000
0010
0000
0001
1000
0100
0000
0001
0000
0010
1000
0100
,
0000
0010
0000
0100
0000
1000
0000
0001
0000
0010
1000
0001
0000
1000
0000
0001
,
0000
0000
0000
0010
0000
0000
1000
0000
0000
0100
0000
0000
0000
0000
0000
0010
0000
0000
0000
0000
0000
0001
0000
0000
0000
0000
0000
1000
0000
0000
0000
0000
0000
0001
0000
0000
0000
0000
0000
1000
0000
0000
0000
0010
0000
0000
0000
0100
,
0000
0000
0000
1001
0000
0100
0000
1000
0000
0001
1000
0010
0000
0100
0001
0010
,
0000
0001
0000
0010
0000
0100
0000
1000
0010
0001
0000
0100
1000
0010
0000
0100
,
0000
0010
0000
0100
0000
0001
1000
0010
0000
0001
1000
0010
0000
0001
0000
0100
,
0000
0010
0000
1000
0010
0001
0000
1000
0001
0100
0000
1000
0000
0010
0000
0100
,
0000
0010
0000
0000
1001
0000
0000
0220
0000
0000
0000
0000
0000
0000
0000
0000
,
0000
0000
0000
0000
0000
0000
0000
0000
0330
0000
0000
1000
0000
0001
0000
0100
,
0000
1000
0000
0000
0001
0000
0000
2002
0000
0000
0000
0000
0000
0000
0000
0000
,
0000
0000
0000
0000
3003
0000
0000
0000
0000
0000
0000
0001
1000
0100
0010
0001
,
1000
0000
0000
0000
1001
0000
0000
0110
0000
0000
0000
0000
0000
0101
0000
0000
,
1001
0000
0000
0110
0000
0000
0000
0000
0000
1001
0000
0000
0101
0000
0000
2002
,
0000
0000
0000
0000
0000
0000
0000
0000
3003
0000
0000
1000
0000
0001
0100
0000
,
0220
0000
0330
0000
0000
0002
0000
0000
0000
2003
0000
0000
3200
0000
0000
0302
,
0000
1003
0000
0000
0100
0000
0000
1001
0000
0100
0000
1000
0000
0001
1000
0000
,
0000
0001
0000
0100
0000
0001
0000
0100
0000
0010
0000
0100
0000
0001
1000
0000
,
0000
0010
0000
1000
0000
0100
0000
0010
1000
0000
0000
1000
0000
0010
0000
1000
,
0000
0010
0000
0100
0000
0010
0000
0100
1000
0000
0000
0100
0000
0010
0000
1000
,
0000
0010
0100
0000
0000
0100
0000
0010
0000
0001
0000
1000
0000
0001
0000
1000
,
0001
0000
0100
0000
0001
0010
0000
1000
0000
0001
1000
0000
0010
0200
0000
0000
,
0000
0000
0000
0000
0000
0000
0000
0000
0000
0310
1000
0000
0010
0000
1000
0100
,
0000
0000
0000
0001
0000
0000
0000
0000
0000
1000
0000
0000
0001
0000
0000
0000
0000
0000
0100
0000
0000
0010
0000
0000
0000
0000
0000
0000
0000
0000
0000
0001
0000
0000
0000
1000
0000
0000
0000
0001
0000
0000
0000
1000
0000
0000
0000
0001
,
0000
1000
0000
0001
0010
0000
1000
0001
0000
0100
0010
0000
1000
0001
0000
0100
,
0000
0000
0000
0001
0000
0000
1000
0001
0000
0010
0001
0000
1000
0100
0000
0001
,
0000
0010
0000
1100
0000
0000
1001
0000
0000
0101
0000
0000
0110
0000
0000
1001
,
0000
0000
0101
0000
0000
1001
0000
0000
0110
0000
0000
2002
0000
0000
0000
0000
,
3003
0000
0000
1000
0001
0000
0100
0010
0000
1000
0001
1000
0000
0000
0000
1000
,
0000
0100
1000
0000
0001
0010
0000
1000
0001
0000
0100
0010
0000
1000
0010
0001
,
0000
0100
0000
1000
0001
0000
0000
1000
0001
0010
0100
1000
0000
0001
0000
1000
,
0000
0000
0000
1001
0000
0000
0110
0000
0001
1000
0000
0101
0101
0000
0110
0000
,
0000
2002
0000
0000
0000
0000
0000
0000
0000
0000
0000
0000
0000
0000
0000
0000
,
3003
0000
0000
0000
;
