
//----- song ID: sofr -----//
#TITLE:I'm Here;
#SUBTITLE:(From Sonic Frontiers);
#ARTIST:Tomoya Ohtani feat. Merry Kirk-Holmes (To Octavia);
#GENRE:ソニック曲;
#MUSIC:I'm Here.ogg;
#BANNER:I'm Here.png;
#BACKGROUND:I'm Here-bg.png;
#CDTITLE:./CDTitles/NSD A3.png;
#SAMPLESTART:72.507;
#SAMPLELENGTH:15.000;
#SELECTABLE:YES;
#OFFSET:0.000;
#BPMS:0.000=187.000;
#STOPS:;
#BGCHANGES:;
#FGCHANGES:;

//--------------- dance-single - ----------------
#NOTES:
     dance-single:
     :
     Beginner:
     3:
     0,0,0,0,0:
0000
0000
0000
0000
,
0000
0000
0000
0000
,
0000
0000
0000
0000
,
0000
0000
0000
0000
,
0000
0000
0000
0000
,
0000
0000
0000
0000
,
0000
0000
0000
0000
,
0000
0000
0000
0000
,
0000
0000
0000
0000
,
0001
0000
0000
0000
,
0000
0000
0000
0000
,
0100
0000
0000
0000
,
0000
0000
0000
0000
,
0010
0000
0000
0000
,
0000
0000
0000
0000
,
1000
0000
0000
0000
,
0001
0000
0000
0000
,
0100
0000
0000
0000
,
0000
0000
0000
0000
,
0010
0000
0000
0000
,
0000
0000
0000
0000
,
1000
0000
0000
0000
,
0000
0000
0000
0000
,
0001
0000
0000
0000
,
0100
0000
0000
0000
,
1000
0000
0001
0000
,
0100
0000
0000
0000
,
0010
0000
0100
0000
,
0010
0000
0000
0000
,
1000
0000
0001
0000
,
0100
0000
0000
0000
,
1000
0000
0001
0000
,
0100
0000
0000
0000
,
1001
0000
0000
0000
,
0100
0000
0000
0000
,
0010
0000
0000
0000
,
1000
0000
0000
0000
,
0001
0000
0000
0000
,
0100
0000
0000
0000
,
0010
0000
0000
0000
,
1000
0000
0000
0000
,
0001
0000
0010
0000
,
0100
0000
0000
0000
,
1000
0000
0100
0000
,
0010
0000
0000
0000
,
0001
0000
0010
0000
,
0100
0000
0000
0000
,
1000
0000
0010
0000
,
0100
0000
0000
0000
,
0001
0000
0010
0000
,
0100
0000
0010
0000
,
1000
0000
0001
0000
,
0100
0000
0010
0000
,
1000
0000
0001
0000
,
0100
0000
0010
0000
,
1000
0000
0001
0000
,
1000
0000
0000
0000
,
1002
0000
0000
0000
,
1003
0000
0000
0200
,
0000
0000
0310
0000
,
0001
0000
0000
0000
,
0010
0000
1000
0000
,
0001
0000
0000
0100
,
0000
1000
0000
0001
,
0000
0100
0000
2000
,
0000
0000
0000
0000
,
3001
0000
0010
2000
,
0000
0000
3001
0000
,
0010
0000
0100
0000
,
0010
0000
0000
0000
,
1000
0000
0000
0001
,
0000
0000
0010
0000
,
0100
0000
1000
0000
,
0001
0000
1001
0000
,
0010
0000
0100
0000
,
1000
0001
0000
0010
,
0000
0200
0000
0000
,
0300
0000
0000
0000
;

//--------------- dance-single - ----------------
#NOTES:
     dance-single:
     :
     Easy:
     6:
     0,0,0,0,0:
0000
0000
0000
0000
,
0000
0000
0000
0000
,
0000
0000
0000
0000
,
0000
0000
0000
0000
,
0000
0000
0000
0000
,
0000
0000
0000
0000
,
0000
0000
0000
0000
,
0000
0000
0000
0000
,
0000
0000
0000
0000
,
0001
0000
0100
0000
,
1000
0000
0000
0000
,
0010
0000
0100
0000
,
0010
0000
0000
0000
,
1000
0000
0001
0000
,
0100
0000
0000
0000
,
0010
0000
0100
0000
,
1000
0000
0000
0000
,
0001
0000
0010
0000
,
0100
0000
0000
0000
,
1000
0000
0001
0000
,
0100
0000
0000
0000
,
0010
0000
0100
0000
,
1000
0000
0000
0000
,
0001
0000
0100
0000
,
0020
0000
0000
0000
,
1030
0100
0010
0000
,
0001
0010
0100
0010
,
1000
0001
0100
0000
,
0010
0001
0010
0100
,
1000
0001
0100
0000
,
0010
0100
1000
0001
,
0100
0000
0010
0000
,
0100
0000
1000
0000
,
0001
0010
0100
0000
,
1000
0001
0100
0000
,
0010
0100
1000
0000
,
0001
0100
0010
0100
,
1000
0001
0100
0000
,
0010
0100
1000
0000
,
0001
0010
0100
0001
,
1000
0001
0100
0010
,
1000
0000
0001
0000
,
0100
0010
0100
0000
,
1000
0000
0001
0000
,
0100
0010
0100
1000
,
0001
0000
0100
0000
,
0010
0100
1000
0001
,
0100
0000
0010
0000
,
0100
0010
0100
0000
,
1000
0001
0100
0000
,
0010
0001
0010
0000
,
0100
1000
0001
0000
,
0100
0010
0100
1000
,
0001
0100
0010
0000
,
0001
1000
0001
0000
,
0100
0010
1000
0001
,
0200
0000
0300
0000
,
1002
0000
0000
0000
,
1003
0100
0010
1000
,
0000
0000
0001
0100
,
0010
0100
1000
0000
,
0001
0000
0010
0100
,
0010
0000
1000
0001
,
0000
0010
0100
1000
,
0000
0001
0100
0010
,
2000
0000
0000
0000
,
3001
0010
0100
0010
,
0000
1000
0001
0100
,
0010
0000
1000
0000
,
0001
0000
0100
0000
,
0010
0000
0100
1000
,
0000
0001
0100
0010
,
0100
1000
0001
0100
,
0010
0000
1000
0000
,
0001
0000
0000
0100
0000
0000
1000
0000
,
0000
0001
0100
0010
,
1000
0002
0000
0000
,
0003
0000
0000
0000
;

//--------------- dance-single - ----------------
#NOTES:
     dance-single:
     :
     Medium:
     10:
     0,0,0,0,0:
0000
0000
0000
0000
,
0000
0000
0000
0000
,
0000
0000
0000
0000
,
0000
0000
0000
0000
,
0000
0000
0000
0000
,
0000
0000
0000
0000
,
0000
0000
0000
0000
,
0000
0000
0000
0000
,
0000
0000
0000
0000
,
0001
0000
0010
0000
,
0100
0000
0010
0000
,
1000
0000
0001
0000
,
0100
0000
0010
0000
,
1000
0000
0001
0000
,
0100
0000
0010
0000
,
0100
0000
0010
0000
,
1000
0000
0001
0000
,
0010
0000
0100
0000
,
0001
0000
1000
0000
,
0010
0000
0100
0000
,
1000
0000
0001
0000
,
0100
0000
0010
0000
,
0100
0000
1000
0000
,
0002
0000
0000
0000
,
0100
0000
0000
0000
,
0103
0000
1000
0000
0100
0010
1000
0000
,
0001
0000
0010
0000
0001
0100
1000
0000
,
0010
0000
1000
0000
0010
0001
0100
0000
,
0010
0000
0100
0000
0001
0100
1000
0000
,
0001
0000
0010
0000
0100
0001
1000
0000
,
0010
0000
1000
0000
0001
1000
0010
0000
,
0001
0000
1000
0100
0001
0000
0010
0000
,
0100
0000
1000
0100
0010
0001
1000
0000
,
0001
0000
0100
1000
0010
0000
0100
0000
,
0001
0000
0010
0001
0100
0000
0010
0000
,
0001
0000
0100
1000
0010
0000
1000
0000
,
0010
0000
1000
0001
0100
0000
1000
0000
,
0001
0000
0100
0001
0010
0000
1000
0000
,
0100
0000
1000
0001
0010
0000
0100
0000
,
0001
0000
0010
1000
0001
0000
0100
0000
,
0001
1000
0010
0001
0100
0000
1000
0000
,
0100
0010
0100
1000
,
0001
0100
0001
0010
,
0100
0010
0001
0010
,
0100
1000
0001
1000
,
0100
1000
0010
0100
,
0001
1000
0001
1000
,
0010
1000
0010
0100
,
0001
0100
0010
0100
,
0010
0001
1000
0000
0001
0000
1000
0000
,
0100
0010
0001
0100
,
0010
0001
0100
0000
0001
0000
1000
0000
,
0001
0010
0100
0000
0010
0000
1000
0000
,
0100
0010
1000
0000
0001
0000
0100
0000
,
0001
0010
0100
0000
0010
0000
0100
0000
,
0001
1000
0100
0010
,
0001
0000
0000
0000
,
1002
0000
0100
0000
,
1003
0100
0010
1000
,
0000
1000
0001
0100
,
0010
0000
0100
0000
1000
0000
0100
1000
,
0001
0000
0010
0100
,
0010
0000
0000
1001
0000
0000
0110
0000
,
0000
0000
0010
0001
0100
0001
1000
0100
,
0010
0001
0100
0010
,
2000
0000
0010
0000
,
3001
0010
0100
0010
,
0000
1000
0001
0100
,
0010
0000
0001
0100
1000
0000
0100
0000
,
0001
0000
0100
0000
,
0010
0000
0000
0110
0000
0000
1001
0000
,
0000
0000
0001
0000
0100
0001
0010
0000
,
0100
1000
0001
0100
,
0020
0000
1030
0000
,
0001
0000
0000
0100
0000
0000
1000
0000
,
0000
0001
0100
0010
,
0001
2000
0000
0000
,
3000
0000
0000
0000
;

//--------------- dance-single - ----------------
#NOTES:
     dance-single:
     :
     Hard:
     14:
     0,0,0,0,0:
0000
0000
0000
0000
,
0000
0000
0000
0000
,
0000
0000
0000
0000
,
0000
0000
0000
0000
,
0000
0000
0000
0000
,
0000
0000
0000
0000
,
0000
0000
0000
0000
,
0000
0000
0000
0000
,
0000
0000
0000
0000
,
0001
0000
1000
0002
0000
0000
0000
0000
,
0000
0000
0000
0013
,
0100
0000
1000
0001
0000
0000
1000
0100
,
0000
0020
0000
1030
,
0100
0000
0010
0200
0000
0000
0000
0000
,
0000
0300
0000
0000
,
1000
0000
0000
0001
0000
0000
0200
0000
,
0000
0000
0000
0300
,
0001
1000
0010
0100
,
1000
0000
0000
0001
0000
0000
0200
0000
,
0000
0000
0000
0310
,
0100
1000
0001
0100
,
0020
0000
0000
0000
0000
0000
0031
2000
,
0000
0000
0000
0000
,
0000
0000
0000
0000
,
0002
0000
3000
0000
,
0103
1000
0010
0001
0100
0010
1000
0100
,
0001
1000
0010
0100
0001
0100
1000
0010
,
0001
0100
1000
0001
0010
1000
0100
1000
,
0001
0100
0010
0100
0001
0010
1000
0001
,
0100
0000
1000
0000
0001
1000
0010
0100
,
0001
0010
0100
1000
0001
0100
0010
0001
,
0100
0000
0010
0000
0001
1000
0100
0010
,
0001
0000
0010
0000
0100
1000
0001
0100
0010
0000
0001
0000
0200
0000
0000
0000
,
0301
0010
1000
0001
0100
0010
1000
0100
,
0010
0001
0100
1000
0001
0100
0010
0001
,
0100
0010
1000
0100
0001
1000
0010
1000
,
0001
0100
1000
0001
0010
0000
0100
0000
0001
0000
0010
0000
1000
0000
0100
0000
,
0010
0001
0100
0010
0001
1000
0100
0001
,
0010
0000
0100
0000
1000
0000
0010
0000
0001
0000
0010
0000
1000
0100
0001
0010
,
0100
1000
0010
0001
0100
1000
0010
0100
,
0001
1000
0010
0001
0100
0000
1000
0010
0001
1000
0100
0000
0010
0000
1000
0000
,
0002
1000
0100
1003
,
0010
0000
1000
0001
0010
0000
0100
0000
,
0010
1000
0100
0010
0001
0000
1000
0000
,
0100
0001
0010
1000
0100
0001
0010
0000
,
2000
0100
0001
3100
,
0001
0100
1000
0010
0100
1000
0010
0001
,
0100
0000
0010
0000
0001
0100
1000
0001
,
0010
0001
0100
0001
1000
0000
0001
0100
0010
1000
0100
0000
1000
0000
0010
0000
,
0001
1000
0100
0010
0001
1000
0010
0001
,
0100
1000
0010
0001
0100
1000
0010
0100
,
0001
0010
1000
0001
0010
0001
0100
1000
,
0001
0100
0010
0001
0100
0010
1000
0100
,
0001
1000
0100
0000
0010
0001
1000
0000
,
0100
0001
0010
0000
0100
1000
0010
0000
,
0100
0001
1000
0100
0001
0010
0100
0000
,
1010
0000
0000
0000
,
2002
3000
0100
0000
,
1003
0000
0100
1000
0010
0000
1000
0001
,
0000
0010
1000
0000
0001
0010
0100
0000
,
0010
1000
0100
0000
1000
0000
0100
1000
,
0001
0000
0100
0000
0010
1000
0100
0001
,
0010
0000
0000
1001
0000
0000
0110
0000
,
0000
0000
0010
0001
0100
0001
1000
0100
,
0010
1000
0001
0010
0100
0001
0010
0100
,
2002
0003
0010
0000
,
3001
0000
0010
1000
0100
0001
0020
0000
,
0000
0000
1030
0000
0001
0010
0100
0000
,
0010
1000
0001
0100
1000
0001
0100
0010
,
0011
0000
1100
0000
,
0110
0000
0000
0110
0000
0000
1001
0000
,
0000
0000
0000
0000
0001
0000
1000
0000
0100
0000
0001
0000
0010
0000
0001
0010
,
0100
1000
0010
0000
1000
0000
0100
0000
0001
0000
1000
0000
0100
0000
1000
0000
,
0020
0000
1030
0000
,
0011
0000
0000
0110
0000
0000
1001
0000
,
0000
0001
0100
0010
,
0001
2002
0000
0000
,
3003
0000
0000
0000
;
