#TITLE:I Need You Now;
#SUBTITLE:;
#ARTIST:RiraN;
#TITLETRANSLIT:;
#SUBTITLETRANSLIT:;
#ARTISTTRANSLIT:;
#GENRE:Galaga Legions;
#CREDIT:;
#MUSIC:I Need You Now.ogg;
#BANNER:I Need You Now.png;
#BACKGROUND:I Need You Now-bg.png;
#CDTITLE:/CDTitles/Galaga Legions X-Finity.png;
#SAMPLESTART:48.064;
#SAMPLELENGTH:15.000;
#SELECTABLE:YES;
#OFFSET:-0.077;
#BPMS:0.000=195.000;
#STOPS:68.000=0.923
,137.000=4.615
,230.000=0.923
;
#BGCHANGES:;
#FGCHANGES:;

//--------------- dance-single - ----------------
#NOTES:
     dance-single:
     :
     Beginner:
     5:
     0,0,0,0,0:
0000
0000
0000
0000
,
0000
0000
0000
0000
,
0000
0000
0000
0000
,
0000
0000
0000
0000
,
0000
0000
0000
0000
,
0000
0000
0000
0000
,
0000
0000
0000
0000
,
0000
0000
0000
0000
,
0000
0000
0000
0000
,
0000
0000
0000
0000
,
0001
0000
0000
0000
,
1000
0000
0000
0000
,
0001
0000
0000
0000
,
0010
0000
0000
0000
,
0100
0000
0010
0000
,
1000
0000
0001
1000
,
0001
0100
0010
0100
,
1000
0100
0010
0001
,
1001
0001
1000
0001
,
0000
0010
0100
1000
,
0000
0001
0100
0010
,
0000
1000
0100
0010
,
0100
1000
0001
0100
,
0000
0010
0001
1000
,
0000
0001
0010
0100
,
0000
1000
0001
0100
,
1001
0100
0010
0100
,
0000
0001
1000
0001
,
0000
0010
0100
1000
,
0000
0001
0100
0010
,
0000
1000
0001
0100
,
0000
0010
0100
1000
,
0000
0001
1000
0001
,
0100
0010
0100
1000
,
0001
1001
0010
0000
,
0000
0000
0100
0000
,
0000
0000
0010
0000
,
0000
0000
1000
0000
,
0000
0000
0001
0000
,
0000
0000
0010
0000
,
0000
0000
0100
0000
,
0000
0000
1000
0000
,
0000
0000
0001
0000
,
0100
0000
0010
0000
,
1000
0000
0001
0000
,
0010
0000
0100
0000
,
0001
0000
1000
0000
,
0001
0000
0100
0000
,
0010
0000
1000
0000
,
0001
0000
2000
0000
,
0000
0000
3001
0000
,
0000
0000
0010
0000
,
0000
0000
0100
0000
,
0000
0000
1000
0000
,
0000
0000
0001
0000
,
0010
0000
0100
0000
,
0001
0000
1000
0001
,
0100
0010
1001
0010
,
0000
0100
0000
0001
,
0100
0010
0000
1000
,
0001
0100
0000
0001
,
1000
0001
0000
0010
,
0100
0010
0000
0001
,
0010
0001
0000
1000
,
0100
1000
0000
0001
,
1000
0001
0000
0100
,
0000
0010
0000
0001
,
1000
0001
0000
0100
,
0010
0100
0000
1000
,
0001
0100
0000
1000
,
0001
0100
0010
1000
,
0001
0100
0000
0010
,
0001
0100
0000
1000
,
0001
0100
0010
1000
,
0000
0000
0000
0001
,
0000
0100
0000
1000
,
0000
0001
0000
0010
,
0000
0100
0000
0010
,
0100
1000
0000
0001
,
0000
1000
0000
0001
,
0000
0100
0000
0010
,
1000
0001
0000
0100
,
0010
0100
0000
1001
;

//--------------- dance-single - ----------------
#NOTES:
     dance-single:
     :
     Easy:
     9:
     0,0,0,0,0:
0000
0000
0000
0000
,
0000
0000
0000
0000
,
0000
0000
0000
0000
,
0000
0000
0000
0000
,
0000
0000
0000
0000
,
0000
0000
0000
0000
,
0000
0000
0000
0000
,
0000
0000
0000
0000
,
0000
0000
0000
0000
,
0000
0000
0000
0000
,
0001
0010
0100
1000
,
0010
0100
0010
0100
,
0010
1000
0100
1000
,
0001
0100
0010
0100
,
0001
1000
0010
0100
,
0001
0100
0001
0100
,
0010
0100
1000
0000
0100
0001
0010
0000
,
0100
1000
0001
0100
,
1001
0100
0001
1000
,
0010
0100
0001
0100
,
0001
1000
0010
0000
0001
0000
0100
0000
,
0010
0000
1000
0001
0010
0000
0100
1000
,
0001
0010
0100
1000
,
0010
0100
0010
1000
,
0010
0000
1000
0001
0100
0000
1000
0000
,
0100
0010
0100
0010
,
1001
0010
0001
1000
,
0010
0100
0010
1000
,
0010
1000
0100
0000
0001
0000
0100
0000
,
0001
1000
0010
0100
,
0010
0001
1000
0100
0010
0000
0100
0000
,
0001
1000
0001
0100
,
0001
0000
0010
1000
0100
0000
1000
0100
,
0001
1000
0010
1000
,
0100
0110
0001
0000
,
0100
0000
0001
0000
,
1000
0000
0010
0000
,
1000
0000
0001
0000
,
0010
0000
0001
0010
,
0100
0010
0001
0100
,
0001
0100
0001
0010
,
2000
0000
0000
0000
,
3001
0000
0001
1000
,
0100
1000
0001
0100
,
0001
0100
0010
0100
,
0010
1000
0001
0010
,
0100
0010
0001
0100
,
0001
0100
0001
0010
,
0100
1000
0010
0100
,
0001
1000
0002
0000
,
0000
0000
0013
1000
,
0010
0100
0001
0010
,
0100
1000
0100
1000
,
0100
0010
0001
0010
,
0100
0000
0010
0000
0100
0001
1000
0000
,
0001
0000
0100
0000
0010
1000
0100
0000
,
0001
0000
0100
0000
0001
0010
1000
0000
,
0010
0001
1000
0000
1001
0000
0010
0000
,
0100
1000
1001
1000
,
0010
1000
0100
0010
,
0100
0000
0010
0000
0100
0001
1000
0000
,
0001
0000
0010
0000
0001
0000
0100
1000
,
0001
0000
0100
0000
0010
0100
1000
0000
,
0100
0000
1000
0000
0100
0000
0010
1000
,
0001
0000
1000
0000
0100
0000
1000
0010
,
0001
0010
0001
1000
,
0010
0100
0020
1030
,
0100
0010
0001
1000
,
0100
0000
0010
0000
0001
0100
1000
0000
,
0010
0100
0010
1000
,
0001
0100
0200
1300
,
0001
0000
0100
0000
0010
1000
0100
0000
,
0001
0000
0010
0000
0100
0000
0010
1000
,
0001
0000
0010
1000
0001
0000
0100
0000
,
0001
0010
1000
0000
0010
0000
1001
0000
,
0010
0100
0010
0110
,
0001
1000
0010
1001
,
0001
0110
0001
1010
,
0001
1000
0010
1001
,
0001
1000
0001
0110
,
0001
1000
0100
1001
,
0010
1100
0010
0100
,
0010
1000
0001
1001
;

//--------------- dance-single - ----------------
#NOTES:
     dance-single:
     :
     Medium:
     11:
     0,0,0,0,0:
0000
0000
0000
0000
,
0000
0000
0000
0000
,
0000
0000
0000
0000
,
0000
0000
0000
0000
,
0000
0000
0000
0000
,
0000
0000
0000
0000
,
0000
0000
0000
0000
,
0000
0000
0000
0000
,
0000
0000
0000
0000
,
0000
0000
0000
0000
,
0001
0100
0001
0010
,
0100
1000
0100
1000
,
0010
0100
0010
0100
,
0001
0100
0001
0010
,
0100
0001
1000
0001
0100
1000
0010
0001
,
0100
1000
0010
0100
0001
0100
0010
1000
,
0001
0010
0100
1000
0001
0010
0100
0001
,
0010
1001
0110
0110
,
1001
0000
1000
0000
0100
1000
0010
0001
,
0100
0010
1000
0010
0100
1000
0010
0100
,
0001
0000
0100
0000
0010
0100
1000
0010
,
0001
0000
0010
0100
0001
1000
0100
0000
,
0020
0000
1030
0000
0100
0001
0010
1000
,
0001
0000
0010
1000
0001
0010
0100
0010
,
0001
0100
1000
0001
0100
0000
0010
1000
,
0001
0110
0011
1100
,
1001
0000
1000
0001
0100
0000
0010
0001
,
0100
0000
1000
0001
0010
0100
1000
0100
,
0010
0001
0100
1000
0001
0000
0110
0000
,
0001
0000
1000
0001
0100
1000
0010
0001
,
0200
0000
1300
0000
0101
0000
1000
0100
,
0010
0100
1000
0001
0100
1000
0010
0001
,
0100
0000
1000
0001
0100
0000
1000
0100
,
0001
0110
0101
1010
,
1001
1001
0020
0000
,
0130
0000
2000
0000
,
3001
0000
0002
0000
,
1003
0000
0200
0000
,
0310
0000
0010
0100
,
0010
1000
0100
1000
,
0010
0100
0010
1000
,
0010
0100
0001
0010
,
0100
0000
1000
0000
0010
0100
1000
0000
,
0001
0000
0100
0000
0010
0001
1000
0000
,
0010
0000
0100
0000
0001
1000
0100
0000
,
0001
0010
1000
0000
0001
0100
0010
1000
,
0100
0001
0010
0000
0001
0010
1000
0000
,
0001
0000
0100
0000
0010
0001
1000
0000
,
0100
0000
1000
0000
0001
1000
0010
0000
,
0100
0001
0010
1000
0200
0000
0010
0000
,
0001
1000
0310
0100
,
0001
0010
0100
0000
0010
0000
1000
0000
,
0100
0010
1000
0000
0001
0000
0010
0000
,
0100
0001
1000
0000
0100
0000
1000
0010
,
0001
0000
1000
0000
0001
0010
0100
0000
,
0010
0000
1000
0000
0001
0100
1000
0000
,
0010
0000
1000
0000
0001
1000
0100
0000
,
0001
1000
0010
0000
1001
0000
1000
0000
,
0001
0000
1000
0000
1001
0000
0010
1000
,
0100
0000
0010
1000
0100
0001
0010
0000
,
0001
0010
1000
0000
0100
0001
0010
1000
,
0100
0000
0010
0001
0100
0000
1000
0010
,
0001
0000
1000
0010
0100
0001
0010
1000
,
0001
0000
0100
0000
0001
0100
1000
0100
,
0010
0000
0100
0000
0010
0001
0100
1000
,
0010
0000
1000
0001
0100
0000
1000
0001
,
0100
0001
1000
0000
0010
0000
1100
0000
,
0010
0100
1000
0001
0100
0000
0010
1000
,
0001
0000
0010
1000
0001
0000
0100
1000
,
0010
0001
0100
0000
0010
0000
0100
1000
,
0001
0000
0010
0100
0001
0000
0010
1000
,
0001
0010
0100
0000
0010
0000
0100
0001
,
0010
1000
0100
0000
0001
0000
1000
0100
,
0010
0000
0100
1000
0001
0000
0100
0010
,
0001
1000
0001
1001
,
0100
0000
1000
0100
0001
0000
0100
0000
,
0010
0001
1000
0000
0100
0001
1000
0000
,
0010
1000
0100
0000
0001
1000
0010
0001
,
0100
0001
1000
0001
0100
0000
0010
0000
,
0001
0000
0100
1000
0010
0001
1000
0000
,
0100
0001
0010
0000
0001
1000
0100
1000
,
0010
0000
0100
1000
0001
0010
0100
0001
,
0010
0100
1000
0100
0001
0000
1001
0000
;

//--------------- dance-single - ----------------
#NOTES:
     dance-single:
     :
     Hard:
     16:
     0,0,0,0,0:
0000
0000
0000
0000
,
0000
0000
0000
0000
,
0000
0000
0000
0000
,
0000
0000
0000
0000
,
0000
0000
0000
0000
,
0000
0000
0000
0000
,
0000
0000
0000
0000
,
0000
0000
0000
0000
,
0000
0000
0000
0000
,
0000
0000
0000
0000
,
0010
1000
0001
0100
,
0010
0000
0000
0000
0100
0000
0000
0000
0001
0000
0000
1000
0000
0000
0100
0000
,
0001
0100
0010
1000
,
0001
0000
0000
0000
0100
0000
0001
0000
1000
0000
0000
0100
0000
0000
0010
0000
,
1000
0001
0100
0010
1000
0100
0010
0100
,
1000
0000
0001
0000
0010
0000
0001
0000
1000
0000
0010
0000
0100
0000
0010
0001
,
0100
1000
0100
0010
0100
1000
0001
0010
0100
1000
0100
0010
0100
1000
0010
1000
,
0010
0000
0000
0000
0220
0330
0000
0000
2002
3003
0000
0000
0220
0330
0000
0000
,
2002
3003
0000
0000
0100
0000
0010
0000
0100
0000
1000
0000
0010
0000
1000
0000
,
0001
0000
0100
1000
0001
0000
0100
0000
0001
0000
0010
0000
0100
0000
0010
1000
,
0001
0000
0100
0010
0001
0000
0100
0000
0010
0000
0100
0000
0010
0001
1000
0000
,
0010
0000
1000
0100
0001
0010
0100
1000
0010
0000
0100
0000
0001
1000
0100
0000
,
0020
0000
0000
0000
0130
0000
1000
0000
0001
1000
0010
0000
0100
0000
0010
0000
,
0001
0000
1000
0000
0100
0000
1000
0001
0010
0000
1000
0000
0010
0000
0100
1000
,
0001
0010
1000
0000
0010
0000
0100
0000
0010
0001
0100
0000
0010
0100
1000
0000
,
0100
0000
0010
0000
0022
0033
0000
0000
0220
0330
0000
0000
2020
3030
0000
0000
,
1001
0000
0001
1000
0001
1000
0001
0100
,
0010
1000
0100
0000
0010
0000
0100
0000
0001
0000
1000
0000
0010
0000
1000
0001
,
0100
0000
1000
0001
0100
0000
0010
0000
0001
0010
1000
0000
0100
0000
0010
1000
,
0100
0001
0010
0000
0002
0000
0000
0000
1003
0000
0010
1000
0100
0000
1000
0010
,
0002
0000
0000
0000
0103
0000
0010
1000
0100
0000
0010
0000
0100
0000
0010
1000
,
0001
0000
1000
0001
0100
0000
1000
0000
0001
0010
1000
0000
0100
0000
0010
0000
,
0100
0000
1000
0001
0010
0000
0100
0000
0001
0000
1000
0000
0010
0100
1000
0000
,
0010
0100
1000
0000
0022
0033
0000
0000
0220
0330
0000
0000
2002
3003
0000
0000
,
0110
0000
0000
0000
2002
3003
0000
0000
0002
0000
0000
0000
0000
0000
0000
0000
,
2003
0000
3200
0000
,
0320
0000
0032
0000
,
0023
0000
2030
0000
,
3002
0000
0103
1000
,
0001
0100
0010
0001
,
1000
0001
0100
0010
,
0100
1000
0001
0100
,
0010
0000
2000
0000
3001
0100
1000
0010
,
0100
0001
0100
0001
0010
0100
0010
0100
,
1000
0000
0100
0001
1000
0000
0001
0000
0100
0000
0001
0000
1000
0000
0001
0000
,
1000
0010
1000
0010
0100
0001
1000
0001
,
0010
0000
0100
0001
1000
0000
0010
0000
0100
0000
0010
0000
1000
0000
0001
0000
,
1000
0001
0100
0001
0010
0100
1000
0010
,
1000
0000
0001
0010
0100
0000
0001
0000
0010
0000
0001
0000
1000
0000
0100
0000
,
0020
0230
0320
0230
,
0000
0320
0031
1000
,
0100
0010
0001
0010
,
0001
0000
0000
0010
0000
0000
1000
0000
0100
0000
0000
0000
1000
0000
0000
0000
,
0010
0100
0010
1000
,
0001
0000
0000
1000
0000
0000
0010
0000
0001
0000
0010
0000
0001
0000
0100
0000
,
0001
1000
0010
1000
0100
0010
0001
1000
,
0001
0000
1000
0000
0100
0000
0010
1000
0100
0010
0001
0100
0010
0100
0010
1000
,
0001
0010
0001
0100
0001
0100
0010
1000
1001
0000
0000
0000
0022
0033
0000
0000
,
0220
0330
0000
0000
2002
3003
0000
0000
0220
0330
0000
0000
0010
0000
0100
0000
,
0010
0000
0001
0010
0100
0000
0001
0000
1000
0000
0010
0001
1000
0000
0010
0000
,
1000
0000
0100
0000
0010
0000
0100
0001
1000
0000
0010
0100
1000
0000
0010
0000
,
0100
0000
0010
0000
0100
1000
0001
0000
0100
0000
0001
0010
1000
0100
0010
0001
,
0100
0000
0010
0000
1000
0001
0010
0000
0200
0000
0000
0000
0310
0000
0001
0000
,
1000
0001
0100
0000
0010
0000
0100
0000
1000
0000
0001
0000
0010
0000
0001
1000
,
0100
0000
0001
0000
0100
0000
0010
0001
1000
0100
0001
0000
0100
0000
0010
0000
,
0100
1000
0010
0000
0100
0010
0001
0000
0010
0000
0100
0000
2200
3300
0000
0000
,
0220
0330
0000
0000
0202
0303
0000
0000
1001
0000
0000
0000
1000
0000
0001
0000
,
1000
0000
0001
0100
1000
0000
0010
0000
0100
0001
0010
0000
0100
0000
0010
0000
,
1000
0000
0001
0010
0100
0000
0001
1000
0010
0000
0001
1000
0010
0000
0100
0000
,
1000
0100
0001
0000
0010
0000
0100
0001
0010
1000
0100
0000
1000
0010
0000
0100
,
0001
0000
0100
0001
0010
0000
0001
0100
1000
0010
0000
0100
0010
0000
0100
0001
,
0010
0000
0100
0000
0010
0000
0100
0001
1000
0000
0001
1000
0010
0000
0001
0000
,
1000
0100
0001
0000
0010
0000
0100
0000
0010
0000
0001
1000
0100
0000
0010
0000
,
1000
0000
0001
0000
0100
0010
0001
0000
0100
0010
0001
0000
2200
3300
0000
0000
,
0220
0330
0000
0000
2002
3003
0000
0000
0110
0000
0000
0000
0100
0000
0010
0000
,
0100
0000
1000
0001
0010
0000
1000
0010
0002
0000
0000
0000
1003
0000
0100
0000
,
0001
0000
0010
0000
0100
0000
0010
1000
0001
0000
0100
0010
0001
0000
0100
0000
,
0010
0000
0100
0000
0010
0001
1000
0000
0010
0000
1000
0100
0001
0010
0100
1000
,
0010
0001
0100
0010
0001
1000
0100
0001
0020
0000
0000
0000
0130
0000
1000
0000
,
0001
1000
0010
0000
0100
0000
0010
0000
0002
0000
0000
0000
0103
0000
1000
0001
,
0010
0000
1000
0000
0010
0000
0100
1000
0001
0010
1000
0000
0010
0000
0100
0000
,
0010
0001
0100
0000
0010
0100
1000
0000
0100
0000
0010
0000
0022
0033
0000
0000
,
0220
0330
0000
0000
2020
3030
0000
0000
0220
0330
0000
0000
2002
0000
0000
0000
,
0000
0000
0000
0000
,
3003
0000
0000
0000
;
