
//----- song ID: tanu -----//
#TITLE:不機嫌なキミ;
#ARTIST:Room97;
#TITLETRANSLIT:Hukigen na Kimi;
#GENRE:けものフレンズ×NonStopDance -フレンズの歌の音楽-;
#MUSIC:Hukigen na Kimi.ogg;
#BANNER:Hukigen na Kimi.png;
#BACKGROUND:Hukigen na Kimi-bg.png;
#CDTITLE:./CDTitles/NSD A3.png;
#SAMPLESTART:76.855;
#SAMPLELENGTH:15.000;
#SELECTABLE:YES;
#OFFSET:0.000;
#BPMS:0.000=128.000;
#STOPS:;
#BGCHANGES:;
#FGCHANGES:;

//--------------- dance-single - ----------------
#NOTES:
     dance-single:
     :
     Beginner:
     1:
     0,0,0,0,0:
0000
0000
0000
0000
,
0000
0000
0000
0000
,
0000
0000
0000
0000
,
0000
0000
0000
0000
,
0000
0000
0000
0000
,
0001
0000
0000
0000
,
0001
0000
0000
0000
,
1000
0000
0100
0000
,
0010
0000
0001
0000
,
1000
0000
0000
0000
,
0010
0000
0000
0000
,
0010
0000
0000
0000
,
1000
0000
0000
0000
,
0001
0000
0000
0000
,
0010
0000
0000
0000
,
0100
0000
0000
0000
,
1000
0000
0000
0000
,
0001
0000
0000
0000
,
0010
0000
0000
0000
,
0100
0000
0000
0000
,
1000
0000
0000
0000
,
0001
0000
0000
0000
,
0010
0000
0000
0000
,
0100
0000
0000
0000
,
1000
0000
0000
0000
,
0010
0000
0000
0000
,
0100
0000
0000
0000
,
0010
0000
0000
0000
,
0001
0000
0000
0000
,
1000
0000
0000
0000
,
0100
0000
0000
0000
,
0010
0000
0000
0000
,
0001
0000
0000
0000
,
0010
0000
0000
0000
,
1000
0000
0000
0000
,
0001
0000
0000
0000
,
0100
0000
0000
0000
,
0010
0000
0000
0000
,
1000
0000
0000
0000
,
0001
0000
0000
0100
,
0000
0010
0000
0000
,
1001
0000
0100
0000
,
0010
0000
0001
0000
,
0010
0000
1000
0000
,
0001
0000
0100
0000
,
0001
0000
0010
0000
,
0100
0000
1000
0000
,
0001
0000
0010
0000
,
0100
0000
1000
0000
,
0001
0000
0010
0000
,
0100
1000
0100
0000
,
0001
0000
0010
0000
,
1000
0001
0100
0000
,
0010
0000
0100
0000
,
1000
0001
0100
0000
,
0010
0000
0100
0000
,
1000
0001
0100
0000
,
0010
0000
0100
0000
,
1000
0000
0000
0001
,
0100
0000
0000
0010
,
0100
0000
1000
0000
,
0001
0000
0010
0100
,
1000
0000
0010
0100
,
0001
0000
1000
0001
,
0000
0000
0100
0000
0000
0001
0000
0000
0000
1000
0000
0000
0000
0000
0000
1001
;

//--------------- dance-single - ----------------
#NOTES:
     dance-single:
     :
     Easy:
     4:
     0,0,0,0,0:
0000
0000
0000
0000
,
0000
0000
0000
0000
,
0000
0000
0000
0000
,
0000
0000
0000
0000
,
0000
0000
0000
0000
,
0010
0000
0000
0000
,
0100
0000
0000
0000
,
0001
0000
0000
0000
,
1000
0000
0000
0000
,
0010
0000
1000
0000
,
0001
0010
0100
0000
,
1000
0000
0010
0000
,
0100
0010
0100
0000
,
1000
0000
0001
0000
,
0100
0010
0001
0000
,
1000
0000
0001
0000
,
0010
0100
1000
0000
,
0010
0000
1000
0000
,
0001
0000
0010
0000
,
0100
0000
0010
0000
,
1000
0000
0001
0000
,
0010
0000
0100
0000
,
1000
0000
0001
0000
,
0010
0000
1000
0000
,
0001
0010
0100
0000
,
1000
0000
0000
0000
,
0001
0000
0000
0000
,
0100
0000
0000
0000
,
0010
0000
0000
0000
,
0100
0000
1000
0000
,
0001
0000
0000
0000
,
0001
0010
0100
0000
,
1000
0001
0100
0010
,
1000
0000
0000
0000
,
0001
0000
0000
0000
,
0010
0000
0000
0000
,
0100
0000
0000
0000
,
1000
0000
0001
0000
,
0100
0000
0010
0000
,
0010
0000
0100
0000
,
0100
0000
0000
0000
,
1001
0000
0100
0000
,
0010
0100
1000
0000
,
0001
0000
0010
0000
,
0100
0000
1000
0000
,
0001
0000
0010
0000
,
0001
0000
0000
0000
,
1000
0000
0100
0000
,
1000
0000
0000
0000
,
0110
0000
0000
0000
,
0001
0000
0000
0000
,
1000
0000
0000
0000
,
0001
0000
0010
0000
,
0100
0000
0000
0000
,
1000
0000
0001
0000
,
0010
0000
0000
0000
,
0010
0000
0100
0000
,
1000
0000
0000
0000
,
0001
0000
0000
0010
,
0000
0100
0000
0010
,
0000
1000
0001
0010
,
0100
0000
1000
0000
,
0001
0000
0010
0000
,
0010
0000
0100
0000
,
1000
0001
0100
0000
;

//--------------- dance-single - ----------------
#NOTES:
     dance-single:
     :
     Medium:
     7:
     0,0,0,0,0:
0000
0000
0000
0000
,
0000
0000
0000
0000
,
0000
0000
0000
0000
,
0000
0000
0000
0000
,
0000
0000
0000
0000
,
1000
0000
0001
0000
,
0010
0000
0100
0000
,
1000
0000
0001
0000
,
0010
0100
2000
0000
,
3001
0010
0100
0000
,
1000
0001
0100
0000
,
0010
0100
1000
0000
,
0001
0010
0100
0000
,
0010
0100
0001
0000
,
1000
0001
0100
0000
,
0010
0100
0001
0000
,
0010
0100
1000
0000
,
0001
0010
0100
0000
,
1000
0001
0100
0010
,
0100
1000
0001
0000
,
0100
1000
0001
0010
,
0100
0001
1000
0001
,
0100
0000
0010
0000
,
1000
0001
0010
0000
,
0100
0010
1000
0000
,
0001
0100
0010
0000
,
0100
1000
0001
0000
,
0010
0001
0100
0000
,
0010
0100
1000
1001
,
0100
0000
0010
0000
,
0100
0000
0001
0000
,
0010
0100
1000
0000
,
0001
0010
0100
0010
,
1001
0000
0100
0000
,
0010
0000
0001
0000
,
0010
0000
0100
0000
,
1000
0000
0010
0000
,
0001
0010
0100
0000
,
1000
0001
0100
0000
,
0001
0010
0100
0000
,
1000
0100
0020
0030
,
1001
0010
0100
1000
,
0001
0100
0010
0000
,
0010
0100
0001
0100
,
0010
0100
1000
0000
,
0001
0100
0010
1000
,
0001
0100
0010
0000
,
0100
0010
1000
0001
,
0100
0010
0100
1000
,
0001
0000
0010
0000
,
0100
0000
1000
0000
,
0001
0000
0010
0000
,
0100
0000
0001
0000
,
0010
0100
1000
0000
,
0001
1000
0010
0000
,
0100
0010
0100
0000
,
1000
0100
0010
0000
,
0001
0001
0000
1000
,
0000
0010
0000
0100
,
0000
0010
0000
0100
,
0000
1000
0000
0001
,
0100
0010
0000
1000
,
0000
0001
0000
0010
,
0000
0100
0000
0010
,
1000
0001
0100
1001
;

//--------------- dance-single - ----------------
#NOTES:
     dance-single:
     :
     Hard:
     11:
     0,0,0,0,0:
0000
0000
0000
0000
,
0000
0000
0000
0000
,
0000
0000
0000
0000
,
0000
0000
0000
0000
,
0000
0000
0000
0000
,
0001
0000
0010
0000
0100
0000
1000
0001
,
0100
0000
0010
0000
0100
0000
0010
0001
,
0010
0100
0010
0100
,
1000
0001
0100
0010
0200
0000
0000
0000
,
0301
0010
0100
1000
,
0001
0100
0001
0010
,
0100
0001
1000
0001
,
0100
0010
0100
1000
,
0001
0010
0100
0000
1000
0001
0100
0000
,
0010
0000
0100
0000
0010
0100
1000
0001
,
0100
0010
0100
0010
,
1000
0001
0100
0000
0010
0100
1000
0000
,
0001
0100
0010
1000
,
0001
0000
0100
0000
0010
0001
0010
0000
,
0100
1000
0001
0100
,
0010
0000
1000
0000
0100
1000
0100
0000
,
0010
0010
0001
0010
,
0100
0000
0010
0000
1000
0100
1000
0000
,
0010
0100
1000
0001
,
0010
0100
1001
0000
,
0010
0100
1000
0000
0001
0000
0100
0000
,
0010
0100
0001
0000
0010
0000
0100
0000
,
1000
0001
0100
0000
0010
0000
0100
0000
,
1000
0001
0100
0000
0010
0000
0100
0000
,
1000
0100
1000
0000
0100
0000
0010
0000
,
0100
1000
0100
0000
0010
0000
0100
0000
,
0100
1000
1000
1000
0100
0000
1000
0000
,
0001
0100
0001
0000
0010
0100
0010
0000
,
0001
0000
0001
0000
0010
0001
0010
0000
,
0100
0010
0100
0010
,
0100
0010
0100
0000
1000
0000
0001
0000
,
0100
0010
0100
0000
1000
0000
1000
0000
,
0001
0100
0010
0000
0100
0000
0010
0000
,
1000
0100
0010
0000
0001
0000
0010
0000
,
0100
0000
0010
0000
0001
0000
0000
0000
0010
0000
0100
0001
2000
0000
3200
0000
,
0302
0000
2003
0000
3000
0100
0000
0001
0020
0000
0000
0000
0030
0000
0000
0000
,
1001
0000
0100
0000
0010
0100
1000
0000
,
0001
0000
0100
0010
0000
0100
0010
0000
,
1000
0001
0100
0010
,
0100
0001
0100
0000
0010
1000
0001
0000
,
0100
0010
0100
0010
,
0001
0010
0100
0000
1000
0000
0001
0000
,
0100
0010
1000
0000
0001
0000
0100
0000
,
0010
0100
1000
0000
0001
0010
0100
0000
,
1001
0000
0100
0000
0010
0100
1000
0000
,
0011
0000
0010
0100
0010
0000
0100
0000
,
1000
0001
0100
0000
0110
0000
1000
0000
,
0100
0010
0001
0000
0010
0000
0100
0000
,
1001
0000
0100
0010
0100
0000
1000
0000
,
0001
0100
0010
0000
0100
0000
1000
0000
,
0001
0100
0010
0000
0100
1000
0001
0000
,
0100
0010
0100
1000
,
0001
1000
0001
0100
,
0010
0100
1000
0001
,
0100
0010
1000
0001
,
0010
0100
0010
0100
,
1000
0001
0100
0010
,
0100
1000
0001
0100
,
0010
0100
1000
0001
,
0010
0000
1000
0000
0100
0001
0000
1000
0000
0100
0000
0001
0000
0000
0000
2002
,
0000
3003
0000
0000
;
