#TITLE:光の在り処;
#ARTIST:NAMCO Sound Team "Xenon" feat.薛南;
#TITLETRANSLIT:Hikari no arika;
#ARTISTTRANSLIT:NAMCO Sound Team "Xenon" feat.Setsu minami;
#GENRE:Crystal clear winter;
#MUSIC:Hikari no arika.ogg;
#BANNER:Hikari no arika.png;
#BACKGROUND:Hikari no arika-bg.png;
#CDTITLE:./CDTitles/NSD A3.png;
#SAMPLESTART:69.100;
#SAMPLELENGTH:15.000;
#SELECTABLE:YES;
#OFFSET:0.000;
#BPMS:0.000=100.000
,19.750=50.000
,20.000=200.000
,124.000=100.000
,164.000=200.000
;
#STOPS:19.750=1.050
,163.750=1.200
;
#BGCHANGES:;
#FGCHANGES:;

//--------------- dance-single - ----------------
#NOTES:
     dance-single:
     :
     Beginner:
     3:
     0.213,0.311,0.025,0.067,0:
0000
0000
0000
0000
,
0000
0000
0000
0000
,
0000
0000
0000
0000
,
0000
0000
0000
0000
,
0000
0000
0000
0000
,
1000
0000
0001
0000
,
1000
0000
0100
0010
,
0001
0000
1000
0000
,
0001
0000
0100
1000
,
0100
0000
0010
0000
,
0100
0000
1000
0000
,
0001
0000
1000
0000
,
0100
0000
0010
0100
,
1000
0000
0001
0000
,
1000
0000
0100
0000
,
0010
0000
0001
0000
,
1000
0100
0010
0000
,
0001
1000
0001
0000
,
0010
0000
0100
0000
,
1000
0100
0010
0000
,
0001
0100
0010
0000
,
1000
0000
0001
0100
,
1000
0000
0000
0000
,
1000
0000
0001
0100
,
1000
0010
0001
1000
,
0100
0000
0010
0100
,
0000
0000
1000
0100
,
0010
0000
0100
0000
,
1000
0001
0100
0010
,
1000
0000
0001
0000
,
2000
0000
0000
3000
,
0001
0000
0000
0000
,
1000
0000
0000
0000
,
0010
0000
0100
0000
,
1000
0100
0020
0000
,
1030
0100
0010
0001
,
0100
0010
1000
0001
,
0100
1000
0100
0010
,
0100
1000
0001
0100
,
2000
0000
3000
0002
,
0003
0000
0000
0000
,
1001
0010
0100
0000
,
1000
0001
0100
0000
,
0010
0000
1000
0000
,
0100
0010
0001
0000
,
1000
0000
0001
0000
,
0100
0000
1000
0000
,
0001
0000
0100
0000
,
0020
0000
0000
0030
,
1000
0000
0001
0000
,
0100
0000
0010
0000
,
1000
0000
0001
0000
,
1000
0000
0100
0000
,
0010
0000
1000
0000
,
0001
0000
0100
0000
,
0010
0000
0001
0000
,
1000
0000
0001
0000
,
0100
0000
0000
0000
,
1000
0000
0000
0000
,
0001
0000
1000
0000
,
0001
0000
0000
0000
,
0010
0000
0100
0000
,
1000
0000
0100
0000
,
0010
0000
0001
0000
,
0100
0000
0000
0000
,
0000
0000
0000
0000
,
0000
0000
0000
0000
,
1001
0000
0100
0000
,
0010
0000
1000
0001
,
0100
0000
0010
0000
,
0100
1000
0001
0000
,
0010
0000
1000
0000
,
0001
0000
1000
0000
,
0100
0000
0010
0000
,
2000
0000
0000
3000
,
0001
0000
1000
0000
,
0100
0000
0010
0000
,
1000
0000
0001
0000
,
0020
0000
0000
0030
,
1000
0000
0100
0000
,
0010
0000
0001
0000
,
1000
0100
0010
0001
,
2002
0000
0000
0000
,
3003
0000
0000
0000
;

//--------------- dance-single - ----------------
#NOTES:
     dance-single:
     :
     Easy:
     8:
     0.348,0.38,0.133,0.067,0:
0000
0000
0000
0000
,
0000
0000
0000
0000
,
0000
0000
0000
0000
,
0000
0000
0000
0000
,
0000
0000
0000
0000
,
1000
0100
0010
0001
,
1000
0100
0010
1000
,
0001
0010
0100
0010
,
0001
1000
0100
0010
,
0001
1000
0100
0010
,
0100
1000
0001
0010
,
0100
1000
0010
0001
,
1000
0100
0010
2000
,
3001
0010
0100
1000
,
0001
0100
0010
0100
,
0001
1000
0100
0010
,
0001
1000
0100
0010
,
0100
0000
1000
0001
0000
1000
0000
0001
,
0000
0010
0100
0000
1000
0000
0001
0000
,
1000
0100
0010
0001
,
2000
0000
0000
0000
,
3001
0000
0000
0110
0000
0000
1000
0000
,
0000
0001
1000
0100
,
0010
0000
0000
1000
0000
0000
1001
0000
,
0000
0100
0010
0000
0001
0000
1000
0000
,
0100
0000
0010
0001
1000
0000
0010
0001
,
1000
0010
0100
1000
,
0101
1000
0100
0010
,
1000
0001
1000
0100
,
0010
0001
1000
0010
,
2000
0000
0000
3001
,
2000
0000
3001
0000
0010
0001
0100
0000
,
2000
0000
3001
0000
0010
1000
0001
0000
,
0020
0000
0130
0000
1000
0001
0100
0000
,
0020
0000
0130
0000
0001
1000
0100
0000
,
1000
0000
0001
0000
0010
0001
0100
0000
,
1000
0001
0100
0000
0010
0100
0001
0000
,
1000
0100
0001
0000
0010
0001
0100
0000
,
1000
0001
0100
0000
0001
1000
0100
0000
,
1000
0100
0001
1000
0010
0001
1000
0100
,
0002
0000
0000
0000
0000
0000
0000
0000
0000
0000
0000
0000
0000
0000
0000
0003
,
1000
0001
0100
0010
,
0100
1000
0001
0010
,
0100
1000
0100
0010
,
0001
1000
0100
0010
,
0100
0000
0001
1000
0000
0010
0000
0001
,
0000
1000
0000
0100
0001
0000
1000
0001
,
0100
0010
0001
1000
,
0100
0010
0001
0100
,
1001
0010
0100
1000
,
1100
0010
0001
0100
,
1001
0010
0100
1000
,
0010
0000
0001
1000
0000
0100
0000
0000
,
1001
0010
0100
0001
,
0011
0100
1000
0100
,
1100
0010
0100
1000
,
0001
0100
0010
1000
,
1001
0000
0100
0000
,
1100
0000
0010
0000
,
0010
0000
1000
0000
,
1000
0100
0001
0000
,
0001
0010
0100
0000
,
1000
0100
0001
0000
,
2000
0000
0001
3000
,
0020
0000
0000
0000
,
0000
0000
0000
0000
,
0000
0000
0000
0000
,
1030
0100
0010
0010
,
0001
1000
0100
0010
,
0001
1000
0100
0010
,
0001
1000
0100
0010
,
0001
1000
0100
0010
,
1000
0001
0100
0010
,
0001
1000
0100
0010
,
0001
1000
0100
0010
,
0001
1000
0100
1010
,
1000
0100
0010
0101
,
0010
1000
0100
0010
,
0001
1000
0100
0010
,
1000
0001
0100
0010
,
1000
0100
0010
0001
,
2000
0000
0000
0000
,
0000
0000
0000
0000
,
3001
0000
0000
0000
;

//--------------- dance-single - ----------------
#NOTES:
     dance-single:
     :
     Medium:
     13:
     0,0,0,0,0:
0000
0000
0000
0000
,
0000
0000
0000
0000
,
0000
0000
0000
0000
,
0000
0000
0000
0000
,
0000
0000
0000
0000
,
1000
0001
0100
0000
1000
0000
0001
0000
,
0100
0010
1000
0001
,
0100
1000
0001
0000
0100
0000
0010
0000
,
0100
0001
0000
0000
0010
0000
0100
0000
,
1000
0000
0001
0100
0000
0010
0000
0100
,
0001
1000
0000
0001
0010
0100
1000
0000
,
0001
0000
0100
0010
0000
0001
0100
0000
,
1000
0000
0001
0000
0100
1000
0001
0010
,
1001
0000
0100
0000
0000
1000
0001
0000
,
0100
0000
1000
0001
0010
0000
0100
0000
,
0001
0010
0100
1000
,
0001
0010
0100
0000
0001
0000
0010
0000
,
0100
0000
1000
0001
0000
0010
0000
1001
,
0000
0010
0110
0000
1000
0000
1001
0000
,
0100
1000
0100
0000
1000
0001
0100
0000
,
1000
0001
0010
0000
0100
0000
1000
0000
,
1001
0000
0000
0110
0000
0000
1001
0000
,
0000
1000
0001
0010
0100
1000
0001
0000
,
1100
0000
0000
1010
0000
0000
0101
0000
,
0000
1000
0001
0010
0100
1000
0001
0000
,
0101
0000
0000
1001
0000
0000
1010
0000
,
0001
0010
0100
1000
0001
0010
0100
1000
,
0000
0001
0000
0010
0000
0100
0000
1000
,
0000
0001
0000
0100
1000
0001
0010
0000
,
0100
0000
1000
0001
0000
0010
0000
0100
,
2000
0000
0000
3010
,
2001
0000
3100
0000
0010
0100
1000
0000
,
0002
0000
1003
0100
0010
1000
0001
0010
,
0200
0000
0310
1000
0001
0100
0010
1000
,
0002
0000
0000
0000
0023
0000
0000
0000
0130
0000
1000
0001
0000
0100
0000
0000
,
1001
0000
0000
0000
0010
1000
0000
0001
0000
1000
0000
0100
0000
0010
0000
0001
,
1000
0000
0000
0000
0000
0000
0100
0000
0010
0000
0000
0000
0000
0000
0000
0000
1001
0000
0000
0100
0000
0000
0010
0000
1000
0000
0000
0000
0001
0000
0010
0000
,
0100
1000
0001
0100
,
1000
0001
0100
1000
,
0001
0010
0100
1000
0001
0100
0010
1000
,
0002
0000
0000
0000
0000
0000
0000
0000
0000
0000
0000
0000
0000
0000
0000
0003
,
0001
0010
0100
0000
0010
0000
1000
0000
,
0010
1000
0100
0000
0001
0000
1000
0000
,
0001
0010
0100
1000
0001
0000
0100
0000
,
0010
0001
0100
0000
0010
0100
1000
0000
,
0010
0000
0100
1000
0000
0010
0000
0100
,
0000
0001
0000
1000
0000
0010
1000
0001
,
0100
0000
0010
0000
0100
1000
0010
0000
,
0001
0000
0100
1000
0010
0001
1000
0010
,
0100
0010
1000
0000
0001
0000
0010
0001
,
0100
0010
1000
0000
0100
0000
0010
0000
,
0100
1000
0010
0000
0001
0000
0100
0001
,
0010
0000
0000
1000
0000
0000
0100
0000
0001
0000
0010
0000
0100
0000
0000
0000
,
0010
0100
1000
0000
0001
0000
0100
0000
,
0001
1000
0100
0000
0010
0000
0100
0000
,
0001
0100
1000
0000
0100
0000
1000
0000
,
0010
0001
1000
0000
0001
0000
0100
0000
,
0001
1000
0010
0000
0001
1000
0000
0100
,
0010
0000
1000
0100
0001
0000
0010
1000
,
0100
0000
0010
1000
0100
0000
0010
0000
,
0001
0000
0000
1000
0000
0000
0100
0000
0001
0000
0000
0000
1000
0000
0100
0000
,
0001
0000
0100
0000
0001
0000
0100
1000
,
0001
0100
0010
0000
0100
1000
0000
0010
,
0001
0000
0000
0110
0000
1001
0000
0220
,
0000
0000
0000
0000
,
0000
0000
0000
0000
,
0000
0000
0330
0000
,
0100
0001
1000
0000
0010
0000
1000
0000
,
0001
0100
1000
0000
0001
0000
0100
0000
,
0010
0001
0100
0000
0010
0000
0100
0000
,
0001
0010
1000
0000
0010
0000
0100
0000
,
0010
0100
1000
0000
0001
0000
0100
0000
,
0001
0010
1000
0000
0100
0000
0010
0000
,
0100
0001
0010
0000
0100
0000
1000
0000
,
0001
1000
0010
0000
0100
0000
1000
0000
,
0100
0010
1000
0000
0001
0000
0010
0000
,
0100
1000
0010
0000
0100
0000
0010
0000
,
0001
0010
0100
0000
0001
0000
1000
0000
,
0001
0010
0100
0000
0010
0000
0100
0000
,
0001
1000
0010
0000
0001
1000
0100
0000
,
0010
0001
1000
0000
0010
1000
0100
0000
,
0001
0010
0001
0010
0001
0010
0001
0010
,
0001
0010
0001
0010
0001
0010
0001
0010
;

//--------------- dance-single - ----------------
#NOTES:
     dance-single:
     :
     Hard:
     17:
     0,0,0,0,0:
0000
0000
0000
0000
,
0000
0000
0000
0000
,
0000
0000
0000
0000
,
0000
0000
0000
0000
,
0000
0000
0000
0000
,
0100
0010
0001
1000
0100
0010
0100
1000
,
0100
1000
0001
1000
0001
0010
0100
1000
,
0100
0010
0100
0010
0001
0100
0010
1000
,
0010
1000
0001
0010
0100
0010
0100
1000
,
0001
1000
0001
1000
0100
0010
0001
0100
,
0010
0100
0001
0100
0010
1000
0010
0100
,
0010
1000
0100
1000
0100
0010
0001
0010
,
0100
0000
1000
0000
0100
0000
1000
0000
0100
0000
0010
0000
0001
0000
0100
1000
,
0010
1000
0010
1000
0001
0100
0001
1000
,
0001
0000
1000
0000
0100
0000
0010
0000
0001
0000
0100
0000
0001
0000
1000
0001
,
0100
0010
0100
1000
0100
0010
0001
0100
,
0001
0000
0010
0000
0100
0000
1000
0000
0010
0000
0100
1000
0001
0000
0100
0000
,
1001
0000
0100
0110
0000
0101
0000
1001
,
0000
0110
1001
0000
1001
0000
0110
0000
,
1000
0100
0010
0100
0001
0100
0010
0001
,
0100
1000
0100
1000
0100
1000
0100
1000
0100
1000
0100
1000
0200
0000
0000
0000
,
0310
0000
0010
0011
0000
0100
2200
0000
,
3300
0000
0001
0000
0010
0000
1000
0000
0001
0000
0100
1000
0010
0000
1000
0000
,
0110
0000
0100
0101
0000
0010
2020
0000
,
3030
0000
0001
0000
1000
0000
0100
0000
0001
0000
0100
1000
0010
0000
0001
0000
,
0110
0000
0100
0110
0000
1000
1001
0110
,
0000
0100
0010
0100
0010
0100
1000
0010
,
1000
0010
1000
0001
0100
0010
0100
0001
,
1000
0100
0010
0100
1000
0001
0010
0001
,
1000
0001
1000
0100
1000
0010
0100
0001
,
1000
1000
1000
1000
1000
0001
0001
0001
0001
0001
0000
0000
,
2000
3200
0320
0000
0032
0023
0230
0000
,
2300
0000
3002
0023
0230
0000
0302
0000
,
2003
3200
0320
0032
,
0023
0000
0030
0000
1000
0000
0001
0000
0100
0000
1000
0001
0000
0100
0000
0000
,
1002
0000
0000
0000
0013
1000
0000
0001
0000
1000
0000
0100
0000
0010
0000
0001
,
2000
0000
0000
0000
0000
0000
3100
0000
0020
0000
0000
0000
0000
0000
0000
0000
1030
0000
0000
0100
0000
0000
0010
0000
1000
0000
0000
0000
0001
0000
0010
0000
,
0200
2300
3002
0203
,
2300
3002
0203
2300
,
3001
0010
0100
1000
0001
0100
0010
0100
,
2002
0000
0000
0000
0000
0000
0000
0000
0000
0000
0000
0000
0000
0000
0000
3003
,
0001
0100
0010
0100
0010
0100
0001
1000
,
0001
0100
0001
1000
0100
1000
0100
1000
,
0010
0100
0010
1000
0010
1000
0100
1000
,
0100
0010
0001
0100
0010
1000
0010
1000
,
0100
0000
0100
0101
0000
1001
0000
0110
,
0000
0101
0000
1001
0000
1000
0100
1000
,
0010
0100
0010
0001
1000
0100
1000
0100
,
0010
0100
0010
0001
0010
0001
0100
0010
,
1000
0001
0010
0001
0100
0001
0100
0010
,
0100
0001
0010
0001
0100
0010
0100
0010
,
0100
0001
1000
0010
1000
0100
0010
0100
,
1000
0000
0000
0000
1000
0000
0000
0000
2000
0000
0000
0000
0001
0000
0000
0000
0001
0000
0000
0000
3002
0000
0000
0000
1000
0000
0000
0000
1000
0000
0000
0000
1003
0000
0000
0000
1001
0000
0000
0000
0000
0000
0010
0000
0000
0100
0000
0000
,
0001
0001
0100
0001
0100
0010
1000
0010
,
0100
0010
1000
0001
0100
0010
0100
0010
,
0100
0001
1000
0100
0010
0100
1000
0010
,
0100
0001
1000
0100
1000
0001
1000
0010
,
2000
0000
0000
0000
3001
0110
0000
2002
,
0000
3003
0000
0001
0100
1001
0000
0100
,
0102
0000
0003
0100
2002
0000
3003
0000
,
0101
0000
0000
1001
0000
0000
0100
0000
0010
0000
0000
0000
0001
0000
1000
0100
,
0020
0000
0000
0031
0100
1000
0000
0110
,
0000
0000
0001
0000
1000
0000
0100
0010
0001
0000
1000
0000
0000
0000
0110
0000
,
1001
0000
0000
0100
0010
0001
0000
2002
,
0000
0000
0000
0000
,
0000
0000
0000
0000
,
0000
0000
0000
0000
0000
0000
0000
0000
3003
0000
0000
0000
0000
0000
0001
1000
,
0100
1000
0100
0010
0001
0100
0010
0100
,
0001
1000
0010
1000
0010
0100
0010
0100
,
0001
0010
0100
0010
0001
0010
0001
0100
,
0001
0010
0100
0010
0100
1000
0100
0010
,
0001
1000
0100
0010
0001
0010
0001
1000
,
0100
0010
0100
1000
0100
1000
0010
1000
,
0100
0010
0100
0010
0001
1000
0010
1000
,
0010
0100
0010
1000
0100
1000
0010
1000
,
0100
0010
0001
1000
0010
0100
0010
0100
,
0010
1000
0100
0010
0100
0010
0001
1000
,
0010
1000
0001
0100
0001
0010
0001
0010
,
0100
0010
0100
1000
0100
1000
0010
0100
,
0001
1000
0100
0010
0001
0010
0001
1000
,
0100
0010
0001
1000
0100
1000
0010
0100
,
0001
1000
0001
1000
0001
1000
0001
1000
0001
1000
0001
1000
0001
1000
0001
1000
,
0001
1000
0001
1000
0001
1000
0001
1000
0001
1000
0001
1000
0001
1000
0001
1000
;
