
//----- song ID: hxpz -----//
#TITLE:Hexenprozess;
#ARTIST:NAMCO Sound Team "Xeronoxxxia";
#GENRE:ナムコオリジナル;
#MUSIC:Hexenprozess.ogg;
#BANNER:Hexenprozess.png;
#BACKGROUND:Hexenprozess-bg.png;
#CDTITLE:./CDTitles/NSD A3.png;
#SAMPLESTART:103.102;
#SAMPLELENGTH:15.000;
#SELECTABLE:YES;
#OFFSET:0.000;
#BPMS:0.000=135.000
,31.000=270.000
,127.000=135.000
,196.000=270.000
,250.000=33.750
,251.000=67.500
,264.000=270.000
,312.000=45.020
,313.000=270.000
,361.000=67.500
,362.000=135.000
,363.000=270.000
;
#STOPS:;
#BGCHANGES:;
#FGCHANGES:;

//--------------- dance-single - ----------------
#NOTES:
     dance-single:
     :
     Beginner:
     6:
     0,0,0,0,0:
0000
0000
0000
0000
,
0000
0000
0000
0000
,
0000
0000
0000
0000
,
0000
0000
0000
0000
,
0010
0000
0000
1000
,
0000
0000
0001
1000
,
0001
0000
1000
0000
0001
1000
0001
0000
,
0110
0000
0000
0010
,
0000
0000
0000
0100
,
0000
1000
0000
0000
,
0000
0000
0000
0001
,
0000
1000
0000
0010
,
0000
0100
0000
0000
,
0010
0000
0000
0000
,
1000
0000
0000
0000
,
0001
0000
0000
0100
,
0000
0000
0010
0000
,
0000
1000
0000
0000
,
0001
0000
0000
0000
,
0000
0000
0000
0100
,
0000
0010
0000
1000
,
0000
0001
0000
0000
,
0000
0000
0000
1000
,
0000
0000
0001
0000
,
0000
0100
0000
0000
,
0010
0000
0000
1000
,
0000
0000
0000
0001
,
0000
0010
0000
0000
,
0000
0000
0100
0000
,
0010
0000
0100
0000
,
1000
0000
0001
0000
,
0100
0100
0001
2002
,
0000
0000
0000
0000
,
0000
0000
0000
0000
,
0000
0000
0000
3003
,
0000
0000
0000
0000
,
0000
0000
0000
0000
,
0000
0000
0000
1000
,
0000
0000
0001
0000
,
0000
0100
0000
0000
,
0001
0000
0000
0010
,
0000
0000
1000
0000
,
0000
0001
0000
0000
,
0010
0000
0000
0100
,
0000
0000
1000
0000
,
0000
0001
0000
0000
,
0010
0000
0000
0100
,
0000
0000
0010
0000
,
0000
0000
0100
0000
0000
0010
0000
0000
,
0000
1000
0001
1000
,
0000
0000
1001
0000
,
0010
0100
0000
0000
,
1000
0000
0000
0001
,
0000
0000
0100
0000
,
0000
0010
0000
0000
,
0001
0000
0000
0000
,
0000
0000
0100
0000
,
0000
1000
0000
0000
,
0001
0000
0000
0000
,
0000
0000
0100
0000
,
0000
0010
0000
0000
,
1000
0000
0000
0000
,
0001
0000
2002
3003
,
0100
0000
0000
0001
0000
0000
1000
0000
,
0000
0001
0000
0000
0010
0000
0100
1000
,
0000
0001
0000
0000
0100
0000
0000
1000
0000
0000
0002
0000
0000
0000
0000
0000
,
1003
0000
0000
0000
,
0001
0000
1000
0000
,
0000
0000
0000
0000
,
0010
0000
0000
0000
,
0100
0000
1000
0000
,
0000
0000
0000
0000
,
0100
0000
0000
0000
,
0001
0000
0000
0000
,
1000
0000
0000
0000
,
0100
0000
0001
0000
,
1000
0000
0001
0000
,
1000
0000
0001
0000
,
1001
0100
0000
0010
,
0000
1000
0000
0000
,
0000
0001
0000
0000
,
0000
0100
0000
0000
,
1000
0000
0000
0000
,
0010
0000
0100
0000
,
0000
1000
0000
0000
,
0000
0001
0000
0000
,
0000
0100
0000
0000
,
0000
0010
0000
0000
,
0001
0000
0000
1000
,
0000
0000
0000
0100
,
0000
0020
0000
0130
,
0000
1000
0000
0001
,
0000
1001
0000
0100
,
0000
0010
0000
0001
,
0000
0000
0000
0000
,
0000
1000
0000
0000
,
0000
0100
0000
0000
,
0010
0000
0000
0001
,
0000
0000
1000
0000
,
0001
0000
1000
0000
,
0001
0000
0100
0000
,
0010
0000
0000
0000
,
0000
0000
0000
1001
,
0000
0000
0100
0000
,
0000
0010
0000
0000
,
0100
0000
0000
1000
,
0000
0000
0001
0000
,
0000
0100
0000
0000
,
0010
0000
0000
1000
,
0000
0000
0001
0000
,
0000
1000
0000
0000
,
0010
0000
0000
0100
,
0000
0010
0000
1000
,
0000
0001
0000
0100
,
0000
1000
0000
1001
;

//--------------- dance-single - ----------------
#NOTES:
     dance-single:
     :
     Easy:
     11:
     0,0,0,0,0:
0000
0000
0000
0000
,
0000
0000
0000
0000
,
0000
0000
0000
0000
,
0000
0000
0000
0000
,
1000
0001
0100
0010
,
1000
0001
0100
0010
,
1000
0001
1000
0001
1000
0010
0100
0001
,
0100
0000
0000
0010
,
0000
1000
0000
0001
,
0000
0100
0000
0010
,
0000
1000
0000
0001
,
0000
0100
0000
0010
,
0000
0100
0000
0001
,
0000
0010
0000
0100
,
0000
1000
0000
0001
,
0000
0100
0000
0010
,
0000
0100
0000
1000
,
0000
0001
0000
0100
,
0000
0010
0000
0001
,
0000
1000
0000
0001
,
0000
1000
0000
0001
,
0000
0100
0000
0000
,
0000
0000
0000
0010
,
0000
0100
0000
1000
,
0000
0001
0000
0100
,
0000
0010
0000
0001
,
0000
1000
0000
0001
,
0000
0100
0000
0010
,
0000
0100
0000
1000
,
0000
0001
0000
1000
,
0000
0001
0000
0100
,
0000
0110
0000
1000
,
0000
0000
0100
0000
,
0000
0010
0000
0000
,
0001
0000
0000
0010
,
0000
0000
0100
0000
,
0000
0010
0000
0000
,
0001
0000
0000
1000
,
0000
0000
0010
0000
,
0000
0100
0000
0000
,
0001
0000
0000
0010
,
0000
0000
0100
0000
,
0000
1000
0000
0000
,
0010
0000
0000
0100
,
0000
0001
0000
0000
1000
0000
0000
0000
,
0000
0000
0100
0000
0000
1000
0000
0000
,
0001
0000
0000
0100
,
0000
0010
0000
0000
0001
0000
0000
0000
,
0000
0000
1000
0000
0000
0001
0000
0000
,
0100
0000
0000
0000
,
0000
0000
1001
0000
,
0000
0010
0000
0000
,
0100
0000
0000
1000
,
0000
0000
0001
0000
,
0000
0100
0000
0000
,
0010
0000
1000
0001
,
0000
0000
0100
0000
,
0000
0010
0000
0100
,
1000
0000
0000
0001
,
0000
0000
1000
0000
,
0001
1000
0001
1000
,
0001
0000
0000
0100
,
0000
0000
0110
0000
,
1000
0001
0010
0002
0000
0000
0103
1000
,
0010
0002
0000
0000
0203
0000
1300
0010
,
0001
0200
0000
0000
0320
0000
0000
0031
1000
0100
0020
0000
0000
0000
0000
0030
,
1001
0000
0000
0010
,
0000
0000
0100
0000
,
0000
1000
0000
0000
,
0001
1000
0001
0100
,
0000
0010
0200
0000
,
0000
0000
0300
0000
,
1001
0100
0010
0000
,
0001
1000
0001
0000
,
0100
1000
0001
0000
,
0100
0010
1000
0001
,
0010
0100
2002
0000
,
0000
0000
0000
0000
,
3003
1000
0001
0100
,
0010
1000
0001
0100
,
0010
1000
0001
0000
,
0000
1000
0010
1000
,
0001
0000
0100
0010
,
0000
0100
1000
0000
,
0000
0010
1000
0100
,
1000
0001
1000
0001
,
0100
0010
1000
0001
,
0100
0010
0000
0000
,
1000
0000
0000
1000
,
0000
0000
0001
1000
,
0001
0200
0310
1000
,
0100
0010
0001
0000
,
1000
0000
0001
0000
,
0100
0000
0010
0000
,
1000
0000
0100
0000
,
0000
0010
0000
1000
,
0000
0001
0000
0100
,
0000
0010
0000
0100
,
0000
1000
0000
0000
,
0000
0001
0000
0000
,
0000
0100
1000
0001
,
0000
1001
0000
0000
,
0020
0000
0000
0130
,
0000
0000
1001
0000
,
0000
0100
0000
0000
,
0101
0000
0000
1000
,
0000
0000
0100
0000
,
0000
1000
0000
0000
,
0001
0000
0000
0001
,
0100
0010
1000
0010
,
1000
0100
0010
0001
,
0100
0001
0010
0001
,
1000
0010
1000
0010
,
0100
0010
0100
0001
,
0100
0010
1000
1001
;

//--------------- dance-single - ----------------
#NOTES:
     dance-single:
     :
     Medium:
     14:
     0,0,0,0,0:
0000
0000
0000
0000
,
0000
0000
0000
0000
,
0000
0000
0000
0000
,
0000
0000
0000
0000
,
0010
1000
0001
0010
0100
1000
0010
0100
,
1000
0100
0001
1000
0100
0001
0010
0100
,
1000
0001
1000
0001
1000
0010
0100
0001
,
0100
0000
0000
0010
,
0100
0001
1000
0000
0010
0000
0001
0000
,
1000
0100
0001
0010
,
0100
0000
1000
0001
0100
0000
0001
0000
,
0010
1000
0100
0000
0001
0000
0010
0000
,
1000
0000
0100
0000
0010
0000
0001
0100
,
1000
0000
0010
0000
0001
1000
0100
0000
,
0010
0001
1000
0000
0100
0000
0001
0000
,
0010
0000
0100
0001
1000
0000
0010
0000
,
0001
1000
0100
0000
0010
0001
1000
0010
,
0100
0000
0001
0000
1000
0001
0100
0000
,
0001
1000
0010
0000
0100
0000
0001
0000
,
0010
0000
1000
0010
0100
1000
0001
0000
,
0010
0100
1000
0000
0001
0000
1000
0000
,
0001
0000
0100
0000
1000
0010
0001
0000
,
0100
0000
0010
0100
1000
0100
0010
0000
,
1000
0001
0100
0000
0010
0000
1000
0000
,
0100
0001
1000
0100
,
1000
0000
0010
0000
1000
0100
0001
0000
,
0010
0100
1000
0000
0010
1000
0001
0000
,
1000
0001
0100
0000
1000
0000
0010
0000
,
0100
1000
0100
0000
0001
0010
1000
0001
,
0100
0000
0001
0000
0100
0000
1000
0001
,
0100
0000
0001
1000
0001
0000
0100
0010
,
1000
0100
0010
0001
0100
0000
1001
0000
,
0010
1000
0000
0001
0100
0001
0000
0100
,
1000
0000
0010
0100
1000
0000
0100
0010
,
0001
1000
0100
0000
1000
0001
0010
0100
,
1000
0000
0001
1000
0100
0000
0001
1000
,
0100
0000
0010
1000
0100
0000
0010
0100
,
0001
0000
0010
0100
0001
0000
1000
0000
,
0100
1000
0100
0000
0010
0000
0001
0010
,
0000
1000
0100
0000
0010
1000
0100
0000
,
0001
0000
1000
0001
0100
0000
0010
0000
,
0001
0010
0100
0000
0100
0000
0001
0010
,
0000
0100
1000
0100
1000
0000
0100
0000
,
1010
0000
0100
0000
0101
0000
0100
1000
,
0000
0001
0010
0000
1000
0100
0000
0001
,
0010
0000
0100
0010
0000
1000
0100
0000
,
0001
1000
0000
0001
1000
0000
0100
1000
,
0000
0010
1000
0000
0001
0100
0000
0001
,
0100
0000
1000
0010
0000
0001
1000
0000
,
0100
0010
0100
1000
,
0001
0100
0120
0000
,
0000
0130
1000
0001
,
0200
0000
0301
2000
,
0100
0010
3001
0010
,
0001
0100
1000
0100
,
0020
0000
0000
0000
1030
0100
0001
0000
,
0010
0000
1000
0001
0100
0000
0001
1000
,
0100
0000
0010
0000
1000
0001
0100
0010
,
1000
0000
0100
0000
1000
0100
0001
0000
,
0010
0100
0001
0000
1000
0000
0100
0000
,
0001
1000
0001
1000
,
0001
0000
0010
0000
1000
0000
0100
1000
,
0001
0100
1000
0010
1001
0000
0000
0000
,
1000
0001
0010
0002
0000
0000
0103
1000
,
0010
0002
0000
0000
0203
0000
1300
0010
,
0001
0200
0000
0000
0320
0000
0000
0031
1000
0100
0020
0000
0000
0000
0000
0000
,
1030
0000
1000
0010
,
1000
0010
0002
0010
,
0100
1000
0100
1003
,
0001
1000
0001
0100
,
1000
0010
0200
0010
,
0010
0001
1300
0010
,
1001
0100
0010
1000
,
0001
1000
0001
0010
,
0100
1000
0001
0010
,
0100
1000
0010
0000
1000
0100
0001
0000
,
0010
1000
0100
0000
0001
1000
0001
0000
,
0100
0010
1000
0000
0010
0000
0100
0000
,
0110
0000
1000
0000
0001
0010
0100
0000
,
0010
0000
1000
0010
0001
0000
0100
0000
,
0010
0000
1000
0010
0001
0000
0100
0000
,
0001
0000
1000
0000
0010
0000
1000
0100
,
0001
0000
0010
1000
0100
0000
0010
0000
,
1000
0100
1000
0100
,
0010
0001
1000
0100
,
1000
0001
1000
0001
,
0100
0010
1000
0001
,
0100
0010
0100
0001
,
1000
0010
0100
1000
,
0100
0000
0010
0000
0001
0000
1000
0010
,
0001
0000
0200
0000
0310
0000
1000
0001
,
0100
1000
0010
0100
0001
0000
0100
0000
,
1000
0001
0100
0000
0001
1000
0001
0000
,
0100
0000
1000
0000
0010
0100
0010
0000
,
1000
0010
1000
0000
0100
0000
0010
0000
,
1000
0000
0010
0000
0001
0100
1000
0100
,
0010
0001
0010
0100
,
1000
0010
0001
0100
,
0010
0000
1000
0100
1000
0001
0100
0010
,
1000
0100
0001
0010
1000
0001
0100
0010
,
1000
0001
0100
0010
1000
0010
0001
0100
,
0010
0100
1002
0000
0000
0000
0000
0000
,
0023
0000
0000
0130
,
1000
0010
1001
0100
,
0010
0100
1000
1000
,
0101
0100
0100
1000
,
0001
0010
0100
0001
,
0010
1000
0100
1000
,
0001
0100
1000
0001
,
0100
0010
1000
0010
,
1000
0100
0010
0001
,
0100
0001
0010
0001
,
1000
0100
0010
0000
1000
0000
0010
0001
,
0100
0000
0010
1000
0100
0000
0001
0010
,
0100
0000
0010
0100
1000
0010
2002
0000
,
3003
0000
0000
0000
;

//--------------- dance-single - ----------------
#NOTES:
     dance-single:
     :
     Hard:
     16:
     0,0,0,0,0:
0000
0000
0000
0000
,
0000
0000
0000
0000
,
0000
0000
0000
0000
,
0000
0000
0000
0000
,
0010
1000
0001
0010
0100
1000
0010
0100
,
1000
0100
0001
1000
0100
0001
0010
0100
,
1000
0000
0001
0000
1000
0100
0001
0010
1000
0100
0010
0001
0100
1000
0001
0010
,
0200
0000
0300
1001
,
0001
1000
0010
1000
0200
0000
0301
0010
,
0001
0100
0010
1000
0001
0000
0100
0010
,
0001
1000
0100
1000
0001
0000
0101
0000
,
0001
0100
0010
0000
0010
1000
0001
0100
,
0001
1000
0100
0000
0010
1000
0010
0000
,
0010
0100
0001
1000
0010
0000
1010
0000
,
0001
1000
0020
0000
0130
0010
0001
0100
,
0010
0100
0010
0100
0001
1000
0010
1000
,
0010
1000
0200
0000
0301
0100
0010
0100
,
0001
1000
0100
1000
0100
1000
0001
0010
,
0100
1000
0010
0100
0001
0100
0010
1000
,
0100
0000
0010
0000
0001
0100
1000
0010
0001
0000
0100
0000
0001
0000
0000
0000
,
0010
1000
0002
0000
0103
1000
0001
0100
,
0001
1000
0100
1000
0010
0100
0001
0010
,
0100
1000
0001
0100
0010
0000
0101
0000
,
0100
0010
0100
1000
0010
0100
0010
0100
,
0010
1000
0001
1000
0001
1000
0100
0010
,
0001
0010
0100
0010
0001
1000
0100
0000
,
0001
0010
0100
1000
0001
0010
0001
0010
,
0001
1000
0010
1000
0010
1000
0100
0010
,
0001
0100
0020
0000
0031
0010
0001
1000
,
0010
1000
0010
0100
0010
0100
0001
0100
,
0001
1000
0010
1000
0100
1000
0001
0100
,
0001
0100
0010
1000
0001
0010
1001
0010
,
1000
0010
1000
0100
0010
0100
1000
0010
,
0100
0001
1000
0100
1000
0001
0100
0010
,
1000
0100
0010
0100
0010
0001
0100
0010
,
1000
0010
1000
0010
0100
0001
0010
0001
,
0010
0001
1000
0010
0100
0010
1000
0001
,
1000
0010
1000
0010
0100
0001
0100
0001
,
0100
0010
1000
0010
1000
0100
0010
0100
,
0010
0100
1000
0010
0100
0001
1000
0010
,
0100
0001
0010
0100
1000
0010
1000
0010
,
0100
0001
1000
0001
0100
0010
0100
0001
,
0100
0001
0010
0100
0010
0001
1000
0010
,
1010
0010
0100
0010
0101
0010
0100
1000
,
0010
0001
0010
0100
1000
0100
0010
0001
,
0010
1000
0100
0010
0100
1000
0100
0010
,
0001
1000
0010
0001
1000
0010
0100
1000
,
0100
0010
1000
0010
0001
0100
1000
0001
,
0100
0001
1000
0010
0100
0001
1000
0010
,
0100
1010
0110
1001
,
0101
0101
0120
0000
,
0000
0230
2300
3002
,
0203
0000
0302
2003
,
0100
0000
0010
0000
3001
0000
0010
1000
,
0001
0010
0100
0001
1000
0010
0100
1000
,
0020
0000
0000
0000
1030
0100
0001
1000
,
0010
0000
1000
0001
0100
0000
0001
1000
,
0100
1000
0010
0000
1000
0001
0100
0010
,
1000
0000
0100
0010
1000
0100
0001
0000
,
0010
0100
0001
0000
1001
0000
0100
1000
,
0001
0100
1000
0010
0001
0100
1000
0010
,
0001
0100
0010
0100
1000
0001
0100
1000
,
0001
0100
1000
0010
2002
0000
3003
0000
,
1000
0001
0010
0002
0000
0000
0103
1000
,
0010
0002
0000
0000
0203
0000
1300
0010
,
0001
0200
0000
0000
0320
0000
0000
0031
1000
0100
0020
0000
0000
0000
0000
0000
,
1030
0000
1000
0010
,
1000
0010
0002
0010
,
0100
0000
1000
0000
0100
0000
1003
0010
,
0001
0000
1000
0100
0001
0000
0100
0001
,
1000
0010
0200
0010
,
0010
0001
1300
0110
,
1001
0000
0100
0001
0010
0000
1000
0100
,
0001
0000
1000
0100
0001
0000
0010
1000
,
0100
0000
1000
0100
0001
0000
0010
1000
,
0100
1000
0010
0100
1000
0100
0001
1000
,
0010
1000
0100
0010
0001
1000
0001
0010
,
0100
0010
1000
0100
0010
1000
0100
0001
,
0110
0000
1000
0000
0001
0010
0100
1000
,
0010
0100
1000
0010
0001
1000
0100
0001
,
0010
0100
1000
0010
0001
0010
0100
1000
,
0001
0010
2000
0000
3010
0100
1000
0100
,
0001
1000
0010
1000
0100
0000
0010
0000
,
1000
0001
0100
0001
1000
0010
0100
0000
,
0010
1000
0001
0000
1000
0001
0100
0010
,
1000
0000
0001
0100
1000
0100
0001
0010
,
0100
0000
0010
0100
1000
0010
0001
1000
,
0100
0001
0010
0000
0100
0010
0001
0100
,
1000
0000
0010
0001
0100
0001
1000
0000
,
0100
1000
0010
0100
0001
0100
1000
0010
,
0001
0000
0200
0000
0310
0000
1000
0001
,
0100
1000
0010
0100
0001
0010
0101
0000
,
1000
0001
0100
0010
0001
1000
0001
0010
,
0100
0001
1000
0001
0010
0100
0010
0001
,
1000
0010
1000
0001
0100
1000
0010
0001
,
1000
0100
0020
0000
0031
0100
1000
0100
,
0010
1000
0001
0100
0010
0001
0100
0010
,
1000
0100
0010
0100
0001
1000
0100
0001
,
0010
0100
1000
0100
1000
0001
0100
0010
,
1000
0100
0001
0010
1000
0001
0100
0010
,
1000
0001
0100
0010
1000
0010
0001
0100
,
0010
0100
1002
0000
0000
0000
0000
0000
,
0023
0000
0000
0130
,
1000
0100
0010
0000
1001
0000
0100
0001
,
0010
0000
0100
0000
1000
0010
1000
0000
,
0101
0000
0100
0010
0100
0000
1000
0000
,
0001
1000
0010
0000
0100
0000
0001
1000
,
0010
0000
1000
0000
0100
0001
1000
0000
,
0001
0000
0100
0010
1000
0000
0001
0000
,
0100
1000
0010
0000
1000
0000
0010
0001
,
1000
0000
0100
0000
0010
1000
0001
0000
,
0100
0000
0001
1000
0010
0000
0001
0010
,
1000
0100
0010
0100
1000
0100
0010
0001
,
0100
0001
0010
1000
0100
1000
0001
0010
,
0100
1000
0010
0100
1000
0010
2002
0000
,
0000
3003
0000
0000
;

//--------------- dance-single - ----------------
#NOTES:
     dance-single:
     :
     Challenge:
     17:
     0,0,0,0,0:
0000
0000
0000
0000
,
0000
0000
0000
0000
,
0000
0000
0000
0000
,
0000
0000
0000
0000
,
1001
0010
0101
0010
1001
0100
0101
0010
,
1010
0100
0101
0100
0010
0100
1000
0001
,
0100
1000
0010
0000
0100
0010
1000
0000
0010
0001
1000
0000
0100
0010
0100
1000
,
0200
1300
0200
0310
0001
1000
0001
0100
,
0010
1000
0100
0010
0100
1000
0001
0010
,
0100
1000
0010
0100
0001
1000
0001
0100
,
0001
0100
0010
0100
0001
1000
0100
0010
,
0100
1000
0100
1000
0010
0100
0010
1000
,
0100
1000
0010
1000
0100
0010
0100
1000
,
0010
1000
0001
0010
0001
0010
0100
1000
,
0100
1000
0001
0100
0010
0100
0001
0010
,
0100
1000
0100
0010
0100
0010
0001
0100
,
0010
1000
0100
1000
0001
1000
0001
0100
,
0010
1000
0001
0010
0100
1000
0100
1000
,
0001
1000
0001
0010
0100
0010
0100
0010
,
0001
0000
1000
0000
0001
0010
0100
1000
0001
0000
0100
0000
0010
0000
0100
0000
,
0010
1000
0001
0100
0010
1000
0100
0010
,
0001
0100
0010
1000
0010
1000
0001
0010
,
0001
1000
0001
0100
0010
1000
0001
0100
,
0010
1000
0001
0100
0010
1000
0010
1000
,
0001
0010
0100
1000
0001
1000
0001
1000
,
0010
0100
0010
0100
0010
1000
0100
1000
,
0100
1000
0010
0100
0001
0100
0001
0010
,
0001
0100
0010
1000
0100
1000
0010
1000
,
0100
0010
0001
1000
0001
0010
0100
1000
,
0001
1000
0010
1000
0010
0100
0001
0100
,
0010
0100
0010
1000
0100
0010
0100
0010
,
0100
0001
1000
0000
0010
0000
0100
0000
0010
0001
0100
1000
0010
0000
1000
0000
,
0001
0000
0010
0000
0001
0000
1000
0000
0001
0000
0010
0000
0100
0001
1000
0000
,
0100
0000
1000
0000
0010
0000
1000
0000
0100
0000
0010
0000
0100
0000
0010
0100
,
0001
0000
1000
0000
0100
0000
1000
0000
0010
0000
1000
0000
0001
0010
0100
0000
,
0010
0000
0100
0000
0001
0000
0100
0000
0001
1000
0010
0000
0001
0000
0100
0000
,
0010
0000
1000
0000
0100
0001
0010
0000
0100
0000
0010
0000
0100
0000
1000
0000
,
0010
0001
0100
0000
0010
0000
0100
1000
0001
0000
0010
0000
1001
0000
0100
0000
,
0001
0000
0010
0001
0100
0000
1000
0000
0100
0000
1000
0000
0010
0000
0100
0001
,
0010
0000
1000
0000
0010
0000
1000
0000
0001
0000
0100
0010
0001
0000
1000
0000
,
0100
0000
0010
0000
0100
0000
0010
0100
0001
0000
1000
0000
0001
0000
1000
0000
,
0001
0000
0010
1000
0100
0000
0010
0000
0100
0000
1000
0000
0001
0000
0010
0100
,
0001
0000
1000
0000
0001
0000
1000
0000
0010
0000
0100
1000
0001
0000
0010
0000
,
0001
0000
1000
0100
0001
0000
1000
0000
0010
0000
0100
0001
0010
0000
1000
0000
,
0010
0000
0100
1000
0001
0000
0100
0000
0001
1000
0100
0000
0010
0000
1000
0001
,
0100
0000
0010
0000
0100
1000
0010
0000
0001
0000
1000
0001
0010
0000
0100
0000
,
0001
0010
1000
0000
0001
0000
0100
0010
0001
0000
1000
0000
0010
0100
1000
0000
,
0001
0000
0100
1000
0001
0000
0010
0000
0001
1000
0010
0000
0100
0000
1000
0010
,
0001
0000
1000
0100
0010
0000
1000
0000
0100
0000
0010
0000
0001
0000
0010
0000
,
1000
0101
1001
0110
,
1001
0110
1002
0000
,
0000
0103
0101
1010
,
1010
0110
0110
0202
,
0000
0303
1002
0000
,
0203
1300
0101
1010
,
0120
0000
0000
0000
1030
0100
0001
0000
,
0101
1001
0120
0000
,
1030
0101
1010
0101
,
1001
0110
1000
0101
,
1000
0010
1100
0101
,
1010
0110
0101
0100
,
1000
0000
0100
0000
0001
0000
0100
0000
0010
0000
0100
0000
1000
0001
0010
0100
,
0001
1000
0010
0100
1000
0001
0100
0010
0200
0000
0000
0000
0020
0000
0330
0000
,
1000
0000
0001
0100
0010
1000
0002
0000
0000
0000
0000
0103
0001
0010
1000
0001
,
0000
0010
0002
0000
0000
0000
0000
0000
0203
0000
0000
0301
1000
0010
2000
0000
,
3001
0200
0000
0000
0320
0000
0000
0031
1000
0100
0020
0000
0000
0000
0000
0030
,
0012
0000
0203
0320
,
2030
3002
0203
0010
,
0010
0000
0010
0000
0301
0000
1000
0100
,
0020
2030
3002
0203
,
0000
0320
2030
0000
,
0010
0100
0100
3001
,
0001
0010
0001
0100
0010
0100
0010
0100
,
0001
0010
0001
0010
0001
0100
0010
1000
,
0010
0100
0010
0100
0001
0010
0100
0010
,
0001
0010
0001
0010
0001
1000
0100
0010
,
0100
0000
1000
0000
0100
0000
1000
0000
0010
0001
1000
0000
0100
1000
0010
0000
,
0001
0100
0010
0000
0100
1000
0010
0000
0001
0100
0010
0100
0001
0010
0100
1000
,
0020
0000
0130
0001
1000
0100
1000
0100
,
1000
0001
0100
0001
0010
0100
0010
0001
,
0100
0010
1000
0100
0010
0100
1000
0100
,
0010
0001
1000
0001
0100
0001
1000
0010
,
1000
0100
1000
0010
0100
0010
1000
0010
,
0100
0001
0010
0100
0010
0001
1000
0100
,
0010
0001
0010
0100
0010
0100
1000
0010
,
1000
0001
0010
0001
0100
0001
1000
0100
,
0010
0001
0010
0001
0010
0100
1000
0001
,
1000
0100
0010
0001
0100
0010
0100
0010
,
0100
0001
0010
0001
1000
0100
0010
0100
,
1000
0000
0001
0000
0100
0000
0010
0000
0100
1000
0010
0001
0100
0000
0001
0000
,
1000
0100
0020
0230
0320
1030
0001
0010
,
0100
0010
0100
0010
0001
0100
1001
0000
,
0010
0001
0010
0001
0010
0001
0010
0001
0100
0000
0000
0000
1000
0000
0000
0000
0001
0000
0000
0000
0010
0000
0000
0000
0100
0000
0000
0000
0010
0000
0000
0000
,
0100
1000
0001
1000
0010
1000
0100
0010
,
0001
0100
0001
1000
0100
0010
0100
0010
,
0100
1000
0001
0100
0010
0100
0001
0010
,
0100
1000
0010
0100
0010
0100
0001
1000
,
0001
0100
0010
0100
0010
0100
0001
1000
,
0100
0000
1000
0000
0001
0000
0001
0010
0001
0000
0010
0000
0010
0100
0001
0000
,
0010
0000
0100
0000
0100
0010
0001
0000
0100
0010
0001
0000
0010
0100
0001
0000
,
0010
1000
0100
0000
0001
0100
0010
0000
0100
0001
0010
0000
1000
0010
1000
0000
,
0010
0001
0010
0100
0002
0000
0000
0000
0000
0000
0000
0000
0000
0000
0000
0000
,
0023
0000
0000
0000
0000
0030
1001
0000
,
0101
1001
0101
0101
,
0110
1100
1001
0110
,
0101
1001
0101
0110
,
1001
1001
0110
0101
,
1010
0011
1010
0110
,
0101
0000
0110
0000
0110
0000
1000
0100
,
0010
1000
0100
1000
0100
1000
0001
0100
,
0010
0100
0010
1000
0100
0010
0001
1000
,
0010
0100
0010
1000
0001
0010
0100
0010
,
0100
0010
0001
0100
0010
1000
0100
0010
,
0100
0000
0010
0000
0001
1000
0100
0000
0001
0100
0001
0000
0010
0100
0010
0000
,
0010
0100
0001
0100
0001
0100
0010
1000
0010
0100
0001
0010
2000
0000
0000
0000
,
0000
3000
0000
0000
;
