
//----- song ID: heir -----//
#TITLE:ヘイラ;
#ARTIST:necchi;
#TITLETRANSLIT:Heira;
#GENRE:ナムコオリジナル;
#MUSIC:Heira.ogg;
#BANNER:Heira.png;
#BACKGROUND:Heira-bg.png;
#CDTITLE:./CDTitles/NSD A3.png;
#SAMPLESTART:53.455;
#SAMPLELENGTH:15.000;
#SELECTABLE:YES;
#OFFSET:0.000;
#BPMS:0.000=110.000
,20.000=220.000
,52.000=110.000
,116.000=220.000
,228.000=110.000
;
#STOPS:;
#BGCHANGES:;
#FGCHANGES:;

//--------------- dance-single - ----------------
#NOTES:
     dance-single:
     :
     Beginner:
     3:
     0,0,0,0,0:
0000
0000
0000
0000
,
0000
0000
0000
0000
,
0000
0000
0000
0000
,
0000
0000
0000
0000
,
0010
0100
1000
0000
,
0001
0000
0000
0000
,
1000
0000
0000
0000
,
0010
0000
0000
0000
,
0100
0000
0000
0000
,
0010
0000
0000
0000
,
2000
0000
0000
3000
,
0000
0001
0000
0200
,
0000
0000
0300
0000
,
0010
0000
0000
0000
,
1000
0000
0000
0001
,
0010
0000
1000
0000
,
0001
0000
0010
0100
,
1001
0000
0100
1000
,
0001
0000
0010
0000
,
0100
0000
1000
0001
,
0010
0000
0001
0010
,
0100
0000
1000
0000
,
0001
0000
0010
0100
,
1000
0000
0001
0010
,
0001
0000
1000
0000
,
0002
0000
0003
0000
,
2000
0000
3000
0000
,
0010
0000
1000
0000
,
0001
0010
0100
0000
,
1001
0000
0100
0000
,
0010
0000
0000
0000
,
0001
0000
1000
0000
,
0001
0000
0000
0000
,
0010
0000
0100
0000
,
1000
0000
0000
0000
,
0001
0000
0000
0000
,
1000
0000
0000
0000
,
0001
0000
0010
0000
,
0100
0000
0000
0000
,
1000
0000
0001
0000
,
0000
0100
0000
0000
,
0010
0000
1000
0000
,
0001
0000
0000
0000
,
0010
0000
0100
0000
,
1000
0000
0000
0000
,
0001
0000
0000
0000
,
1000
0000
0000
0000
,
0001
0000
0010
0000
,
0100
0000
0000
0000
,
1000
0000
0001
0000
,
0100
0000
0000
0000
,
0000
1000
0000
0002
,
0000
0000
1003
0000
,
0010
0000
0100
0000
,
1000
0000
0000
0000
,
0010
0000
0100
0000
,
1000
0001
0000
0000
,
0200
0000
0320
0000
,
0031
1000
0001
0000
,
1000
0000
0100
0000
,
0010
0000
0001
0000
,
0100
0000
0000
1000
,
0001
0000
0000
0010
,
0100
1000
0001
0100
,
1000
0001
0010
0100
,
1001
0000
0000
0000
;

//--------------- dance-single - ----------------
#NOTES:
     dance-single:
     :
     Easy:
     5:
     0,0,0,0,0:
0000
0000
0000
0000
,
0000
0000
0000
0000
,
0000
0000
0000
0000
,
0000
0000
0000
0000
,
0010
0100
1000
0001
,
1000
0100
0001
0000
,
0100
0000
1000
0000
,
0001
1000
0001
0000
,
0100
0000
0010
0000
,
1000
0001
0100
0000
,
0010
0000
0000
0001
0000
0000
0100
0000
,
0000
1000
0000
0002
,
0000
0000
1003
0000
,
0010
0000
1000
0000
,
0001
0000
0100
0000
,
1000
0001
0100
0000
,
0001
0010
0100
0000
,
1000
0001
0100
0000
,
0010
0100
0010
0000
,
1000
0001
0100
0000
,
0010
0000
0100
0010
,
1000
0000
0001
0100
,
0010
0000
1000
0001
,
0100
0000
0001
0010
,
0100
0000
1000
0002
,
0013
1000
0000
0001
,
0000
0100
0000
0010
,
1000
0001
0100
0010
,
1000
0001
0100
0000
,
1001
0000
0100
0000
,
1000
0001
0100
0000
,
0010
0000
0100
0000
,
0010
0000
1000
0000
,
0001
0000
0100
0000
,
0010
0000
0000
0000
,
1000
0000
0001
0000
,
0100
0000
0000
0000
,
1000
0000
0001
0000
,
0100
0000
0000
0000
,
0010
0000
0001
0000
,
0100
1000
0000
0000
,
0001
0000
0000
0000
,
0100
0000
0000
0000
,
2000
0000
0000
0000
,
3001
0000
0000
0000
,
0010
0000
0000
0000
,
0100
0000
0000
0000
,
1000
0000
0000
0000
,
0001
0000
0010
0000
,
0100
0000
1000
0000
,
0001
0000
0100
0000
,
0010
1000
0000
0002
,
0000
0000
0000
0000
,
1003
0000
0010
0000
,
0100
0000
0000
0000
,
0001
0000
0010
0000
,
1000
0001
0000
0000
,
0100
0000
0010
0000
,
1000
0000
0001
1000
,
0001
0000
0010
0000
,
0100
0000
0010
1000
,
1001
0000
0100
0010
,
1001
0000
0010
0100
,
1000
0001
0100
0010
,
0001
0010
0100
0000
,
1001
0000
0000
0000
;

//--------------- dance-single - ----------------
#NOTES:
     dance-single:
     :
     Medium:
     7:
     0,0,0,0,0:
0000
0000
0000
0000
,
0000
0000
0000
0000
,
0000
0000
0000
0000
,
0000
0000
0000
0000
,
0010
0001
0100
0001
1000
0100
0010
0000
,
1000
0000
0001
0000
,
0100
0010
1000
0000
,
0001
0000
0100
0000
,
1000
0001
0100
0010
,
1000
0001
0100
0000
,
0010
0000
0000
1000
0000
0000
1001
0000
,
0200
0310
1000
0002
,
0000
0000
1003
0000
,
0010
1000
0001
0100
,
0010
1000
0001
0100
,
1000
0001
0100
1000
,
0001
0000
0100
0000
0010
1000
0001
0000
,
1001
0000
0100
0000
1000
0001
0100
0000
,
0010
0000
0100
0000
0001
1000
0001
0010
,
0100
0000
1000
0000
0001
0100
0010
1000
,
0001
0010
0100
0001
,
1001
0000
0100
1000
,
0001
0000
0010
0001
,
0100
0000
1000
0000
0001
0100
0010
0000
,
1000
0000
0001
0000
1000
0001
0100
0000
,
0020
0000
1030
0100
,
0010
0000
0002
0000
,
1003
0100
1000
0001
,
0010
0100
1000
0000
,
1001
0000
0100
0000
,
0010
0100
1000
0000
,
0001
0100
0010
1000
,
0001
0010
0000
0000
,
0100
0000
0001
0000
,
0010
0100
1000
0000
,
0001
0000
0010
0000
,
0100
1000
0001
0100
,
1000
0000
0001
0000
,
0100
0001
0010
0000
,
0100
1000
0001
0010
,
0100
1001
0000
0000
,
0100
0000
0010
0000
,
0001
0000
0010
0000
,
0100
0000
1000
0000
,
0001
0010
0100
0000
,
1001
0000
0100
0000
,
0010
0001
1000
0000
,
0001
0000
0010
0000
,
0010
0100
1000
0000
,
0001
0000
1000
0000
,
0001
0100
0010
1000
,
0000
0001
0010
2000
,
0000
0000
3001
0000
,
0010
0000
0100
0000
,
1000
0001
0100
0000
,
0010
0100
0001
1000
,
0001
1001
0000
0000
,
0200
0000
0320
0000
,
1030
0001
1001
0000
,
0010
0000
0001
0000
,
1000
0000
0001
0000
,
1001
0000
0010
0000
0100
0001
1000
0000
,
1000
0000
0001
0000
0100
0010
1000
0000
,
0001
0010
0100
0000
1000
0001
0100
0000
,
1000
0100
0010
0001
1000
0000
0001
0000
,
1001
0000
0000
0000
;

//--------------- dance-single - ----------------
#NOTES:
     dance-single:
     :
     Hard:
     13:
     0,0,0,0,0:
0000
0000
0000
0000
,
0000
0000
0000
0000
,
0000
0000
0000
0000
,
0000
0000
0000
0000
,
1000
0010
0001
1000
0100
0001
0010
0000
,
1000
0000
0001
0010
0000
0100
0000
1000
,
0000
0001
0010
0000
0100
0000
1000
0000
,
0001
0000
0010
0100
0000
0001
0010
0100
,
1000
0000
0001
0000
0010
0100
1000
0001
,
0010
0000
0100
0001
0010
0000
0100
0000
,
1000
0000
0001
0010
0000
0000
1100
0000
,
0000
1001
0110
0101
,
1000
0020
0030
0000
,
1000
0001
0010
0100
,
1000
0000
0000
0000
0000
0000
0001
0000
0000
0000
0000
0000
0100
0000
1000
0000
0000
0000
0001
0000
0010
0000
0001
1000
,
0100
0000
0000
0000
0001
0000
1000
0000
0000
0000
0000
0000
0010
0000
0000
0000
0000
0100
1000
0000
0000
0010
0000
0001
,
0000
0000
0000
1000
0000
0000
0010
0000
0000
0100
0000
0010
1000
0000
0000
0000
0000
0000
0100
0000
0000
0000
0000
0000
,
1000
0000
0000
0000
0001
0000
0000
0000
0010
0000
1000
0000
0001
0000
0100
0001
,
0010
0000
1000
0000
0010
0000
0100
0000
1000
0000
0001
0000
0010
0001
0100
0001
,
1000
0000
0100
0000
1000
0000
0001
0000
0100
1000
0001
0000
0010
0000
0100
0000
,
1000
0001
0010
0000
0100
1000
0001
0000
0010
0000
0001
0000
0200
0000
0000
0000
,
0302
0000
0000
0000
1003
0000
0100
0000
2000
0000
0000
0020
3000
0000
0032
0000
,
0000
0000
1003
0010
1000
0001
0100
0010
,
2000
0000
0000
0000
3001
0000
0000
0000
0010
0000
0100
0000
1000
0001
0100
0000
,
0010
0001
1000
0001
0010
1000
0020
0000
,
2030
3001
0020
0130
,
0002
1003
0020
0130
,
1000
0001
0100
1000
0001
0010
0100
0001
,
0010
1000
0001
0010
0100
0000
0010
0000
,
1001
0001
0100
1000
,
0001
0000
0010
1000
0001
0000
0010
0000
,
0100
0010
0001
1000
,
0001
0010
0100
0000
1000
0000
0001
0000
,
0010
1000
0001
0000
0010
0000
0100
0000
,
0001
0100
0010
0000
0001
0000
0100
0000
,
1000
0001
1000
0010
1000
0001
1000
0000
,
0110
1001
0110
0000
,
0001
1000
0010
0000
0001
1000
0100
0000
,
0001
0010
0100
0000
1000
0000
0001
0000
,
0010
0100
0000
0010
0001
0000
1000
0000
,
0001
0000
1010
0000
0000
0100
0010
0000
,
1001
0010
0100
1000
,
0001
0010
1000
0001
,
0100
0010
1000
0001
,
0010
0100
1000
0000
0001
0000
0010
0000
,
0100
1000
0001
0000
0010
0000
0100
0000
,
0001
1000
0001
0000
0010
0000
0100
0000
,
0001
0010
0100
0000
1000
0000
0001
0000
,
0010
0100
0001
0000
0010
0000
0100
0000
,
1000
0001
1000
0000
0001
0010
0100
0000
,
0001
0010
0100
0000
1000
0000
0001
0000
,
0010
0001
1000
0000
0100
0000
0010
0000
,
1000
0000
0100
0000
0001
0000
0020
0000
0000
0000
0000
0000
,
1030
0010
0100
1001
,
0001
0000
0100
0000
0001
1000
0100
0000
,
0010
0000
0000
1001
0000
0000
0001
0010
,
0100
0000
1001
0000
0000
0110
1001
0000
,
2000
3002
0203
0320
,
2030
0000
0000
0000
0000
0000
3001
0100
1000
0010
0100
0001
,
2000
0000
3001
0000
0010
0001
1000
0000
,
0010
0000
1000
0000
0001
1000
0001
0000
,
0100
0000
0010
0000
1000
0001
0100
0000
,
0010
0000
0001
0000
1000
0001
0100
0000
,
0010
0100
1000
0000
0001
1000
0001
0000
,
1000
0100
0010
0001
1000
0001
0100
0010
,
2002
0000
0000
0000
,
0000
0000
0000
0000
,
3003
0000
0000
0000
;

//--------------- dance-single - ----------------
#NOTES:
     dance-single:
     :
     Challenge:
     15:
     0,0,0,0,0:
0000
0000
0000
0000
,
0000
0000
0000
0000
,
0000
0000
0000
0000
,
0000
0000
0000
0000
,
0001
0010
0100
1000
0001
0100
0010
MMMM
,
0010
0100
0001
0100
0001
0010
0001
1000
,
0100
0010
0100
1000
0010
0100
0001
0010
,
0001
0010
0001
0100
0010
0100
0010
0100
,
0001
0010
0001
0010
0001
0100
0010
1000
,
0001
0000
0100
0000
0010
0000
1000
0000
0100
0000
1000
0000
0001
0000
0010
1000
,
0100
0000
0000
MMMM
0000
0000
0110
0000
0000
MMMM
0000
0000
1000
0000
0001
0000
,
MMMM
0000
0000
0000
0000
0000
0100
0000
0000
0001
0000
0000
1000
0000
0000
0000
0000
0000
MMMM
0000
0000
0000
0000
0000
1010
0000
0000
0000
0000
0000
MMMM
0000
0000
0000
0000
0000
1000
0000
0000
0000
0001
0000
0000
0000
1000
0000
0000
0000
,
0001
0000
0000
0000
1000
0000
0000
0000
0001
0000
0000
0000
1000
0000
0000
0100
0000
0000
1000
0000
0000
0100
0000
0000
1000
0000
0000
0000
0000
0000
0000
0000
0000
0100
0000
0000
0001
0000
0000
0000
0000
0000
0100
0000
0000
0000
0000
0000
,
MMMM
MMMM
MMMM
MMMM
MMMM
MMMM
MMMM
MMMM
,
MMMM
0000
0000
0000
0000
0000
MMMM
0000
0000
0000
0000
0000
MMMM
0000
0000
0000
0000
0000
MMMM
0000
0000
0000
0000
0000
MMMM
0000
0000
0000
0000
0000
MMMM
0000
0000
0000
0001
0000
1000
0000
0000
MMMM
0000
0000
0001
0000
1000
0000
0100
0000
,
0010
0000
0000
0000
MMMM
0000
0000
0000
1000
0000
0000
0000
0001
0000
0000
MMMM
0000
0000
1000
0000
0000
MMMM
0000
0000
0100
0000
0000
0000
1000
0000
0000
MMMM
0000
0000
0010
0000
0001
0000
0000
MMMM
0000
0000
0100
0000
0000
0000
1000
0000
,
0000
0000
0100
0000
0000
0000
0001
0000
0000
MMMM
0000
0000
0100
0000
0000
MMMM
0000
0000
0010
0000
0000
0000
0100
0000
0001
0000
0000
MMMM
0000
0000
1000
0000
0000
MMMM
0000
0000
0020
0000
0000
0000
0000
0000
0000
0000
0000
0000
0000
0000
,
0031
0000
0000
MMMM
0000
0000
0100
0000
0000
0000
0001
0000
1000
0000
0000
0000
0000
0000
0100
0000
0000
0000
1000
0000
0010
0000
0000
MMMM
0000
0000
0001
0000
0000
0000
0100
0000
1000
0000
0000
MMMM
0000
0000
0010
0000
0000
0100
0000
0000
,
1000
MMMM
0010
0001
0100
MMMM
0010
0100
1000
MMMM
0001
1000
0010
0001
0100
1000
,
0010
0100
0010
0001
1000
0001
1000
0001
,
0100
1000
0010
0001
1000
0100
0001
0010
0100
MMMM
0001
MMMM
0010
MMMM
0100
1000
,
0200
0000
0000
0000
0310
0000
2000
0000
3002
0000
0000
0200
0303
0000
1001
0000
,
0001
0000
1000
0000
0000
0000
0100
0000
0010
0000
0000
0000
1000
0000
0000
0000
0100
0000
0000
0001
0000
0000
0100
0000
1000
0000
0000
0000
0001
0000
1000
0000
,
0200
0000
0320
0100
1030
0100
0010
0001
,
1000
0001
0100
0010
1000
0100
0002
0000
,
1003
MMMM
0110
MMMM
1000
MMMM
0101
MMMM
,
0010
MMMM
0110
MMMM
1000
MMMM
1001
MMMM
,
0001
0000
0100
1000
0010
0000
0100
0000
0010
0100
1000
0010
0001
0000
0010
0000
,
1000
0001
0100
0010
0100
1000
0001
0100
0010
0000
1000
0001
1000
0000
0010
0000
,
0100
0010
0001
1000
0100
1000
0010
1000
,
0010
0100
0001
1000
0001
0100
0010
1000
,
0010
0100
0010
0100
0001
0010
0001
0000
,
0110
0000
2002
0000
3003
MMMM
0001
0010
,
0001
0010
0001
0100
0001
0100
0010
0100
,
0010
1000
0100
1000
0100
0010
0001
0100
,
0010
1000
0100
1000
0001
0100
0010
0001
,
1000
MMMM
1001
0000
0110
0000
0101
0000
,
0100
0010
0001
1000
0001
0100
0010
0100
,
0001
1000
0100
1000
0001
0010
0001
0100
,
0110
0000
1000
1001
0000
0001
0100
0001
,
0110
0000
1001
0000
0100
0101
0000
0000
,
0100
0010
0001
0100
0010
1000
0010
0100
,
0001
1000
0010
0100
0001
0100
0001
0010
,
0200
0000
0000
0000
0000
0000
0000
0000
0020
0000
0000
0000
0330
MMMM
0000
0000
,
0002
2003
3200
0320
,
0130
1000
0010
0001
1000
0001
0100
0010
,
0100
0010
0100
0001
1000
0001
0010
0100
,
0010
0100
1000
0001
0010
0001
0100
0010
,
1000
0010
0100
0001
0010
0100
0010
0100
,
1000
0000
0100
0000
0010
0100
0001
0000
0100
0000
0001
0010
0100
0000
0001
0000
,
2000
0000
3000
0220
0000
0330
1000
0001
,
MMMM
0000
0000
0000
0000
0000
0100
0000
0000
0001
0000
0000
1000
0000
0000
0000
0000
0000
MMMM
0000
0000
0000
0000
0000
1010
0000
0000
0000
0000
0000
MMMM
0000
0000
0000
0000
0000
1000
0000
0000
0000
0001
0000
0000
0000
1000
0000
0000
0000
,
0001
0000
0000
0000
1000
0000
0000
0000
0001
0000
0000
0000
1000
0000
0000
0100
0000
0000
1000
0000
0000
0100
0000
0000
1000
0000
0000
0100
0000
0000
0010
0000
0000
0100
0000
0000
0001
0000
0000
0010
0000
0000
0001
0000
0000
0010
0000
0000
,
0001
0100
0001
0010
0100
0010
0100
1000
,
0100
0010
0001
0100
0001
0010
0100
0010
,
1010
0000
0010
0011
0000
1000
0100
0010
,
0110
0000
2002
0000
3003
MMMM
MMMM
MMMM
,
1000
0100
0010
0001
0010
0100
1000
0001
,
0020
0000
0000
0000
0000
0000
0000
0000
0000
0000
0000
0000
0000
0000
0000
0000
0000
0000
0000
0000
0000
0000
0000
0000
0200
0000
0000
0000
0000
0000
0000
0000
0000
0000
0000
0000
0000
0000
0000
0330
0000
0000
MMMM
0000
0000
0000
0000
0000
1000
0000
0000
0000
0000
0000
0000
0000
0100
0000
0000
0000
0000
0000
0000
0000
0010
0000
0000
0000
0000
0000
0000
0000
0001
0000
0000
0000
0000
0000
0000
0000
1000
0000
0000
0000
0000
0000
0000
0000
0001
0000
0000
0000
0000
0000
0000
0000
,
0200
0320
0032
2003
,
3200
0000
0000
0320
0000
0000
2030
0000
0000
3001
0001
0001
,
0100
0000
1000
0000
0010
0001
0100
0000
1000
0010
0001
0010
0100
0000
1000
0000
,
0010
0000
1000
0000
0001
0010
0100
0000
1000
0100
0001
0010
0100
0000
0000
0000
,
0010
0000
0100
0001
1000
0000
0100
0010
0001
0000
1000
0100
0001
0000
0010
0100
,
1000
0000
0100
0000
0010
0000
1000
0000
0001
0010
0100
1000
0001
0010
0100
1000
,
2002
0000
0000
0000
,
0000
0000
0000
0000
,
3003
0000
0000
0000
;
