#TITLE:Haze;
#ARTIST:RYOQUCHA;
#GENRE:ナムコオリジナル;
#MUSIC:Haze.ogg;
#BANNER:Haze.png;
#BACKGROUND:Haze-bg.png;
#CDTITLE:./CDTitles/NSD A3.png;
#SAMPLESTART:105.593;
#SAMPLELENGTH:15.000;
#SELECTABLE:YES;
#OFFSET:0.000;
#BPMS:0.000=175.000;
#STOPS:;
#BGCHANGES:;
#FGCHANGES:;

//--------------- dance-single - ----------------
#NOTES:
     dance-single:
     :
     Beginner:
     2:
     0,0,0,0,0:
0000
0000
0000
0000
,
0000
0000
0000
0000
,
0000
0000
0000
0000
,
0000
0000
0000
0000
,
0000
0000
0000
0000
,
1000
0000
0001
0000
,
0100
0000
0010
0000
,
1000
0000
0001
0000
,
0100
0000
0000
0000
,
1001
0000
0000
0000
,
0001
0000
0000
0000
,
1000
0000
0000
0000
,
0010
0000
0000
0000
,
0100
0000
0000
0000
,
0001
0000
0000
0000
,
1000
0000
0100
0000
,
0010
0000
0000
0000
,
2002
0000
0000
0000
,
0000
0000
0000
0000
,
3003
0000
0000
0000
,
0000
0000
0000
0000
,
0010
0000
0000
0000
,
1000
0000
0000
0000
,
0001
0000
0000
0000
,
0010
0000
0000
0000
,
0100
0000
0000
0000
,
1000
0000
0000
0000
,
0001
0000
0000
0000
,
0010
0000
0100
0000
,
1000
0000
0000
0000
,
0001
0000
0000
0000
,
0010
0000
0000
0000
,
0100
0000
0000
0000
,
1000
0000
0000
0000
,
0001
0000
0000
0000
,
0100
0000
0000
0000
,
0010
0000
0000
0000
,
0100
0000
0000
0000
,
1000
0000
0000
0000
,
0001
0000
0000
0000
,
0010
0000
0000
0000
,
0100
0000
1000
0000
,
0001
0000
0100
0000
,
0010
0000
0010
0000
,
1000
0001
0100
0000
,
1000
0000
0001
0000
,
0010
0000
0000
0000
,
0100
0000
1000
0000
,
0001
0000
0000
0000
,
0010
0000
0100
0000
,
1000
0000
0000
0000
,
0001
0000
1000
0000
,
0001
0000
0000
0000
,
0010
0000
0000
0000
,
0100
0000
0000
0000
,
0010
0000
0000
0000
,
0001
0000
0000
0000
,
1000
0000
0000
0000
,
0010
0000
0000
0000
,
0100
0000
0000
0000
,
0002
0000
0000
0000
,
1003
0000
0000
0000
,
0000
0000
0000
0000
,
0000
0000
0000
0000
,
0000
0000
0000
0000
,
0010
0000
0000
0000
,
0100
0000
0000
0000
,
1000
0000
0000
0000
,
0001
0000
0000
0000
,
1000
0000
0001
0000
,
0100
0000
0010
0000
,
1000
0000
0001
0000
,
0010
0000
1000
0000
,
0001
0000
0010
0000
,
0100
0000
1000
0000
,
0001
0000
1000
0000
,
0001
0000
0000
0000
,
0100
0000
0000
0000
,
0010
0000
0000
0000
,
1000
0000
0000
0000
,
0001
0000
0010
0000
,
0100
0000
0000
0000
,
1000
0000
0000
0000
,
0001
0000
0010
0000
,
0100
0000
0000
0000
,
1000
0000
0000
0000
,
0100
0000
0000
0000
,
0001
0000
0000
0000
,
0010
0000
0000
0000
,
0100
0000
1000
0000
,
0001
0000
0010
0000
,
1000
0001
1000
0000
,
0110
0000
0000
0000
,
1001
0000
0000
0000
;

//--------------- dance-single - ----------------
#NOTES:
     dance-single:
     :
     Easy:
     5:
     0,0,0,0,0:
0000
0000
0000
0000
,
0000
0000
0000
0000
,
0000
0000
0000
0000
,
0000
0000
0000
0000
,
0000
0000
0000
0000
,
1000
0010
0100
0000
,
0001
1000
0001
0000
,
0100
1000
0001
0100
,
0020
0000
0000
0030
,
0110
1000
0001
0100
,
0010
1000
0001
0000
,
0100
0010
1000
0001
,
0100
0001
0010
0000
,
1000
0001
0100
0010
,
1000
0001
0100
0010
,
1000
0000
0001
0000
0010
0000
0000
0000
0100
0000
0000
0001
0000
0000
1000
0000
,
0010
0000
0000
0100
0000
0010
0100
0000
,
2002
0000
0000
0000
,
0000
0000
0000
0000
,
0000
3003
0000
0000
,
0000
0000
0000
0000
,
1000
0001
0100
0000
,
0010
0000
0100
0000
,
1000
0001
0100
0000
,
0010
0000
0100
0000
,
1000
0001
0100
0000
,
0010
0000
0100
0000
,
0010
1000
0001
0000
,
0100
0010
0001
0010
,
0110
1000
0001
0000
,
0100
0010
1000
0001
,
0100
0010
1000
0000
,
0001
0000
1000
0001
,
0100
0010
0001
0000
,
0010
0100
1000
0000
,
0001
1000
0001
0000
,
0100
0000
0000
0110
,
0010
0000
1000
0000
,
0001
0000
0010
0000
,
0100
0000
1000
0000
,
0001
0000
0100
0000
,
0010
0000
0100
0000
,
1000
0000
0001
0000
,
0010
0100
1000
0001
,
0200
0000
0310
0000
,
1001
0000
0100
1000
,
0010
0000
0001
0000
,
0010
0000
0100
0001
,
1000
0001
0100
1000
,
0010
0000
1000
0000
,
0001
0100
0010
0000
,
1000
0000
0001
1000
,
0100
0010
0002
0100
,
1003
0000
0100
0000
,
0001
0010
1000
0001
,
0010
0000
0100
0000
,
1000
0001
0100
1000
,
0010
0000
0001
0000
,
1000
0010
0001
1000
,
0100
0000
0010
0000
,
0200
0000
0000
0000
,
0310
0000
0000
0000
,
0000
0000
0000
0000
,
0000
0000
0000
0000
,
0000
0000
0000
0000
,
0001
0000
1000
0000
,
0100
0000
0010
0000
,
0001
1000
0001
1000
,
0001
0000
0000
0000
,
0110
1000
0001
0100
,
0010
0100
1000
0000
,
0001
1000
0001
0100
,
0010
0001
0110
0000
,
0001
0100
0010
1000
,
0001
0100
0010
0000
,
1000
0001
0100
0010
,
2000
0000
3000
0000
,
0001
1000
0100
0010
,
0000
0001
1000
0001
,
0100
0000
0010
1000
,
0001
0100
0010
0000
,
1000
0001
0100
0000
,
0001
0010
0100
0000
,
1000
0001
0100
0010
,
0001
0000
1000
0000
,
1001
0100
0010
1000
,
0001
0100
0010
0000
,
0001
1000
0100
0010
,
0001
0010
0110
0000
,
1000
0000
0001
0000
,
0100
0000
0010
0000
,
0001
0010
0100
1000
,
0001
0000
0000
0000
,
1001
0000
0000
0000
;

//--------------- dance-single - ----------------
#NOTES:
     dance-single:
     :
     Medium:
     12:
     0,0,0,0,0:
0000
0000
0000
0000
,
0000
0000
0000
0000
,
0000
0000
0000
0000
,
0000
0000
0000
0000
,
0000
0000
0000
0000
,
0001
0000
0100
1000
0010
0000
0000
0000
,
1000
0000
0001
0010
1000
0000
0000
0000
,
0010
0100
0001
0000
1000
0001
0010
0000
,
0200
0000
0000
0300
,
0110
0000
0001
0000
1000
0100
0010
0000
,
0100
0000
0001
0000
1000
0100
0010
0000
,
0010
0000
0100
0000
0001
0010
1000
0000
,
0010
0000
1000
0000
0100
0010
0100
0000
,
0001
1000
0010
0100
,
0001
1000
0010
0100
,
0001
0000
1000
0000
0100
0000
0000
0000
0010
0000
0000
1000
0000
0000
0001
0000
,
0100
0000
0000
0010
0000
0100
0010
0000
,
2002
0000
0000
0000
,
0000
0000
0000
0000
,
0000
3003
0000
0000
,
0000
0000
0000
0000
,
0001
0000
1000
0000
0010
0000
0000
1000
,
0100
0000
0001
0000
0010
0000
0100
0010
,
0001
1000
0010
0000
,
0100
1000
0000
0000
0010
0001
0000
0000
,
0001
1000
0010
0000
,
0100
1000
0000
0000
0010
0001
1000
0000
,
0100
0000
0001
0000
1000
0100
0001
0000
,
0010
0000
0100
0000
1000
0001
0100
0000
,
0110
0000
0001
0000
1000
0000
0000
0100
,
0010
1000
0100
0010
0000
0001
1000
0000
,
0010
0100
0001
0100
,
1000
0001
0100
0000
0001
0000
1000
0000
,
0010
0001
0100
0000
1000
0000
0000
0001
,
0100
1000
0010
0000
0001
0100
0000
0000
,
1000
0001
1000
0100
,
0010
0000
0000
0110
,
0100
1000
0001
0000
,
1000
0001
0100
0000
,
0010
1000
0001
0000
,
1000
0001
0010
0000
,
0100
1000
0001
0000
0010
0000
0000
0000
,
0001
0100
0010
0000
1000
0000
0000
0000
,
0100
1000
0010
0000
0001
0100
1000
0000
,
0020
0000
0130
0000
,
1001
0100
0010
0001
,
0100
0001
0010
0000
1000
0000
0001
0000
,
0100
0000
1000
0001
0010
0000
1000
0000
,
0001
0000
1000
0100
0010
0000
0001
0000
,
0100
1000
0000
0010
0001
0000
0000
0000
,
1000
0000
0010
1000
0100
0000
0010
0000
,
0001
0010
0000
0100
1000
0000
0001
0000
,
0010
0100
2000
0010
,
3001
0000
0100
0000
0010
1000
0001
0010
,
0000
1000
0100
0010
0001
0000
1000
0000
,
0100
0000
1000
0001
0010
0000
0100
1000
,
0001
1000
0010
0001
,
0100
0010
0100
0000
1000
0000
0100
0010
,
0001
0100
1000
0001
,
0010
0000
1000
0001
0100
0000
0100
0000
,
0020
0000
0000
0000
,
0130
0000
1000
0000
,
0001
0000
0010
0000
,
0100
0000
1000
0000
,
0001
0000
0100
0001
,
1000
0100
0010
0000
0001
0000
0000
0000
,
0010
1000
0001
0000
0100
0000
0000
0000
,
1000
0010
0001
0000
1000
0100
0001
0000
,
1000
0000
0000
0000
,
0110
0000
0001
0000
1000
0001
0010
0000
,
0100
0000
0010
1000
0001
0000
0010
0000
,
1000
0000
0001
0010
1000
0000
0010
0000
,
0100
1000
0110
0001
,
1000
0000
0010
0001
0100
0000
0001
0000
,
1000
0001
0010
0000
0100
1000
0001
0000
,
0001
0000
1000
0100
0010
0000
0100
0000
,
0002
0000
0003
0000
,
1000
0000
0001
1000
0010
0000
0100
0000
,
0001
0000
1000
0010
0001
0000
1000
0000
,
0010
0000
0001
1000
0100
0000
0001
0000
,
1000
0000
0010
1000
0100
0000
0010
0000
,
0001
0000
1000
0001
0010
0000
0100
0000
,
1000
0000
0100
1000
0010
0000
0100
0000
,
0001
0000
1000
0001
0010
0000
0100
0000
,
2000
0000
3001
0010
,
1001
0010
0100
0001
,
1000
0010
0100
0001
,
1000
0001
0010
0100
,
1000
0100
0110
1000
,
0001
0100
0010
0000
1000
0000
0000
0000
,
0010
1000
0001
0000
0100
0000
0000
0000
,
1000
0001
0100
0000
0010
1000
0001
0000
,
1000
0100
0010
0001
,
1001
0000
0000
0000
;

//--------------- dance-single - ----------------
#NOTES:
     dance-single:
     :
     Hard:
     16:
     0,0,0,0,0:
0000
0000
0000
0000
,
0000
0000
0000
0000
,
0000
0000
0000
0000
,
0000
0000
0000
0000
,
0000
0000
0000
0000
,
1001
0000
0001
0010
0100
1000
0001
0010
,
0100
0001
0010
0100
1000
0001
0100
1000
,
0100
0000
0001
1000
0001
0100
0010
1000
,
0001
0000
2000
3001
,
1001
0000
0100
0000
1001
0000
0000
0000
0001
0100
0010
1000
0000
0010
0100
0000
,
0001
0000
1000
0000
0100
0000
0010
0001
0000
1000
0010
0000
0100
0001
1000
0001
,
0010
0000
0010
0000
0001
1000
0001
1000
0000
0010
0100
0001
1000
0100
0010
0100
,
2000
0000
0010
0000
3002
0000
0100
0000
1003
0100
0010
0001
0010
0100
1000
0001
,
0100
0000
0010
0000
1000
0100
0000
1000
0010
0100
0001
1000
0000
0001
1000
0000
,
0010
1000
0001
0000
0011
0000
0000
1001
0000
0000
1100
0000
1000
0000
0001
0000
,
0100
0010
0000
0010
1000
0000
0001
0010
0100
0010
0001
0000
0100
0000
0010
0000
,
2000
0000
0000
0000
0000
0000
0000
3001
0000
0000
0010
0000
1000
0000
0000
0000
,
2002
0000
0000
0000
,
0000
0000
0000
0000
,
0000
0000
0000
0000
,
3003
0000
0000
0000
,
0010
0000
0100
0000
1000
0000
0000
0001
,
1000
0001
0010
0100
0000
2000
0000
3001
,
0100
0000
0010
0000
1000
0000
0001
0010
,
0000
0100
1000
0001
0100
0010
0100
1000
,
0001
0000
0010
0000
0100
0000
1000
0010
,
0001
1000
0001
0010
0000
0100
0001
1000
,
0010
0000
0100
0001
1000
0010
0100
1000
,
0100
0000
0001
0010
0100
0000
0010
0000
1000
0001
0100
1000
0001
0000
0010
0000
,
1001
0000
0010
0000
0001
1000
0000
1000
,
0001
1000
0100
0010
1000
0002
0000
1003
,
0010
0000
0100
0000
0002
0000
1003
0100
,
0000
0010
0001
1000
0010
0100
0010
0001
,
1000
0000
0100
0000
0010
0000
0001
0100
,
1000
0001
1000
0100
0000
0010
1000
0001
,
0100
0000
0010
1000
0001
0100
0010
0001
,
0010
0000
1000
0100
0010
0000
0100
0000
0001
1000
0010
0001
1000
0000
0100
0000
,
0001
0010
0010
0001
0010
0010
0001
0000
,
1000
0010
0010
1000
0010
0010
1000
0000
,
0001
0100
0100
0001
0100
0100
0001
0000
,
1000
0100
0100
1000
0100
0100
1000
0000
,
2020
0000
0000
3030
,
2002
0000
0000
3003
,
0101
0000
0110
0000
,
1000
0100
0010
0001
,
0001
0000
0100
0000
0010
0100
0010
0000
1000
0001
0000
0001
0010
0000
0100
0000
,
1000
0000
0010
0000
0100
0010
0100
0000
0001
1000
0000
1000
0100
0000
0010
0000
,
0001
0000
1000
0000
0010
0100
0001
0000
0100
0000
0000
1001
0000
0000
0001
0000
,
0010
0000
0100
0000
1000
0100
1000
0000
0001
0100
0000
0100
0010
0000
1000
0000
,
0001
0000
1000
0000
0100
0010
0100
0000
0010
0001
0000
0001
1000
0000
0100
0000
,
0010
0000
0100
0000
1000
0001
1000
0000
0010
0100
0000
0101
0000
0000
0001
0000
,
0010
0000
0100
0000
0010
0000
0000
0000
0011
0000
0000
1010
0000
0000
0100
0000
,
1000
0000
0001
0100
0010
0000
1000
0000
0100
0010
0000
0001
0000
0000
1000
0000
,
0200
0300
1000
0000
0010
0001
0010
0100
,
1000
0001
0010
0100
1000
0001
0010
1000
,
0020
0000
0130
0001
1000
0100
0010
0100
,
1000
0010
0001
1000
0001
0010
0100
0001
,
2000
0000
3001
0000
0010
0100
0001
0100
,
1000
0100
1000
0001
0010
0100
1000
0001
,
0110
0000
1000
0001
1000
0010
0100
0010
,
2000
0000
0000
0000
,
0002
0000
0000
0000
,
0000
0000
0000
0000
,
0000
0000
0000
0000
,
0000
0000
3003
0020
,
1030
0001
0100
0010
,
1000
0001
0100
0010
,
1000
0001
0010
0000
0100
1000
0001
0000
,
0020
0000
0000
0000
,
0130
0000
1000
0000
0100
0000
0001
1000
0100
0000
0001
0000
0001
0010
1000
0000
,
0001
0000
0110
0000
0000
0001
1000
0000
0001
0010
1000
0000
0010
0100
0020
0000
,
0000
0000
0031
0000
0100
1000
0001
0000
1000
0000
0001
0000
0010
1000
0001
0000
,
1000
0100
0010
0000
0100
0000
0001
0000
1000
0000
0100
0000
0010
0000
0000
0000
,
1001
0000
0001
0000
0010
0000
1000
0001
0010
0000
1000
0000
1000
0100
0001
0000
,
1000
0000
0110
0000
0000
1000
0001
0000
1000
0100
0001
0000
0100
0010
0200
0000
,
0000
0000
1300
0000
0010
0001
1000
0000
0001
0000
1000
0000
0100
0001
1000
0000
,
0001
0010
0100
0000
0010
0000
1000
0000
0001
0000
0010
0000
0100
0000
0000
0000
,
1001
0000
0001
0000
0100
0001
0000
0001
1000
0000
0010
0000
0100
0000
0001
0000
,
0010
0100
0010
0000
0100
1000
0000
1001
0000
0000
0001
0000
0100
0000
0010
0000
,
1000
0000
0000
0000
1000
0000
0100
0001
0000
0000
0001
0000
1000
0000
0010
0000
,
0100
0001
0100
0000
0001
0010
0000
1000
0000
0100
0010
0000
0001
0000
1000
0000
,
0010
1000
0010
0000
0100
0001
0000
0001
1000
0000
0100
0000
0001
0000
1000
0000
,
0010
1000
0000
1000
0001
0000
0100
0000
0010
0000
1000
0000
0100
0010
0100
0000
,
0010
0001
0000
1001
0000
0000
1000
0000
0010
0000
0100
0000
0001
0000
0000
0000
,
0001
0000
0010
1000
0000
0000
1000
0000
0001
0000
0100
0000
0010
1000
0010
0000
,
1000
0100
0000
0001
0000
0010
0100
0000
1000
0000
0001
0000
0100
0001
0100
0000
,
0010
1000
0000
1000
0001
0000
0010
0000
1000
0000
0001
0000
0100
0001
0000
0001
,
1000
0000
0010
0000
0100
0000
0001
0000
0010
0100
0010
0000
0100
1000
0000
1001
,
0000
0000
0001
0000
0100
0000
0010
0000
1000
0000
0000
0000
1000
0000
0100
0001
,
0000
0000
0001
0000
1000
0000
0010
0000
0100
0001
0100
0000
0001
0010
0000
1000
,
0000
0100
0010
0000
0001
0000
1000
0000
0010
1000
0010
0000
0100
0001
0000
0001
,
1000
0000
0100
0000
0001
0000
0010
0000
1000
0000
0000
0001
0010
0000
0100
0000
,
2000
0000
0000
0002
0000
0000
3003
0000
,
2002
0000
0000
0000
,
3003
0000
0000
0000
;
