
//----- song ID: bjag -----//
#TITLE:白日夢、霧雨に溶けて;
#ARTIST:後藤 feat. ぜりょわん ;
#TITLETRANSLIT:Hakujitsumu, Kirisame ni Tokete;
#ARTISTTRANSLIT:Goto feat. zeyro-one;
#GENRE:けものフレンズ×NonStopDance -フレンズの歌の音楽-;
#MUSIC:Hakujitsumu, Kirisame ni Tokete.ogg;
#BANNER:Hakujitsumu, Kirisame ni Tokete.png;
#BACKGROUND:Hakujitsumu, Kirisame ni Tokete-bg.png;
#CDTITLE:./CDTitles/NSD A3.png;
#SAMPLESTART:38.394;
#SAMPLELENGTH:15.000;
#SELECTABLE:YES;
#OFFSET:0.000;
#BPMS:0.000=200.000
,236.750=100.000
,269.000=50.000
,271.000=200.000
,319.000=100.000
,331.000=200.000
,366.750=100.000
;
#STOPS:128.000=0.900
,236.750=1.123
,366.750=1.126
;
#BGCHANGES:;
#FGCHANGES:;

//--------------- dance-single - ----------------
#NOTES:
     dance-single:
     :
     Beginner:
     1:
     0,0,0,0,0:
0000
0000
0000
0000
,
0000
0000
0000
0000
,
0000
0000
0000
0000
,
0000
0000
0000
0000
,
0000
0000
0000
0000
,
0000
0000
0000
0000
,
0000
0000
0000
0000
,
0000
0000
0000
0000
,
0000
0000
0000
0000
,
0001
0000
0000
0000
,
0000
0000
0000
0000
,
0001
0000
0000
0000
,
0000
0000
0000
0000
,
0100
0000
0000
0000
,
0000
0000
0000
0000
,
1000
0000
0000
0000
,
0000
0000
0000
0000
,
0001
0000
0000
0000
,
0000
0000
0000
0000
,
0100
0000
0000
0000
,
0000
0000
0000
0000
,
1000
0000
0000
0000
,
0100
0000
0000
0000
,
0010
0000
0000
0000
,
0000
0000
0000
0000
,
0001
0000
0010
0000
,
0100
0000
0000
0000
,
1000
0000
0100
0000
,
0010
0000
0000
0000
,
0001
0000
0000
0000
,
1000
0000
0000
0000
,
0001
0000
0000
0000
,
0000
0000
0000
0000
,
0100
0000
0000
0000
,
1000
0000
0000
0000
,
0001
0000
0000
0000
,
0100
0000
0000
0000
,
0010
0000
0000
0000
,
0100
0000
0000
0000
,
1000
0000
0001
0000
,
0010
0000
0000
0000
,
1000
0000
0000
0000
,
0000
0000
0000
0000
,
0001
0000
0000
0000
,
0000
0000
0000
0000
,
0010
0000
0000
0000
,
0100
0000
0000
0000
,
1000
0000
0000
0000
,
0001
0000
0000
0000
,
0010
0000
0000
0000
,
0100
0000
0000
1000
,
0001
0000
0000
0000
,
0100
0000
0010
0000
,
0100
0000
0000
0000
,
1000
0000
0000
0000
,
0001
0000
0010
0000
,
0100
0000
0000
0000
,
1000
0000
0000
0000
,
0001
0000
0000
0000
,
0010
0000
0000
0001
,
1000
0000
0000
0000
,
0001
0000
0000
0000
,
0010
0000
0000
0000
,
0100
0000
0000
0000
,
0001
0000
0010
0000
,
0100
0000
1000
0000
,
0001
0010
0100
0000
,
1000
0100
0010
0000
,
0001
0000
0100
0000
,
0000
1000
0000
0000
,
0001
0000
0100
0000
,
0000
0010
0000
0000
,
1000
0000
0000
0001
,
0000
0000
1000
0000
,
0000
0000
0010
0100
,
0000
0000
1000
0000
,
0000
0001
1000
0000
,
0000
0010
0000
0000
,
1000
0000
0000
0001
,
0000
0000
0010
0000
,
0000
0100
1000
0000
,
0001
0000
0010
0000
,
0100
1000
0001
0000
,
0100
0000
0010
0000
,
1000
0000
0001
0000
,
0000
0000
0100
0000
,
0000
0000
0010
0000
,
0000
0000
1000
0000
,
0001
0000
0100
0000
,
0000
0000
0010
0000
,
0000
0000
0000
0000
,
0000
0000
1000
0000
,
0000
0000
1001
0000
;

//--------------- dance-single - ----------------
#NOTES:
     dance-single:
     :
     Easy:
     4:
     0,0,0,0,0:
0000
0000
0000
0000
,
0000
0000
0000
0000
,
0000
0000
0000
0000
,
0000
0000
0000
0000
,
0000
0000
0000
0000
,
0020
0000
0000
0000
,
0000
0000
0000
0000
,
0000
0000
0000
0000
,
0030
0000
0000
0000
,
1001
0000
0000
0100
0000
0000
0000
0010
,
0000
0000
0000
1000
0000
0001
0000
0000
,
0010
0000
0000
1000
0000
0000
0000
0001
,
0000
0000
0000
0100
0000
1000
0000
0000
,
0010
0000
0000
1000
0000
0000
0000
0001
,
0000
0000
0000
0100
0000
0000
0000
0010
,
0000
0000
0000
0100
0000
0000
0000
1000
,
0000
0000
0000
0001
0000
0100
0000
0000
,
1000
0000
0000
0001
0000
0000
0000
0100
,
0000
0000
0000
0010
0000
1000
0000
0000
,
0001
0000
0000
1000
0000
0000
0000
0010
,
0000
0000
0000
0100
0000
0000
0000
0000
,
1000
0000
0000
0001
0000
0000
0100
0000
,
0000
1000
0000
0000
0001
0000
0100
0000
,
0000
2000
0000
0000
0000
3000
0000
0002
,
0000
0000
0000
0003
0000
0000
0000
0000
,
1000
0000
0001
0000
,
0100
0000
0010
0000
,
0100
0000
1000
0000
,
0001
0000
0010
0000
,
0100
0000
1000
0000
,
0001
0000
0100
0000
,
0010
0000
1000
0000
,
1001
0010
0000
0000
,
0100
0000
0000
0000
,
1000
0001
0000
0000
,
0100
0000
0000
0010
,
0100
1000
0000
0000
,
0001
0000
1000
0000
,
0001
0100
0000
0000
,
0010
0000
0000
1000
,
0001
0100
0000
0000
,
0000
0010
0000
0000
,
0100
1000
0000
0000
,
0000
0001
0000
0000
,
0000
0010
0000
0100
,
0000
1000
0000
0001
,
0000
0100
0000
1000
,
0000
0001
0000
0010
,
0000
0100
0000
1000
,
0000
0001
0000
0100
,
0000
0010
0000
0100
,
0000
1000
0000
0000
,
0000
0001
1000
0000
,
0000
0100
0010
0000
,
0000
1000
0100
0010
,
0000
0001
0000
0000
,
0000
0001
1000
0000
,
0000
0100
0010
0000
,
0000
1000
0100
0010
,
0001
2000
0000
0000
,
0000
3002
0000
0000
,
0000
2003
0000
0000
,
0000
3020
0000
0000
,
0000
0230
0000
0000
,
0300
0020
0000
0000
,
0030
0001
1000
0100
,
0010
0001
0100
0010
,
1000
0000
0000
0000
0000
0000
0000
0000
2002
0000
0000
0000
0000
0000
3003
0000
1000
0000
0000
0001
0000
0000
1000
0000
0110
0000
0000
0000
0000
0000
0000
0000
,
0000
0100
0000
0000
1000
0000
0000
0001
,
0000
0100
0000
0010
,
0000
1000
0000
0000
0001
0000
0000
0100
,
0000
0010
0000
0100
0000
0000
0000
0000
,
1000
0000
0000
0010
0000
0000
0100
0001
,
0000
0000
0000
1000
,
0001
0000
0000
0010
0000
0000
0100
0000
,
0000
1000
0000
0001
0000
0000
1000
0000
,
0000
0001
0000
0000
0100
0000
0000
0010
,
0000
0000
0100
0000
0000
1000
0000
0000
,
0001
0000
0000
0100
0000
0000
0010
0000
,
0000
0100
0000
0000
1000
0000
0001
1000
,
0100
0010
0001
0010
0100
1000
0001
0100
,
0010
1000
0002
0000
0000
0000
1003
0000
,
0000
0000
0000
0001
,
0000
0010
0000
0100
,
0000
1000
0001
0100
,
0000
0010
0000
0100
,
0000
1000
0000
0001
,
0000
0010
0000
0100
,
0000
1000
0000
0000
,
0001
1000
0000
0000
,
0100
0010
0000
1000
,
0100
0010
0001
1001
;

//--------------- dance-single - ----------------
#NOTES:
     dance-single:
     :
     Medium:
     7:
     0,0,0,0,0:
0000
0000
0000
0000
,
0000
0000
0000
0000
,
0000
0000
0000
0000
,
0000
0000
0000
0000
,
0000
0000
0000
0000
,
0001
0000
0000
0000
,
0100
0000
0000
0000
,
1000
0000
0001
0000
,
0010
0000
0100
0000
,
1000
0000
0000
0010
0000
0000
0001
1000
,
0000
0000
0000
0001
0000
0100
1000
0000
,
0001
0000
0000
0010
0000
0000
0100
1000
,
0000
0000
0000
0010
1000
0010
0001
0000
,
0100
0000
0000
1000
0000
0000
0010
0100
,
0000
0000
0000
0001
0100
0000
1000
0010
,
0001
0000
0000
1000
0010
0000
0000
0001
,
0000
0000
0000
0010
0100
0000
0001
0000
,
0010
0000
0000
1000
0100
0000
0000
0001
,
1000
0000
0001
0010
0100
1000
0000
0000
,
0010
0000
0000
0001
0100
0000
0000
0010
,
1000
0000
0001
1000
0100
0000
0000
0000
,
0010
0001
0100
0010
,
1000
0000
0100
0000
0001
1000
0010
0000
,
0000
2000
0000
0000
0000
3000
0000
0002
,
0000
0000
0000
0003
0000
0000
0000
0000
,
1001
0000
0010
0000
,
0100
1000
0001
0000
,
0100
0000
0010
0000
,
0001
0010
0100
0000
,
1000
0000
0001
0000
,
0010
0100
1000
0000
,
0001
0000
0100
0000
,
0020
0130
0000
1000
,
0000
0001
0100
0010
,
0000
1000
0000
0001
,
0000
0010
0100
1000
,
0000
0001
0000
0100
,
0000
0010
0000
0001
,
0010
0100
0000
1000
,
0000
0001
0000
0100
,
0010
1000
0000
0001
,
0000
0100
0010
1000
,
0000
0001
0000
0100
,
0010
0100
0000
1000
,
0001
0100
0010
1000
,
0000
0001
0100
0010
,
0000
1000
0001
0100
,
0010
1000
0001
0100
,
0010
1000
0001
0100
,
0010
0001
0010
0100
,
0010
1000
0001
0100
,
0010
0001
0010
0100
,
1000
1001
0000
0100
,
0000
0110
0000
0001
,
0000
0101
0010
1010
,
0000
1100
0100
0101
,
0000
1000
0100
0000
,
0000
0001
0010
0000
,
0000
1000
0010
0100
,
1000
0002
0000
0000
,
0000
2003
0000
0000
,
0000
3020
0000
0000
,
0000
0230
0000
0000
,
0000
0301
1000
0010
,
0100
0001
0010
0100
,
1000
0001
0100
0010
,
1000
0000
0001
0010
0100
1000
0001
0100
,
0010
1000
0002
0000
1003
0000
0010
0000
,
0000
0100
0000
1000
,
0000
0001
0000
0100
,
0000
1000
0000
0001
,
0000
0100
0010
0100
,
1000
0000
0001
0000
,
0010
0000
0100
1000
,
0000
0001
0000
0100
,
0000
1000
0001
0100
,
0000
0010
0000
1000
,
0000
0001
0100
0010
,
0000
0100
0000
1000
,
0000
0001
0000
0100
,
0000
0010
0000
0100
,
1000
0001
0100
0220
,
0000
0000
0330
1001
,
0000
0100
0000
1000
,
0001
0100
0000
0010
,
0000
0100
0000
1000
,
0001
0100
0000
0010
,
0000
0100
0000
1000
,
0000
0001
0000
0000
,
0010
0100
0000
0000
,
1000
0001
0000
1000
,
0100
0010
0001
0110
;

//--------------- dance-single - ----------------
#NOTES:
     dance-single:
     :
     Hard:
     12:
     0,0,0,0,0:
0000
0000
0000
0000
,
0000
0000
0000
0000
,
0000
0000
0000
0000
,
0000
0000
0000
0000
,
0000
0000
0000
0000
,
1000
0000
0000
0000
,
0001
0000
0000
0000
,
0100
0000
1000
0000
,
0001
0000
0000
0000
,
0100
0000
0001
1000
0000
0000
0010
0100
,
0000
0000
0010
1000
0000
0001
0000
0000
,
0010
0000
0100
1000
0000
0000
0001
0100
,
0000
0000
0000
0100
0000
0010
0000
0000
,
1000
0000
0100
0001
0000
0000
1000
0001
,
0000
0000
0100
0010
0000
0000
0010
1000
,
0000
0000
0010
0100
0000
0000
0001
1000
,
0000
0001
0100
0010
0000
1000
0000
0001
,
0100
0000
1000
0001
0000
0010
0100
0000
,
1000
0000
0001
0100
0000
1000
0000
0000
,
0001
0000
0010
0100
0000
1000
0001
0100
,
0000
0000
0010
0100
0000
1000
0001
0000
,
0100
0010
1000
0001
,
0100
0010
1000
0001
,
0100
1000
0001
1000
0000
0001
0000
1000
,
0001
0100
0000
1000
0000
0002
0000
0000
,
1003
0000
0100
0000
0001
0010
0100
0000
,
1000
0000
0001
0000
0100
0010
0100
0000
,
1000
0000
0001
0000
0100
1000
0001
0000
,
0010
0000
0100
0000
1000
0001
0010
0000
,
0100
0000
0010
0000
0001
0010
0100
0000
,
1000
0000
0001
0000
0010
1000
0100
0000
,
0001
1000
0010
0001
0100
0010
0001
0100
,
2000
3000
1001
0000
0001
0010
0100
0000
,
0010
0000
1000
0000
0001
0000
0100
1000
,
0001
0010
0100
0000
1000
0000
0001
1000
,
0010
0000
0100
0000
0001
0000
0010
1000
,
0001
0000
0010
0000
0100
0000
1000
0001
,
0010
0000
0100
0000
1000
0000
0001
0010
,
0100
0000
0010
0000
0100
0000
1000
0001
,
0010
0000
0100
1000
0001
0010
0100
1000
,
0001
0010
0100
0000
0001
0000
0010
0100
,
0001
0000
0010
0000
0000
0000
0001
0010
,
0100
0000
1000
0001
0010
0000
0100
1000
,
0001
0000
0010
0000
0100
0000
1000
0001
,
0010
0100
1000
0000
0110
0000
0000
0000
,
0001
0010
1100
0000
,
0001
0000
0010
0000
1000
0001
0010
0000
,
0100
0000
1000
0001
0010
0000
0100
0000
,
1000
0000
0001
0000
0010
0100
1000
0000
,
0001
0000
0010
0100
1000
0001
0010
0000
,
0100
0000
0001
0000
0010
0100
0001
0000
,
0010
0000
0100
0000
1000
0001
0010
0100
,
0000
0000
1000
0000
0000
0010
0100
0000
,
1000
0001
0010
0100
,
0001
0101
0000
0110
,
0000
0000
1010
0000
0000
0000
0100
0001
,
0010
0000
0100
0000
1000
0000
0001
0010
,
0000
1000
0000
0001
0000
0010
0000
0100
,
1000
0001
0000
0010
0100
1000
0010
0100
,
1000
0000
0000
0001
0000
0000
2000
0000
0000
0000
0000
0000
0000
0000
3000
0002
0000
0000
0000
0000
0000
0000
0000
0000
,
0000
2003
3200
0000
0000
0000
0320
0000
,
0000
2030
3200
0000
0000
0000
0320
0000
,
0000
1030
0001
0010
,
0100
1000
0001
0100
,
0010
1000
0001
0000
0100
0000
0010
0000
,
0001
0010
0100
0000
1000
0000
0001
0000
,
0100
0000
1000
0001
0100
0010
1000
0001
,
0100
0010
2001
0000
3001
0010
0110
0000
,
0000
1001
0000
0000
0001
0000
0000
0010
,
0000
0000
0100
1000
0000
0000
0001
0000
,
0000
1001
0000
0000
0100
0000
0000
0110
,
0000
1000
0000
0220
0000
0330
0000
0000
,
1000
0000
0000
0101
0000
0000
0010
2000
,
0000
0000
0000
3001
,
0010
0000
0000
0110
0000
0000
1001
0000
,
0000
0010
0000
0101
0000
0000
1010
0000
,
0000
0101
0000
0000
1010
0000
0000
0110
,
0000
0000
0001
0000
0000
0010
0000
0000
,
1000
0000
0000
0001
0000
0000
0100
0000
,
0000
1000
0000
0000
0001
0000
0100
0000
,
0000
0000
0010
0000
0010
0000
1000
0001
,
0100
0010
1000
0001
0010
0100
1002
0000
,
0000
0000
0000
1003
,
0010
0100
0000
1000
,
0001
0000
0100
0000
0010
0000
1000
0001
,
0010
0000
0100
0001
1000
0000
0001
0000
,
0010
0000
0100
1000
0001
0000
0010
0000
,
0100
0000
1000
0001
0000
0000
0100
0010
,
1000
0001
0010
0000
,
1000
0001
0010
0100
,
1000
0000
0001
0000
0100
0000
0010
1000
,
0001
1000
0010
0100
0001
1000
2002
0000
,
0000
0000
3003
0000
;
