#TITLE:HOOPALOOZA;
#ARTIST:NAMCO Sound Team "WUMPA VS. DJ Kurara";
#GENRE:Enjoy Summer Vacation!;
#MUSIC:HOOPALOOZA.ogg;
#BANNER:HOOPALOOZA.png;
#BACKGROUND:EXTRA SAVIOR A3-bg.png;
#CDTITLE:./CDTitles/NSD A3.png;
#SAMPLESTART:12.950;
#SAMPLELENGTH:15.000;
#SELECTABLE:YES;
#OFFSET:0.000;
#BPMS:0.000=111.000
,24.000=222.000
,216.000=224.000
,217.000=225.000
,218.000=236.000
,221.000=229.000
,229.000=462.000
,231.000=240.000
,245.000=476.000
,246.000=247.000
,252.000=257.000
,256.000=247.000
,259.000=494.000
,261.000=260.000
,276.000=264.000
,280.000=282.000
,284.000=278.000
,288.000=304.000
,292.000=311.000
,294.000=327.000
,300.000=365.000
,301.000=222.000
;
#STOPS:229.000=0.127
,230.000=0.392
,245.000=0.374
,259.000=0.123
,260.000=0.356
,275.000=0.230
;
#BGCHANGES:;
#FGCHANGES:;

//--------------- dance-single - ----------------
#NOTES:
     dance-single:
     :
     Beginner:
     5:
     0,0,0,0,0:
0000
0000
0000
0000
,
0000
0000
0000
0000
,
0000
0000
0000
0000
,
0000
0000
0000
0000
,
0000
0000
0000
0000
,
0000
0000
0000
0000
,
1000
0000
0001
0000
,
0100
0000
0010
0100
,
1000
0000
0001
0000
,
0010
0000
0010
0000
,
0100
0000
1000
0000
,
0001
0100
0010
0000
,
1000
0000
0001
0000
,
0100
0010
1000
0001
,
0100
0000
0010
0000
,
1000
0001
0100
0000
,
0010
0000
0100
0000
,
0001
1000
0001
0000
,
0100
0000
0010
0000
,
0100
0000
1000
0000
,
0001
0100
0010
1000
,
0001
0100
0010
1000
,
0001
0000
0100
0000
,
0010
1000
0000
0001
,
0100
1000
0001
0100
,
0010
1000
0000
0002
,
1003
0100
0010
0000
,
1000
0001
0200
0000
,
0310
1000
0001
0000
,
0100
0010
1000
0001
,
0100
0000
0010
0000
,
1000
0000
0001
0000
,
0100
0000
0010
0000
,
0100
0000
0001
0000
,
1000
0000
0001
0000
,
0010
0000
0100
0000
,
0001
0000
1000
0000
,
0001
0100
0010
1000
,
0001
0000
0100
0000
,
0010
0000
1000
0000
,
0001
0000
0100
0000
,
0010
0000
0100
0000
,
1000
0000
0001
0000
,
0100
0000
0010
0000
,
0100
1000
0001
0100
,
0010
0000
0100
0000
,
1000
0000
0001
0000
,
1000
0100
0000
0000
,
0010
0000
0100
0000
,
1000
0001
0000
0000
,
0100
0000
0010
0000
,
0100
1000
0001
0000
,
0100
0000
0010
0000
,
0001
1000
0001
0000
,
0100
0000
0000
0000
,
1000
0000
0000
0000
,
0001
0000
0000
0000
,
0010
0000
0100
1000
,
0000
0000
0000
0001
,
0000
0000
0000
0010
,
0000
0000
0000
0100
,
0000
1000
0001
0000
,
0000
0000
0010
0000
,
0000
0000
0100
0000
,
0000
0000
1000
0000
,
0001
0100
0000
0010
,
0000
0100
0000
0000
,
0000
1000
0000
0001
,
0000
0100
0000
0010
,
1000
0000
0001
0000
,
0100
0000
0010
0000
,
1000
0000
0001
0000
,
0100
0000
0010
0000
,
2000
0000
0000
0000
,
0000
3002
0000
0000
0000
0000
0000
0000
,
0000
0103
0000
1000
,
0000
0001
0000
0100
,
0000
0000
0000
0010
0000
0100
0000
1000
,
0000
0001
0000
0100
0000
0010
0000
1000
,
0000
0001
0000
0000
1000
0000
0000
0000
,
0010
0000
0100
0000
,
0001
0000
0000
1000
0000
0001
0000
0010
,
0000
1000
0000
0001
0000
0100
0000
0010
,
0000
0100
0000
0000
1000
0000
0000
0000
,
0001
0000
0100
0000
,
0010
0000
0000
1000
0000
0001
0000
0100
,
0000
0010
0000
0100
0000
1000
0000
0001
,
0000
0100
0000
0000
0010
0000
0000
0000
,
1000
0000
0001
0000
,
0100
0010
1000
0001
,
0100
0010
0100
1000
,
0001
1001
0000
0000
;

//--------------- dance-single - ----------------
#NOTES:
     dance-single:
     :
     Easy:
     10:
     0,0,0,0,0:
0000
0000
0000
0000
,
0000
0000
0000
0000
,
0000
0000
0000
0000
,
0000
0000
0000
0000
,
0000
0000
0000
0000
,
0000
0000
0000
0000
,
0001
0000
0100
0000
0010
0000
1000
0001
,
1000
0100
0001
0100
,
1000
0000
0010
0000
0100
0000
0001
1000
,
0001
0000
0100
0000
0010
0100
0010
0000
,
1000
0000
0100
0000
0010
0000
0001
1000
,
0001
0100
1000
0100
,
0001
0000
0010
0000
0100
0000
1000
0001
,
1000
0000
0100
0000
0010
0100
0010
0000
,
0001
0000
1000
0000
0100
0000
0010
0001
,
0010
0001
0100
0001
,
0010
0000
0001
0000
1000
0000
0010
1000
,
0010
0000
1000
0000
0100
1000
0100
0000
,
1000
0000
0001
0000
0010
0000
0100
1000
,
0100
0000
0000
1000
0000
0000
1100
0000
,
0100
0000
1000
0000
0001
0000
0100
0001
,
0100
0010
0010
0000
,
1000
0100
0010
0000
,
0001
1000
0002
0000
,
0103
1000
0001
0000
,
0100
0010
0200
0000
,
0310
1000
0001
0000
,
0100
0010
2000
0000
,
3001
0100
0010
0000
,
1000
0001
0100
0010
,
1000
0000
0010
0000
0100
0010
0100
0000
,
0001
1000
0010
0100
,
0001
0000
0010
0000
0100
0010
0100
0000
,
1000
0010
1000
1001
,
0001
0000
0010
0000
0100
0010
0100
0000
,
1000
0001
0010
0100
,
1000
0000
0010
0000
0100
0010
0100
0000
,
0001
0010
0001
1001
,
1000
0010
0001
0010
,
1000
0010
1000
0000
0001
0010
0001
0000
,
1000
0100
0001
0100
,
1000
0000
0100
1000
0001
0000
1000
0000
,
0001
0010
1000
0010
,
0001
0000
0010
0001
0000
1000
0010
0000
,
1000
0001
0100
1000
,
0100
0001
1001
0000
,
1000
0100
0010
0000
,
0001
1000
0002
0000
,
0103
1000
0001
0000
,
0100
0010
0200
0000
,
0310
1000
0001
0000
,
0100
0010
2000
0000
,
3001
0100
0010
0000
,
1000
0001
0100
0010
,
0001
1000
0001
0010
,
0001
1000
0100
1000
,
0001
1000
0010
0100
,
0010
0100
0110
1000
,
0100
0010
0100
1000
,
0001
1000
0001
1000
,
0100
0010
0001
1000
,
0010
1001
0110
0100
,
0010
0100
0001
1000
,
0010
1000
0001
1000
,
0001
0100
0010
0100
,
1001
0010
0001
1000
,
0010
0100
0001
1000
,
0001
0100
0010
0100
,
0001
1000
0001
1000
,
1001
0010
0100
0010
,
0100
1000
0001
0100
,
0001
1000
0010
0100
,
0010
0100
0010
1000
,
0001
1000
0100
0010
,
0100
1000
0001
0100
,
0010
0000
1000
0000
0010
0000
0100
0010
,
0100
0001
1000
0010
,
0100
0000
0001
0000
0010
0000
0100
0010
,
0100
1000
0010
1000
,
1001
0000
0001
0000
0010
0000
0100
0010
,
0100
1000
0001
0010
,
0100
0000
1000
0000
0010
0000
0100
0010
,
0100
0001
0010
0001
,
1001
1000
0010
0001
,
0010
0000
1000
0010
1000
0000
0001
0010
,
0001
1000
0100
0001
,
0100
0000
1000
0000
0100
1000
0001
0000
,
1000
0001
0010
1000
,
0010
0000
0001
0000
0010
0001
0000
1000
,
0010
1000
0001
0100
,
1000
0100
0001
1000
,
0001
1001
0000
0000
;

//--------------- dance-single - ----------------
#NOTES:
     dance-single:
     :
     Medium:
     14:
     0,0,0,0,0:
0000
0000
0000
0000
,
0000
0000
0000
0000
,
0000
0000
0000
0000
,
0000
0000
0000
0000
,
0000
0000
0000
0000
,
0000
0000
0000
0000
,
1000
0010
1000
0010
0100
0001
0100
0000
,
0010
1100
0010
0101
,
0001
0010
0001
0010
0100
1000
0100
0000
,
0010
0000
1001
0000
0001
1000
0001
0000
,
1000
0100
1000
0100
0010
0001
0010
0000
,
0100
1010
0100
0011
,
0001
0100
0001
0100
0010
1000
0010
0000
,
1000
0000
0100
0010
0100
0000
0010
0000
0001
0000
1000
0000
0001
0000
0000
0000
,
1000
0010
0100
0010
1000
0100
0010
0000
,
0001
0110
1000
0110
,
0001
0100
0010
0100
0001
0010
0100
0000
,
1000
0000
1001
0000
1000
0001
1000
0000
,
0001
0100
0010
1000
0010
0100
0001
0000
,
1000
0000
0010
0100
0000
0100
0010
0000
,
1000
0100
0010
0001
0100
0010
1000
0000
,
0002
1000
1000
0003
,
0100
0001
1000
0000
0011
0000
1000
0100
,
0001
0110
2001
0000
,
3001
0010
0001
0000
1010
0000
0100
0010
,
0001
0000
0101
0000
1000
0100
0010
0100
,
1000
0100
0001
0000
1001
0000
0010
0100
,
0001
0100
0210
0000
,
0310
1000
0001
0000
1001
0000
0010
0100
,
1000
0100
0001
0010
1000
0010
1000
0001
,
1000
0100
0001
0100
,
1000
0001
0010
0100
2000
0000
3000
0000
,
0001
0100
1000
0100
,
0001
0010
0100
1000
0002
0000
0003
0000
,
1000
0100
1000
0100
0010
0001
0010
0000
,
0001
0100
0001
0100
0010
1000
0010
0000
,
1000
0100
0010
0000
0001
0100
0010
0000
,
1000
0001
0100
0000
1000
0001
0100
0000
,
1000
0100
1000
0100
0010
0001
0010
0000
,
0001
0100
0001
0100
0010
1000
0010
0000
,
1000
0100
0010
0000
0001
0100
0010
0000
,
0001
0010
0100
0000
1000
0001
0100
0000
,
1000
0100
1000
0100
0010
0001
0010
0000
,
0001
0100
0001
0100
0010
1000
0010
0000
,
1000
0100
0010
0000
0001
0100
0010
0000
,
0100
0010
0100
0000
0001
1000
0001
0000
,
0010
1000
0001
0000
1100
0000
0001
0010
,
1000
0110
1002
0000
,
1003
0100
1000
0000
0101
0000
0010
0100
,
1000
0000
1010
0000
0001
0010
0100
0010
,
0001
0010
1000
0000
1001
0000
0100
0010
,
1000
0010
0120
0000
,
0130
0001
1000
0000
1001
0000
0100
0010
,
0001
0010
1000
0100
0001
0100
0001
1000
,
0001
0000
1000
0000
0001
0000
1000
0100
,
0010
0000
1000
0000
0001
1000
0010
1000
,
0100
0000
0010
0000
0100
0001
0010
1000
,
0001
0110
1001
1000
,
0100
0000
0010
1000
0100
0001
0010
0000
,
0001
0000
1000
0001
0100
1000
0010
0000
,
0100
0000
0010
1000
0001
0100
0010
0000
,
0001
0010
0100
0000
0101
0000
0010
0000
,
0100
1000
0010
0100
0001
0000
0010
0000
,
0100
0001
1000
0100
0010
0000
1000
0000
,
0001
1000
0010
0100
0001
0000
1000
0000
,
0011
0000
0110
0000
0001
0000
0010
1000
,
0001
0100
1000
0000
0001
0000
0010
1000
,
0100
0001
0010
0000
0001
0000
1000
0001
,
0010
0100
1000
0000
0001
0100
1000
0000
,
1001
0000
0010
0000
0100
1000
0010
0001
,
0100
0000
0010
0000
0001
0100
1000
0010
,
0001
0000
1000
0000
0100
0010
1000
0100
,
0001
0000
0100
0000
0010
0100
1000
0100
,
0010
0000
0100
0001
0010
1000
0100
0000
,
0001
1000
0010
0100
0001
1000
0010
0100
,
0010
1000
0001
0100
0010
0100
0001
0010
,
0100
0010
0101
0010
,
1100
0000
1000
0100
0010
0100
1000
0010
,
0100
0000
0010
0000
0101
0000
0010
0100
,
0110
0000
0001
0100
1000
0100
0001
0010
,
0100
1000
0110
0001
,
0110
0000
1000
0100
0001
0100
1000
0010
,
0100
0000
0001
0010
0001
0010
0100
1000
,
0100
1000
0001
0100
0010
1000
0100
0010
,
1000
0010
0100
0000
0011
0000
0100
0000
,
1010
0000
1000
0100
0010
0001
0100
0010
,
0001
0010
0100
0000
1010
0000
0100
0010
,
0110
0000
0001
1000
0100
0010
0100
1000
,
0010
0000
0110
0000
0001
1000
0000
1000
,
0001
0000
1000
0010
0100
0001
0010
0100
,
1000
0002
1000
1000
,
1003
0101
0000
0000
;

//--------------- dance-single - ----------------
#NOTES:
     dance-single:
     :
     Hard:
     17:
     0,0,0,0,0:
0000
0000
0000
0000
,
0000
0000
0000
0000
,
0000
0000
0000
0000
,
0000
0000
0000
0000
,
0000
0000
0000
0000
,
0000
0000
0000
0000
,
0001
0100
0010
1000
0010
1000
0100
1000
,
0100
0000
0010
0000
0001
0000
0100
0000
0010
0000
0100
0000
0010
0000
1000
0100
,
0001
0010
0001
0010
0100
1000
0100
1000
,
0010
0000
1000
0000
0010
0000
0100
0000
0010
0000
0100
0000
0001
0010
1000
0100
,
0010
0100
0010
1000
0010
0100
0001
0010
,
0001
0000
0010
0000
0100
0000
0010
0000
0001
0000
1000
0000
0100
0000
0010
1000
,
0001
1000
0001
0010
0001
1000
0100
1000
,
0001
0000
0010
0000
0100
0000
1000
0000
0010
0100
1000
0000
0010
1000
0100
0000
,
0001
1000
0001
0100
0010
1000
0100
0010
,
0001
0000
1000
0000
0010
0000
1000
0000
0001
0000
0100
0000
0010
0000
0100
1000
,
0010
1000
0010
1000
0001
0100
0001
0100
,
0010
0000
0100
0000
0010
0000
1000
0000
0001
0010
0100
0000
0001
1000
0010
0000
,
0100
0110
0000
1001
0000
1100
0000
1000
,
0010
0000
0100
0000
0001
0000
1000
0100
0001
0000
1000
0000
0100
0001
0010
0000
,
0001
0000
0010
0000
0100
0000
0010
0100
0001
0000
1000
0000
0100
0000
1000
0000
,
0100
0000
1000
0001
0010
0000
0100
0000
0001
1000
0010
0000
0001
0000
0010
0000
,
0100
0001
1100
0000
0011
0000
1000
0100
,
0011
0110
2001
0000
,
3001
0010
1001
0000
1010
0000
0100
0010
,
1001
0000
0000
0000
0101
0000
0000
0000
1000
0001
0100
0000
0010
0000
0100
0000
,
1000
0100
0011
0000
1001
0000
0010
0100
,
1001
0101
0210
0000
,
0310
1000
0101
0000
1001
0000
0010
0100
,
1000
0000
0100
0000
0001
0000
0010
0000
1000
0001
0010
0100
1000
0100
0001
1000
,
0010
0000
0100
0000
0010
0000
0100
0000
0001
0000
0010
1000
0001
0000
0010
0000
,
0100
0000
0010
0000
0001
0000
0100
0001
0010
0000
1000
0100
0010
0000
1000
0000
,
0001
0000
1000
0000
0100
0000
0010
0000
0100
0000
0010
1000
0100
0000
1000
0000
,
0010
0000
0100
0000
0001
0000
0010
1000
0001
0000
0100
0010
0001
0000
0100
0000
,
0010
0000
1000
0000
0010
0000
1000
0000
0100
0000
0010
0001
0100
0000
1000
0000
,
0100
0000
1000
0000
0001
0000
0010
1000
0001
0000
1000
0010
0001
0000
0100
0000
,
0010
0000
0100
0000
0001
0000
0100
0000
0001
0000
1000
0001
0100
0000
1000
0000
,
0010
0000
0100
0000
0010
0000
0100
1000
0001
0000
0010
0100
0001
0000
1000
0000
,
0001
0000
0010
0000
0100
0000
0010
0000
0100
0000
1000
0001
0100
0000
0010
0000
,
0001
0000
1000
0000
0010
0000
0100
1000
0010
0000
0100
0000
0001
0000
1000
0000
,
0100
0000
0010
0000
0001
0000
1000
0010
0100
0000
0010
0000
0001
0000
1000
0000
,
0100
0000
1000
0000
0100
0000
0010
0001
0100
0000
1000
0000
0010
0000
0100
0000
,
0010
0000
0100
1000
0010
0000
1000
0000
0001
0000
1000
0010
0001
0000
0100
0000
,
0001
0000
0010
0001
0100
0000
1000
0000
0001
0000
0010
1000
0001
0000
0010
0100
,
0001
0000
1000
0001
0100
0000
1000
0100
0010
0000
0100
0001
0010
0000
1000
0001
,
0100
0000
0010
1000
0100
0001
1000
0010
0100
0001
1000
0100
0010
0001
1000
0100
,
0010
1000
0011
0000
1100
0000
0001
0010
,
1100
0110
1002
0000
,
1003
0100
1001
0000
0101
0000
0010
0100
,
1001
0000
0000
0000
1010
0000
0000
0000
0001
1000
0010
0000
0100
0000
0010
0000
,
0001
0010
1100
0000
1001
0000
0100
0010
,
1001
1010
0120
0000
,
0130
0001
1010
0000
1001
0000
0100
0010
,
0001
0000
0010
0000
1000
0000
0100
0000
0001
1000
0100
0010
0001
0010
1000
0001
,
0100
0010
0100
0010
0100
0010
1000
0100
,
0010
0100
0010
0001
0100
0010
1000
0010
,
0100
0010
0100
0001
0100
0001
0010
0100
,
1000
0010
2000
0000
3001
0000
1001
0000
,
0100
0010
0001
0100
0010
1000
0100
0010
,
0100
1000
0001
1000
0010
0100
0010
0100
,
0010
1000
0100
0010
0001
0010
0001
0010
,
0100
1000
0002
0000
0103
1000
0100
0010
,
0100
0010
0001
1000
0010
0100
0010
1000
,
0010
1000
0100
0010
0001
0010
0100
0010
,
0001
1000
0010
0100
0010
0100
0020
0000
,
1030
0000
0100
1000
0001
0100
0010
1000
,
0100
1000
0010
1000
0100
0010
0001
0010
,
0100
0010
0100
1000
0100
0010
0001
0100
,
0010
0100
0010
1000
0010
0100
0001
0000
,
0010
0100
0001
1000
0010
0100
0001
0100
,
0010
0100
0010
1000
0010
1000
0100
0010
,
0100
0010
0100
1000
0010
1000
0100
0010
,
0100
0010
0100
1000
0001
0100
0010
0100
,
0010
0100
0001
0010
0001
0010
0100
0010
,
0001
0000
1000
0000
0100
0000
0010
0000
0001
0000
0100
0000
0010
0100
1000
0010
,
0100
0001
0010
0100
1000
0000
0010
0000
0001
0000
0100
0000
0001
0000
0010
0000
,
0100
1000
0010
0100
0010
0100
0010
1000
,
0100
0000
0010
0000
0100
0000
2020
3030
0000
0000
2002
3003
0000
0000
2200
3300
,
0000
0000
0220
0330
0000
0000
2002
3003
0000
0000
0220
0330
0000
0000
0001
0000
,
0100
1000
0001
1000
0001
0010
0001
0010
,
0100
0010
0001
0100
0010
0100
0001
0100
,
0001
0000
0010
0000
0100
0000
2020
3030
0000
0000
0220
0330
0000
0000
0100
0000
,
0010
1000
0100
1000
0100
0001
0000
0100
,
0001
0010
0100
0010
0100
0010
0001
0100
,
0001
0010
0001
0100
0010
0100
0001
1000
,
0100
0000
0010
0000
0100
0000
2002
3003
0000
0000
2200
3300
0000
0000
0202
0303
,
0000
0000
0000
0000
0000
0000
2020
0000
0000
3030
0000
0000
0000
0000
0000
0000
0000
0000
1000
0000
0000
0000
0000
0000
0010
0000
0000
0000
0000
0000
1000
0000
0000
0000
0000
0000
0010
0000
0000
0000
0100
0000
0000
0000
1000
0000
0000
0000
,
0010
0000
0000
0000
0100
0000
0000
0000
0001
0000
0000
0000
1000
0000
0000
0000
0000
0000
0010
0000
0000
0000
0000
0000
0100
0000
0000
1000
0000
0000
0010
0000
0000
0000
0000
0000
0001
0000
0000
0000
0000
0000
0100
0000
0000
0000
0000
0000
,
0001
1000
0010
0000
0100
0000
1000
0000
0100
1000
0010
0000
0001
0000
1000
0000
,
0100
0001
1000
0000
0100
0000
0010
1000
0100
0000
0010
1000
0001
0000
1000
0001
,
0100
0000
0000
0000
0000
0000
1000
0000
0000
0100
0000
0000
0001
0000
0000
0000
0000
0000
1000
0000
0000
0000
0000
0000
0001
0000
0000
1000
0000
0000
0010
0000
0000
0000
0000
0000
0100
0000
0000
0000
1000
0000
0000
0000
0100
0000
0000
0000
,
0001
1000
0010
2002
0000
0000
3003
0000
0000
0000
0000
0000
;
