
//----- song ID: hevz -----//
#TITLE:HEAVENZΔ;
#ARTIST:Etarho Respect for NAMCO Sound Team "Master of Cats";
#GENRE:ナムコオリジナル;
#MUSIC:HEAVENZA.ogg;
#BANNER:HEAVENZA.png;
#BACKGROUND:HEAVENZA-bg.png;
#CDTITLE:./CDTitles/NSD A3.png;
#SAMPLESTART:81.047;
#SAMPLELENGTH:15.000;
#SELECTABLE:YES;
#OFFSET:-0.810;
#BPMS:0.000=240.000
,32.000=960.000
,33.000=240.000
,56.000=960.000
,57.000=120.000
,58.000=240.000
,75.000=960.000
,76.000=240.000
,83.000=960.000
,84.000=240.000
,91.000=960.000
,92.000=240.000
,108.000=120.000
,136.000=125.000
,137.000=146.000
,138.000=167.000
,139.000=240.000
,189.000=120.000
,193.000=240.000
,201.000=120.000
,205.000=240.000
,213.000=120.000
,237.000=960.000
,238.000=240.000
,245.000=960.000
,246.000=240.000
,290.000=487.000
,291.000=240.000
,298.000=960.000
,299.000=240.000
,307.000=480.000
,311.000=960.000
,312.000=240.000
,318.000=960.000
,327.000=480.000
,337.000=240.000
,343.000=480.000
,354.000=960.000
,355.000=240.000
,371.000=960.000
,372.000=240.000
,379.000=960.000
,380.000=480.000
,384.000=240.000
,388.000=960.000
,389.000=480.000
,393.000=240.000
,408.000=960.000
,413.000=120.000
;
#DISPLAYBPM:120:240;
#STOPS:32.000=0.185
,56.000=0.189
,75.000=0.188
,83.000=0.187
,91.000=0.185
,237.000=0.188
,245.000=0.188
,298.000=0.187
,308.000=0.043
,309.000=0.039
,310.000=0.043
,311.000=0.187
,318.000=0.066
,319.000=0.123
,320.000=0.123
,321.000=0.127
,322.000=0.125
,323.000=0.123
,324.000=0.123
,325.000=0.123
,326.000=0.123
,334.000=0.089
,335.000=0.088
,336.000=0.081
,354.000=0.437
,371.000=0.188
,379.000=0.188
,381.000=0.124
,383.000=0.125
,388.000=0.192
,390.000=0.124
,392.000=0.125
,412.000=0.191
;
#BGCHANGES:;
#FGCHANGES:;

//--------------- dance-single - ----------------
#NOTES:
     dance-single:
     :
     Beginner:
     5:
     0,0,0,0,0:
0000
0000
0000
0000
,
0000
0000
0000
0000
,
0000
0000
0000
0000
,
0000
0000
0000
0000
,
0000
0000
0000
0000
,
0000
0000
0000
0000
,
0000
0000
0000
0000
,
0000
0000
0000
0000
,
0000
1000
0000
0001
,
0000
0100
0000
0010
,
0000
0100
0000
1000
,
0000
0001
0000
0100
,
0001
0010
1000
0001
,
0010
0100
1000
0001
,
0100
0000
0000
0001
,
0000
1000
0000
0001
,
0000
0100
0000
0010
,
0000
0100
0000
0001
,
0000
1000
0000
0000
,
0001
0000
0100
0000
,
0010
0000
1000
0000
,
0001
0000
0100
0000
,
1000
0000
0001
0000
,
0100
0000
0001
0000
,
0010
0000
0100
0000
,
0001
0000
1000
0000
,
0001
0000
0100
0000
,
1001
0100
0010
2000
,
3001
0200
0310
1000
,
0001
0100
0010
1000
,
0001
0010
0100
0001
,
1000
0002
1003
0020
,
0130
1000
0001
0010
,
0001
1000
0001
0100
,
0020
0000
0000
1030
,
0001
0100
0000
0010
,
1000
0001
0000
0100
,
0010
0100
0000
1000
,
0001
0100
0000
0010
,
0001
1000
0000
0001
,
0000
0100
0000
1000
,
0001
0100
0000
1000
,
0001
0100
0000
0010
,
0001
1000
0000
0001
,
1000
0001
0000
0100
,
0010
0100
0000
1000
,
0001
0100
0000
0010
,
0000
1000
0010
0001
,
0100
1000
0000
0001
,
0000
0100
0000
1000
,
0000
0001
0100
0010
,
0100
1000
0000
0001
,
0000
0100
0000
0010
,
0000
1001
0000
0100
,
0000
0010
0000
0001
,
0000
1000
0000
0001
,
0000
0010
0000
0100
,
0000
1000
0000
0001
,
0000
0010
0100
0010
,
1000
0001
2000
0000
,
0000
0000
0000
0000
,
0000
3000
0002
0000
,
0000
0000
0000
0000
,
0000
0000
0000
0000
1003
0000
0000
0100
,
0000
0001
0010
0000
,
1000
0000
0001
0000
,
0100
0000
0010
0000
,
0100
0000
1000
0001
,
0100
0000
0010
0000
,
0100
0000
0000
0000
0000
1000
0000
0001
,
0100
1000
0001
0100
,
0010
0100
1000
0000
,
0001
0000
0100
0001
,
0000
1000
0000
0100
,
0000
0001
0000
0100
,
0000
1000
0000
0001
,
0000
0010
0000
0200
,
0000
0000
0000
0300
,
0010
0000
1000
0000
,
0001
0000
0200
0000
,
0000
0000
0000
0320
,
0000
0000
0030
1000
,
0000
0010
0000
0100
,
0000
1000
0002
0000
,
0000
0003
1000
0000
,
0010
0000
0100
0000
,
0000
0010
0000
0000
,
0000
0100
0000
0001
,
1000
0000
1001
0010
,
1000
0001
0000
0100
,
0010
0100
0000
1000
,
0001
0100
0000
0010
,
0100
1000
0001
0000
,
1000
0000
0001
0000
,
0100
0010
0100
0000
,
1000
0000
0001
0000
,
0010
0100
1000
0000
,
0100
0001
0000
0100
,
0000
1000
0001
0010
,
0100
1000
0001
0100
,
0010
0100
1000
0001
,
0100
0010
0100
1000
,
0001
0000
0000
0000
,
0000
1001
0000
0000
;

//--------------- dance-single - ----------------
#NOTES:
     dance-single:
     :
     Easy:
     8:
     0,0,0,0,0:
0000
0000
0000
0000
,
0000
0000
0000
0000
,
0000
0000
0000
0000
,
0000
0000
0000
0000
,
0000
0000
0000
0000
,
0000
0000
0000
0000
,
0000
0000
0000
0000
,
0000
0000
0000
0000
,
0000
0100
0010
0001
,
1000
0100
1000
0001
,
1000
0100
0010
0001
,
0100
0001
1000
0001
,
1000
0010
0100
0001
,
1000
0100
0010
0100
,
0020
0130
1000
0001
,
0010
0001
1000
0001
,
0010
0100
1000
0010
,
1000
0100
0010
0100
,
1000
0001
0100
0020
,
0130
0010
1000
0001
,
1000
0001
0010
0002
,
0013
0100
0010
0001
,
1000
0010
0100
0002
,
1003
0100
1000
0100
,
0010
0001
0100
0001
,
0010
0001
0100
0010
,
1000
0010
0100
0001
,
0100
1000
0010
0001
0100
1000
0010
0200
,
1300
0001
0200
0010
1300
0001
0100
1000
,
0010
0001
0200
0320
1030
0100
0010
0001
,
1000
0100
0010
0100
1000
0010
0001
0010
,
0100
1000
0020
0031
0100
0010
0002
1000
,
0103
0010
0001
1000
0010
0100
0001
0010
,
0100
1000
0010
0001
1000
0100
0010
0001
,
2000
0000
0000
3010
,
0001
0100
0010
1000
,
0100
1000
0100
1000
,
0010
0100
0010
1000
,
0010
1000
0001
0100
,
0001
0000
1000
0100
0000
0001
1000
0000
,
0010
1000
0000
0100
0010
0000
0100
0000
,
0010
0100
0010
1000
,
0100
0010
0001
0100
,
0001
1000
0100
1000
,
0010
0100
0010
0100
,
0001
0010
0001
0100
,
0010
0100
0001
0100
,
0001
0000
1010
0000
0100
0000
0010
1000
,
0100
0010
0001
1000
,
0010
1000
0001
0010
,
0001
1010
0001
0010
,
0100
1000
0010
1000
,
0100
1000
0100
0010
,
0001
0000
1001
0000
0010
0001
0100
0000
,
1000
0000
0010
0100
1000
0100
0001
0000
,
1000
0000
0001
0000
0100
1000
0001
0000
,
0100
0000
0010
1000
0100
0001
0010
0000
,
1000
0000
0010
0000
1000
0001
0100
0000
,
0010
1000
0100
0000
0010
0000
0100
0000
,
0010
2001
3100
0001
,
0100
0010
0001
0000
0100
0000
0001
0000
,
0010
2001
3001
0010
,
1000
0000
0010
1000
0100
0000
0001
0000
,
0010
0000
0100
1000
0010
0000
0001
0000
,
0010
0100
0010
0100
,
0001
1000
0010
1000
,
0001
0010
0100
0010
,
0100
0010
0001
1000
,
0100
0010
0100
1000
,
0100
0000
1000
0000
0010
1000
0100
0001
,
0010
1000
0100
0010
,
0001
0100
0001
1000
,
0100
1000
0010
0100
,
0001
0100
0010
1000
,
0010
1000
0200
0310
,
0100
0010
0100
1000
,
0001
0010
0100
2000
,
0000
0000
0000
3000
,
0001
0100
0001
0010
,
0100
1000
0020
0000
,
0000
0000
0000
0000
,
0000
0000
0000
1030
,
0100
0000
1000
0000
,
0001
1000
0100
1000
,
0001
1000
0001
0100
,
0001
1000
0100
0010
,
0000
0010
0000
1000
,
0000
1000
0001
0000
,
0010
0100
1000
0001
,
0001
1000
0001
0010
,
0001
0100
0010
0100
,
0010
0100
0001
1000
,
0010
1000
0100
0010
,
0001
0100
0010
0100
,
0001
1000
0010
0100
,
0001
0000
0001
0000
,
0010
1000
0010
1000
,
0010
0100
0000
0010
,
0000
0010
0100
1000
,
0100
1000
0001
0100
,
0001
0010
0001
0100
,
0010
1000
0001
0100
,
0010
0000
0000
0000
,
0000
1001
0000
0000
;

//--------------- dance-single - ----------------
#NOTES:
     dance-single:
     :
     Medium:
     12:
     0,0,0,0,0:
0000
0000
0000
0000
,
0000
0000
0000
0000
,
0000
0000
0000
0000
,
0000
0000
0000
0000
,
0000
0000
0000
0000
,
0000
0000
0000
0000
,
0000
0000
0000
0000
,
0000
0000
0000
0000
,
0000
1000
0010
0100
,
0010
0010
0100
0001
,
0100
0010
1000
0100
,
0010
0100
1000
0010
,
0100
0001
0010
0001
,
0100
0001
0010
0100
,
1002
0103
0001
1000
,
0010
0000
0100
0000
0001
0000
1000
0001
,
0010
0000
0100
0000
0001
0100
1000
0000
,
0100
0000
1000
0010
0001
0000
0100
0000
,
0001
0100
1000
0000
0100
0000
2000
0000
,
3001
0000
1000
0000
0100
0000
0001
0000
0000
0100
0000
0000
,
0001
0010
1000
0100
0010
0000
0200
0000
,
0301
0010
0000
1000
0100
0000
1000
0000
,
0100
0001
1000
0000
0001
0100
0020
0000
,
0130
1000
0010
0000
0001
0000
0100
1000
,
0010
0000
0100
0000
0001
1000
0010
0000
,
0100
0001
1000
0000
0100
0000
0010
0000
,
0001
0000
0100
0000
1000
0000
0010
0000
0000
0100
0000
0000
,
0100
0010
0100
0010
0100
1000
0010
2000
,
3001
0000
1000
0000
0002
0000
0100
0000
0013
0000
0000
1100
0000
0000
0110
0000
,
0010
0100
0020
0100
0031
1000
0010
1000
,
0010
0000
0100
0000
0010
0000
1000
0000
0110
0000
0000
1001
0000
0000
0110
0000
,
0100
0010
0100
0020
0130
1000
0020
1000
,
0031
0000
1000
0000
0002
0000
0103
0000
0011
0000
0000
1100
0000
0000
0110
0000
,
0010
0100
0010
0100
0001
1000
0010
1000
,
0200
0000
0000
0301
,
0010
0100
1000
0010
,
0100
0010
1000
0001
,
0010
0100
1000
0001
,
0100
0001
0010
0100
,
1000
0000
0001
1000
0000
0001
1000
0000
,
0100
0010
0000
0000
0100
1000
0010
0000
,
0100
0010
1000
0010
,
0100
0001
1000
0010
,
0100
0001
0010
0100
,
1000
0001
0010
0100
,
1000
0001
0010
0001
,
1000
0010
1000
0010
,
0100
0000
0010
0100
1000
0001
0100
0010
,
2000
0000
3001
0010
0000
0100
1000
0000
,
0001
0010
0000
1000
0100
0000
0001
0010
,
0100
0000
1000
0001
0100
0010
0100
0001
,
2000
0000
3001
0010
0000
1000
0100
0000
,
0001
0010
0000
1000
0010
0000
0001
0010
,
0100
0000
0010
0000
0010
0100
0001
0010
,
0100
1000
0010
0100
0010
0100
0001
0000
,
0010
1000
0010
0100
0001
1000
0001
1000
,
0100
1000
0100
0010
0100
0010
0001
0000
,
0100
0000
0010
1000
0100
0010
0100
0010
,
0001
1000
0010
1000
0001
0100
0010
1000
,
0100
0010
2001
0000
3100
0001
0100
0000
,
1000
0100
1000
0000
0100
0010
0100
0000
,
0100
0000
2001
0000
3010
0001
0100
0000
,
1000
0010
0001
0000
1000
0100
0001
0000
,
0001
0010
0100
0000
1000
0001
0000
0001
,
1000
0000
0010
0100
0001
0000
0010
0000
,
0001
0100
0010
1000
,
0010
0100
0001
1000
,
0001
0100
0001
0010
,
0100
0010
0100
1000
,
0001
0100
0010
0100
,
0010
0100
0001
0010
,
0001
0100
0001
0010
,
0100
1000
0100
1000
,
0010
0100
0001
0100
,
0001
1000
0010
0100
,
0001
0100
0010
1000
,
0010
1000
0010
0100
,
0001
0100
0001
1000
,
0010
1000
0010
1000
,
0001
0000
1000
0010
0001
0000
0010
0000
,
0010
0010
0010
0100
,
0100
0100
0100
0001
,
0010
1000
0001
0100
,
0010
0100
0001
0001
,
0001
1000
0100
0001
,
0100
0010
0100
1000
,
0001
1000
0010
0100
,
0001
1000
0010
0100
,
0001
1000
0002
1003
,
0010
1000
0100
1000
,
0010
0001
0100
0000
0001
0000
1000
0000
,
0100
1000
0010
0000
0100
0000
0010
0000
,
0100
0001
1000
0000
0001
0000
0010
0000
,
0100
0000
0010
0000
0001
0000
0100
0000
0000
1000
0000
0000
,
0100
1000
0001
0010
,
0001
0100
0001
0010
,
0100
1000
0010
1000
,
0100
1000
0100
0010
,
0100
0010
0001
0010
,
0100
1000
0010
1000
,
0100
0000
0000
1000
0000
0100
0000
0001
0000
0100
0000
0000
,
0010
0100
0010
1000
,
0220
0000
0000
0000
,
0330
1001
0000
0000
;

//--------------- dance-single - ----------------
#NOTES:
     dance-single:
     :
     Hard:
     17:
     0,0,0,0,0:
0000
0000
0000
0000
,
0000
0000
0000
0000
,
0000
0000
0000
0000
,
0000
0000
0000
0000
,
0000
0000
0000
0000
,
0000
0000
0000
0000
,
0000
0000
0000
0000
,
0000
0000
0000
0000
,
0000
0000
0000
0001
0010
0100
0010
0100
0010
0001
0100
0010
,
1000
0100
1000
0010
0100
0001
1000
0001
0010
0100
0010
0100
,
1000
0010
1000
0010
1000
0001
0010
0100
1000
0010
0100
0010
,
1000
0100
1000
0001
0100
0001
0100
0010
1000
0010
0100
0001
,
0200
0320
0032
0203
,
2300
3002
0023
0230
,
0310
0000
0001
1000
0010
0000
0001
1000
,
0010
0100
0001
0100
0001
0010
0100
0010
,
0100
0000
0010
0000
0001
0000
1000
0000
0010
0000
0100
0001
0010
0000
1000
0001
,
0100
0000
0010
0000
0100
0000
1000
0000
0010
0000
1000
0000
0010
0000
0100
0010
,
0001
0100
1000
0000
0001
0000
0010
0000
0100
0000
1000
0000
0002
0000
0000
0000
,
0103
0000
0000
0000
0000
0000
0000
0000
1000
0000
0000
0000
0000
0000
0000
0000
0010
0000
0000
0000
0000
0000
0000
0000
0001
0000
0000
0000
0000
0000
0100
0000
0000
0000
0000
0000
0010
0000
0000
0100
0000
0000
1000
0000
0000
0000
0000
0000
,
0001
0100
0010
0100
0010
1000
0020
0000
,
1030
0100
0000
0001
0010
0000
1000
0100
,
0010
0100
0001
1000
0001
0100
0020
0000
,
0130
1000
0100
0000
0001
0000
1000
0000
0010
0000
0100
0000
0010
0000
1000
0100
,
0001
0000
0010
0000
0100
0000
1000
0000
0100
0000
0010
1000
0001
0000
0100
1000
,
0010
0001
0100
1000
0010
0001
1000
0100
0010
0100
1000
0010
0001
0000
0010
0000
,
0100
0000
0000
0000
0000
0000
0000
0000
1000
0000
0000
0000
0000
0000
0000
0000
0100
0000
0000
0000
0000
0000
0000
0000
0010
0000
0000
0000
0000
0000
1000
0000
0000
0000
0000
0000
0001
0000
0000
0010
0000
0000
0100
0000
0000
1000
0000
0000
,
0100
0000
1000
0000
0010
1000
0100
0000
0001
0100
1000
0010
0002
0000
0023
0000
,
0230
0000
0310
0001
0200
0000
0000
0000
0301
0010
0100
0000
0001
0010
0100
1000
,
0010
0001
0100
1000
0020
0000
2030
0000
3010
0000
1000
0100
0001
1000
0010
0001
,
0100
0000
0010
0000
1000
0000
0001
0000
0100
0000
0001
1000
0010
0000
0001
0000
0110
0000
0000
0000
1000
0000
0100
0000
0001
0000
0010
0000
0100
0000
0000
0000
,
0010
0000
0100
1000
0020
0000
0230
0000
0301
0000
0010
0001
0200
0000
0000
0000
,
0310
0001
1000
0000
0001
0100
0010
1000
0001
0000
0010
1000
0002
0000
0203
0000
,
0310
0000
0001
0000
0100
0000
1000
0000
0001
0000
0010
0000
0100
0000
1000
0000
0010
0001
0010
0001
0010
0001
0100
0010
0100
0010
0100
1000
0100
1000
0100
1000
,
0100
0000
0000
0000
0000
0000
0010
0100
,
0001
0000
0010
0000
0001
0000
0010
1000
0001
0000
0100
0000
0010
0000
0100
0001
,
0010
1000
0100
0000
0001
0000
1000
0000
0100
0000
0010
0001
0100
0000
1000
0000
,
0001
0000
0100
1000
0010
0000
0100
0000
0001
0000
1000
0000
0001
0000
0100
0000
,
0010
0000
1000
0001
0100
0000
1000
0000
0100
1000
0010
0100
0001
0010
0100
0000
,
0010
1000
0011
0011
0000
1100
1100
0000
,
0110
0000
0011
0000
0000
0000
1100
0000
0110
0000
0000
0000
0001
0010
0100
1000
,
0001
0000
1000
0000
0001
0000
1000
0000
0001
0000
0100
1000
0010
0000
1000
0000
,
0100
0000
1000
0001
0010
0000
0100
0000
0010
0000
1000
0001
0100
0000
0010
0000
,
0001
0000
1000
0100
0001
0000
1000
0000
0010
0001
0100
1000
0010
0000
0100
0000
,
0001
0000
0010
0000
0100
0000
1000
0001
0010
0000
0100
0000
0010
0000
1000
0001
,
0100
0000
0010
0000
0100
1000
0010
0000
0001
0000
0010
0000
0100
0000
1000
0000
,
0010
0000
1000
0000
0010
0000
1000
0100
0001
0000
0100
0000
0010
0000
0100
0000
,
0001
0010
0200
0000
0010
0000
0001
0000
,
1000
0000
0000
0000
0310
0001
0010
0000
1000
0000
0100
0000
0010
0000
0001
0000
,
0100
0010
0001
0000
0100
0000
1000
0000
0001
0000
0100
0000
1000
0000
0100
0001
,
0100
1000
0020
0000
1000
0000
0100
0000
,
0001
0000
0000
0000
0130
0000
0010
1000
0001
0000
1000
0001
0100
0000
1000
0010
,
0001
0000
0100
1000
0010
0000
0100
0001
0010
0000
0100
1000
0001
0000
0010
1000
,
0001
0000
0100
0010
1000
0000
0000
0000
0001
0010
0100
1000
0000
0010
0000
1000
,
0000
0001
0000
1000
0001
0000
0000
1000
0000
0000
0010
0000
0000
1000
0001
0100
,
0010
0000
1000
0000
0010
0000
1000
0000
0100
0001
0100
1000
0000
0001
0000
0100
,
0000
1000
0000
0001
0100
0000
0001
0000
1000
0100
0010
0000
0001
0000
1000
0100
,
1000
0001
0100
0010
1000
0000
0010
0000
0100
0000
1000
0000
0001
0000
1000
0001
,
0010
0000
0100
0000
0001
0000
0000
0000
1000
0000
0000
0100
0010
0100
0010
0000
0010
0000
0000
0010
0001
0010
0001
0000
0010
0000
0000
0010
0100
0010
0100
0000
,
0100
0000
0000
0010
0100
0010
0100
0000
1001
0000
0000
0000
0000
0000
0000
0000
0010
0000
0000
0000
1000
0000
0000
0000
0100
0000
0000
0000
1000
0000
0000
0000
,
0100
0000
0010
0000
0100
0000
1000
0000
0001
0000
1000
0000
0001
0010
1000
0100
,
0010
0001
0100
1000
0100
0000
0000
0000
0100
0000
1000
0000
0001
0000
0010
0001
,
0100
0000
0010
0000
0100
0000
0001
0010
0001
0100
0010
1000
0100
0010
0100
0010
,
0001
0010
0100
1000
0010
1000
0001
1000
0010
0000
0100
0000
0000
0000
1001
0000
,
0001
0000
0100
0000
0010
1000
0100
0000
0010
0000
1000
0000
0010
0000
0100
0000
,
0001
1000
0010
0100
0010
0100
0001
0010
,
0100
1000
0100
1000
0001
0010
0100
0010
,
0100
1000
0010
1000
0010
1000
0001
0010
,
0001
0010
0100
1000
0010
0100
0001
0010
,
0001
1000
0100
0010
0100
0010
0001
0100
,
0001
1000
0001
1000
0100
0010
0100
1000
,
0001
1000
0001
0100
0010
1000
0100
0010
,
0001
0100
0010
0100
0010
0000
0010
0100
,
0001
0010
0100
1000
0001
1000
0010
0100
,
0001
1000
0010
1000
0010
0000
0010
0100
,
0010
1000
0100
1000
0001
1000
0001
0010
,
0100
0010
0001
0100
0001
1000
0010
0000
,
0020
0030
0000
0000
0020
0030
0000
0000
0020
0030
0000
0000
0020
0030
0000
0000
,
0001
0100
0010
0100
0001
1000
0100
0010
,
0001
0000
1000
0000
0010
0000
1000
0000
0020
0030
0000
0000
0020
0030
0000
0000
,
0020
0030
0000
0000
0200
0300
0000
0000
0200
0300
0000
0000
0200
0300
0000
0000
,
2000
3000
0000
0000
0002
0003
0000
0000
2000
3000
0000
0000
0001
0000
0000
0000
,
0100
0000
0001
0100
0010
0000
0010
0100
,
0010
0000
0000
0000
0001
0000
1000
0000
0200
0300
0000
0000
0020
0030
0000
0000
,
0200
0300
0000
0000
0100
0000
1000
0000
0010
0000
0100
0000
0010
0000
1000
0000
,
0001
1000
0001
0010
0001
0010
0100
0000
,
1000
0001
0010
0100
,
1000
0000
0001
0000
0010
1000
0100
1000
,
0100
1000
0010
0100
0010
0000
0100
0010
,
0100
0000
1000
0000
0001
0000
1000
0000
0001
1000
0010
0000
0100
0000
0010
1000
,
0100
0000
0010
0000
0001
0000
1000
0000
0001
0000
0010
0001
0100
0000
1000
0000
,
0010
0000
1000
0000
0100
0000
0010
0000
0001
0010
0100
0000
0001
0000
1000
0000
,
0100
0000
1000
0000
0100
0000
0010
1000
0001
0000
0100
0000
0010
0000
0000
0000
,
0001
0000
0000
0000
1000
0000
0000
0000
0001
0000
0000
0000
0010
0000
0000
0100
0000
0000
0001
0000
0000
0100
0000
0000
,
0001
0000
0010
1000
0001
0000
1000
0000
0010
0100
1000
0000
0010
0000
0000
0000
,
1001
0110
0110
0110
,
0100
0001
0100
0001
1000
0100
1000
0001
,
0100
1100
1100
0110
,
0011
0000
0000
0000
1000
0000
0001
0010
0100
0000
1000
0000
0001
0000
0010
1000
,
0100
0000
0010
1000
0001
0000
0100
1000
0010
0001
0100
1000
0010
0001
1000
0100
,
0010
0000
0000
0100
0000
0000
1000
0000
0000
0010
0000
0000
0001
0000
0000
0000
0000
0000
0010
0000
0000
0000
0000
0000
0100
0000
0000
0000
0000
0000
0000
0000
1000
0000
0000
0000
0000
0000
0000
0000
0100
0000
0000
0000
0000
0000
0000
0000
,
0010
0000
0000
0000
0000
0000
1000
0000
0000
0000
0000
0000
0001
0000
0000
0010
0000
0000
0100
0000
0000
1000
0000
0000
0100
0000
0000
0000
0000
0000
0000
0000
0010
0000
0000
0000
0000
0000
0000
0000
0001
0000
0000
0000
0000
0000
0000
0000
,
0200
0000
0000
0000
,
0300
2002
3003
0000
;
