
//----- song ID: gocs -----//
#TITLE:Gochisosama!;
#ARTIST:Connexio;
#GENRE:SONIC LEAGUER'S PRIVILEGE;
#MUSIC:Gochisosama!.ogg;
#BANNER:Gochisosama!.png;
#BACKGROUND:Gochisosama!-bg.png;
#CDTITLE:./CDTitles/NSD A3.png;
#SAMPLESTART:28.792;
#SAMPLELENGTH:15.000;
#SELECTABLE:YES;
#OFFSET:0.000;
#BPMS:0.000=150.000;
#STOPS:;
#BGCHANGES:;
#FGCHANGES:;

//--------------- dance-single - ----------------
#NOTES:
     dance-single:
     :
     Beginner:
     5:
     0,0,0,0,0:
0000
0000
0000
0000
,
0000
0000
0000
0000
,
0000
0000
0000
0000
,
0000
0000
0000
0000
,
0000
0000
0000
0000
,
0000
0000
0000
0000
,
1000
0000
0000
0000
,
0001
0000
0000
0000
,
0010
0000
0100
0000
,
1000
0100
0010
0000
,
1001
0000
0000
0000
,
0001
0000
0000
0000
,
0010
0000
0000
0000
,
1000
0000
0000
0000
,
0001
0000
0010
0000
,
0100
0000
1000
0000
,
1000
0100
0010
0001
,
2002
0000
0000
3003
,
1001
0000
0001
0010
,
0000
1000
0010
0001
,
1000
0000
0001
0010
,
0000
1000
0001
0100
,
0010
0000
1000
0001
,
0100
0000
0010
1000
,
0001
0000
0100
0000
,
0010
1000
0001
0010
,
1000
0100
0010
0000
0001
0010
1000
0000
,
0010
0000
0100
0000
,
1000
0000
0001
0010
,
0100
0000
1000
0001
,
0100
0000
0010
0000
,
1000
0000
0001
0000
,
0010
0000
0100
1000
,
0001
0000
0100
0000
,
0010
0000
0000
0000
,
1000
0000
0000
0000
,
0001
0000
0000
0000
,
0010
0000
0000
0000
,
0100
0000
0000
0000
,
1000
0000
0000
0000
,
0001
0000
0010
0000
,
0100
0000
0000
0000
,
1000
0000
0000
0000
,
0001
0000
0000
0000
,
0010
0000
0000
0000
,
0100
0000
0000
0000
,
0001
0000
1000
0000
,
0001
0000
0010
0000
,
1000
0100
0010
0001
,
2002
0000
3003
0000
,
0110
1000
0001
0000
,
0100
0000
0010
0000
,
0010
0001
0010
0000
,
1000
0000
0001
0000
,
0010
0000
0100
0000
,
1000
0000
0001
0000
,
0010
0000
0100
0010
,
0001
0000
1000
0000
,
1001
0000
0100
0010
,
0001
0000
0010
0000
,
0100
0000
1000
0001
,
0000
0010
0100
1000
,
0001
0000
0000
0000
,
0000
0000
0000
0000
,
1000
0000
0001
0000
,
0010
0000
0100
0000
,
1001
0000
0000
0000
,
0100
0000
0010
0000
,
0100
0000
0000
0000
,
1000
0000
0001
0000
,
0110
0000
0000
0000
,
0000
0000
0000
0000
,
0001
0000
0000
0000
,
0000
0000
0000
0000
,
1000
0000
0000
0000
,
0010
0000
0000
0000
,
0001
0000
0010
0000
,
0100
0000
0000
0000
,
1001
0000
0000
0000
;

//--------------- dance-single - ----------------
#NOTES:
     dance-single:
     :
     Easy:
     9:
     0,0,0,0,0:
0000
0000
0000
0000
,
0000
0000
0000
0000
,
0000
0000
0000
0000
,
0000
0000
0000
0000
,
0000
0000
0000
0000
,
0000
0000
0000
0000
,
1000
0001
0010
0100
,
0000
1000
0000
0000
,
0001
0010
0100
1000
,
0001
0000
0010
0000
,
1001
0100
0010
0001
,
0000
0010
0100
1000
,
0001
1000
0001
0100
,
0000
0010
0100
0000
,
1000
0001
0100
0010
,
1000
0001
0010
0100
,
1000
0001
0100
0000
0010
1000
0001
0000
,
2002
0000
0000
0000
0000
3003
0000
0000
,
0010
1000
0001
0000
0100
0000
0000
0010
,
0000
0100
1000
0001
,
0100
0000
0000
0000
0010
0100
0000
1000
,
0000
0001
0100
0000
0010
0000
0100
0000
,
1000
0000
0001
0000
0010
0100
1000
0001
,
0000
0000
0010
0000
0000
0100
1000
0001
,
0001
0000
0000
0000
0100
1000
0001
0010
,
0000
0100
0010
0000
1000
0000
0001
0000
,
0200
0000
0000
0000
0310
1000
0001
0000
,
0100
0000
0010
0100
0000
1000
0001
0000
,
0100
0000
0000
0010
1000
0001
0010
0100
,
0000
1000
0001
0000
0100
0000
0010
0000
,
0100
0000
0000
0000
1000
0001
0100
0010
,
0000
0100
1000
0000
0001
0000
0100
0000
,
0010
0000
0000
0000
1000
0001
0100
0010
,
0000
0100
1000
0000
0001
0000
0100
0000
,
0010
0000
1000
0001
,
0100
0000
0010
0000
,
0100
0001
1000
0000
,
0010
0000
0100
1000
,
0001
0000
0100
0010
,
0001
0000
1000
0000
,
0001
0010
0100
1000
,
0002
0000
0000
0000
,
1003
0000
0010
0100
,
1000
0000
0001
0010
,
0100
0001
1000
0000
,
0001
0010
0100
1000
,
0001
0100
0010
1000
,
0001
0100
0010
1000
,
0001
0010
0100
0000
1000
0001
0010
0100
,
2002
0000
0000
3003
,
0010
0100
1000
0000
0001
0010
0100
0000
,
1000
0001
0100
0000
0010
0000
0100
0000
,
0010
0000
0001
0010
0100
0000
1000
0001
,
0100
0000
0010
0100
0000
1000
0001
0000
,
0010
0000
0100
0000
1000
0001
0010
0100
,
0000
1000
0001
0100
0010
0000
0110
0000
,
1000
0000
0001
0010
0100
0000
1000
0001
,
0100
0010
0100
1000
,
0001
0000
0000
0100
0010
1000
0001
0010
,
0000
0100
0010
0000
0100
1000
0000
0001
,
0100
0000
0000
0000
0010
0100
0000
1000
,
0001
0000
0100
0000
0010
0100
0000
0000
,
1001
0000
0000
0000
,
0001
0000
0000
0010
,
0100
0000
1000
0000
0001
0100
0010
0100
,
0000
1000
0001
0000
0100
0000
0010
0000
,
0100
0000
1000
0001
0100
0010
0001
0010
,
0000
0100
1000
0000
0001
0010
0100
1000
,
0001
0000
0010
0000
0100
1000
0001
0010
,
0000
0100
0010
0000
0001
0010
0100
1000
,
0001
0000
0010
0000
,
0100
0000
0000
1000
0001
0000
0100
0000
,
0010
0000
0000
0000
1000
0000
0000
0001
,
0000
0000
0000
0100
1000
0000
0001
0100
,
1000
0000
0000
0000
0001
0000
0000
0010
,
0000
0000
0100
0010
,
1000
0000
0001
0000
,
0010
0000
0100
1000
,
1001
0000
0000
0000
;

//--------------- dance-single - ----------------
#NOTES:
     dance-single:
     :
     Medium:
     12:
     0,0,0,0,0:
0000
0000
0000
0000
,
0000
0000
0000
0000
,
0000
0000
0000
0000
,
0000
0000
0000
0000
,
0000
0000
0000
0000
,
0000
0000
0000
0000
,
1000
0000
0010
0100
1000
0001
0010
0100
,
0000
0001
0000
0100
1000
0000
0001
0000
,
0100
0000
0010
0100
1000
0001
0010
0100
,
0000
0001
0010
0000
0100
0000
0010
0000
,
1001
0100
0010
0001
,
0010
0100
0001
0010
,
0100
1000
0001
0100
,
0010
0100
1000
0001
,
0010
0100
1000
0001
0010
0100
0001
0010
,
0100
1000
0001
0010
0100
0001
0010
0100
,
0001
0010
0010
1000
0001
0010
0100
1000
,
2002
0000
0000
3003
,
0110
0000
0100
1000
0100
0001
1000
0001
,
0000
0100
1000
0001
0010
0100
1000
0001
,
0010
0000
0100
1000
0010
0001
0010
0100
,
0000
0001
0010
0100
1000
0001
0120
0000
,
0130
0000
1000
0001
0010
0100
1000
0001
,
0000
0010
0100
0001
0010
0000
0100
0000
,
1000
0001
0100
0010
0001
1000
0010
0100
,
0000
1000
0001
0100
0010
0100
1000
0001
,
0020
0000
0000
0000
0130
0001
1000
0010
,
0000
0100
1000
0001
0010
0100
1000
0001
,
0010
0000
0100
1000
0001
0010
0100
0010
,
0000
1000
0001
0010
0100
1000
0002
0000
,
0013
0000
1100
0000
0001
0010
0100
0010
,
0000
0100
1000
0001
0010
0000
0100
0000
,
0101
0000
0110
0000
1000
0001
0010
0110
,
0000
0010
0100
0000
1000
0001
0100
1000
,
0001
0010
0100
0010
,
1000
0001
0100
0010
,
1000
0001
0100
0010
,
0100
1000
0001
0010
,
2000
0100
0010
3001
,
0002
0010
0100
1003
,
1000
0001
0010
0000
0100
1000
0001
0010
,
0200
0000
0000
0000
,
0310
0010
1000
0001
,
0100
0010
1000
0001
,
0100
0010
0001
0010
,
0100
1000
0001
0100
,
0010
1000
0001
0100
,
0010
1000
0001
0010
,
0100
1000
0001
0010
0100
1000
0001
0010
,
0200
0000
0000
0000
,
0310
0000
0010
1000
0001
0100
0010
0100
,
0000
1000
0001
0010
0100
0000
0001
0000
,
0010
0100
1000
0001
0010
0000
0100
0000
,
0010
1000
0001
0000
0010
0000
0101
0000
,
0010
0000
1000
0001
0010
0100
0010
0001
,
0000
1000
0010
0100
0000
1000
0001
0100
,
0010
0000
0100
0000
0001
0010
0100
1000
,
0000
0001
0010
0100
1000
0001
0010
0100
,
0010
0000
1000
0000
0001
0010
0100
0001
,
0000
0010
1000
0001
0010
0100
0001
1000
,
0011
0000
0110
0000
0010
0100
1000
0001
,
0000
0010
0100
1000
1001
0000
0110
0000
,
0002
0000
0000
0000
,
2003
0000
0000
3001
,
0010
0000
0100
0000
1000
0001
0010
0100
,
0000
0010
1000
0001
0010
0100
2000
0000
,
3001
0000
0010
0100
1000
0001
0010
0100
,
0000
0010
1000
0001
0100
0000
0010
0000
,
0001
0010
0100
0000
1000
0001
0010
0100
,
1000
0000
0001
0100
0001
0010
0100
1000
,
0002
0000
0000
0000
,
2003
0000
0000
0000
,
3020
0000
0000
0000
,
0230
0000
0000
0000
,
0302
0000
0000
0000
,
2003
0000
0000
0000
,
3100
0000
0010
0000
,
0100
0001
0010
0000
,
1001
0000
0000
0000
;

//--------------- dance-single - ----------------
#NOTES:
     dance-single:
     :
     Hard:
     16:
     0,0,0,0,0:
0000
0000
0000
0000
,
0000
0000
0000
0000
,
0000
0000
0000
0000
,
0000
0000
0000
0000
,
0000
0000
0000
0000
,
0000
0000
0000
0000
,
1000
0000
0001
0010
0100
1000
0001
0200
,
0000
1300
0001
0100
0020
0000
0130
0000
,
0100
1000
0100
0010
0001
0100
1000
0100
,
0010
0000
0100
0000
0010
0000
0000
0000
0001
0000
0010
0000
0001
0000
0010
0001
,
1000
0100
0001
0010
1000
0001
0100
1000
,
0001
0010
0100
1000
0001
0010
0100
0001
,
0010
0100
1000
0001
0010
0100
0001
1000
,
0010
0001
0100
0001
1000
0010
0100
1000
,
0100
1000
0100
0010
1000
0001
0100
1000
,
0100
0010
0001
0100
1000
0100
1000
0001
,
0010
0001
0010
0001
0010
0001
0010
0001
0010
0001
0010
0001
0010
0001
0010
0001
,
0010
0000
0100
0000
0000
0000
1000
0000
0010
0000
0000
0000
0010
0000
0100
0000
0001
0000
0010
0000
0001
1000
0100
0010
0001
0000
0000
0000
0100
0000
0000
0000
,
1001
0000
0000
0000
0010
0000
0100
0001
1000
0000
0001
0000
0100
0000
1000
0000
,
0010
0001
0100
0000
1000
0000
0010
0000
0001
1000
0000
0001
0010
0000
0100
0000
,
1000
0001
0000
0010
1000
0000
0001
0000
1000
0000
0100
1000
0010
0000
0001
1000
,
0010
0001
0000
0010
0000
0100
1000
0000
0001
0000
1000
0100
0002
0000
0000
0000
,
1003
0000
0100
0000
1000
0000
0100
0010
0001
0100
0000
1000
0010
0000
0000
0001
,
0010
0000
1000
0000
0100
0000
0001
0010
1000
0000
0001
0100
1000
0000
0100
0000
,
0020
0000
0130
0010
1001
0010
0100
2001
,
0000
0000
0000
0000
3001
0000
0010
0000
0100
1000
0000
0001
1000
0000
0010
0000
,
1000
0001
1000
0010
0001
1000
0001
0100
0001
0000
0010
0000
0100
0000
0000
1000
,
0000
0010
1000
0100
0001
0000
0100
0000
0010
0000
0100
0000
0001
0100
0000
1000
,
0001
0010
0000
0100
0001
0000
0001
0000
0010
0000
0100
0001
1000
0000
0100
0010
,
0000
0100
0000
0001
1000
0000
1000
0000
0010
0000
0100
0000
0002
0000
0000
0000
,
0013
0100
0000
1000
0001
0000
0001
0000
1000
0000
0100
0000
0010
0000
1000
0001
,
0000
0100
0000
0010
1000
0000
0010
0000
0100
0000
0010
0000
1000
0000
0010
0001
,
0000
0100
0000
0010
1000
0000
1000
0000
0100
0000
0010
0000
0001
1000
0000
0100
,
0000
0010
0000
1000
0001
0000
0001
0000
0100
0000
0010
0001
1000
0000
0000
0100
,
0020
0000
0000
0000
0031
0000
1000
0000
0001
0000
0100
0000
1000
0000
0100
0001
,
0000
0100
0000
0010
1000
0000
1000
0000
0010
0000
0100
0000
0001
0000
1000
0100
,
0010
0000
0100
0000
0001
0000
0001
0000
0100
0000
1000
0000
0100
0000
0010
0001
,
0000
0100
0000
0010
1000
0000
1000
0000
0001
0000
0010
0000
0100
0000
0010
0100
,
0001
0000
0010
0000
0100
0000
0100
0010
1000
0000
0001
0000
0010
0000
0100
0000
,
1000
0010
0000
0001
0100
0000
1000
0001
0200
0000
0000
0000
0310
0000
0000
0000
,
1001
0000
0100
1000
0001
0100
0010
1000
,
0002
0000
0000
0000
,
1003
0100
0001
0100
0010
0010
0100
0010
,
1000
0100
0010
0010
0001
0010
0010
0000
,
1000
0100
0010
0001
0010
0100
1000
0010
,
0100
0000
0010
0000
0010
0000
0000
0000
0100
0000
1000
0000
0100
0000
1000
0100
,
0000
1000
0100
0010
0001
1000
0001
0010
,
0100
0010
0001
1000
0010
0100
1000
0010
,
0001
1000
0001
1000
0001
1000
0001
1000
0001
1000
0001
1000
0001
1000
0001
1000
,
0001
0000
0010
0000
0000
0000
1000
0000
0001
0000
0000
0000
1000
0000
0001
0000
0010
0000
0001
0000
1000
0100
0010
0001
1000
0000
0000
0000
0100
0000
0000
0000
,
1001
0000
0000
0000
0100
0000
0010
1000
0001
0000
1000
0000
0010
0000
0001
0000
,
0100
1000
0010
0000
0001
0000
0100
0000
1000
0001
0000
1000
0100
0000
0010
0000
,
0001
1000
0000
0100
0001
0000
1000
0000
0001
0000
0010
0001
0100
0000
1000
0001
,
0100
1000
0000
0100
0000
0010
0001
0000
1000
0000
0001
0010
2000
0000
0000
0000
,
3001
0000
0010
0000
0001
0000
0010
0100
1000
0010
0000
0001
0100
0000
0000
1000
,
0100
0000
0001
0000
0010
0000
1000
0100
0001
0000
1000
0010
0001
0000
0010
0000
,
0200
0000
0310
0100
1001
0100
0010
1002
,
0000
0000
0000
0000
1003
0000
0100
0000
0010
0001
0000
1000
0001
0000
0100
0000
,
0001
1000
0001
0100
1000
0001
1000
0010
1000
0000
0100
0000
0010
0000
0000
0001
,
0000
0100
0001
0010
1000
0000
0010
0000
0100
0000
0010
0000
1000
0010
0000
0001
,
1000
0100
0000
0010
1000
0000
1000
0000
0100
0000
0010
1000
0001
0000
0010
0100
,
0000
0010
0000
1000
0001
0000
0001
0000
0100
0000
0010
0000
2000
0000
0000
0000
,
3100
0010
0000
0001
1000
0000
1000
0000
0001
0000
0010
0000
0100
0000
0001
1000
,
0000
0010
0000
0100
0001
0000
0100
0000
0010
0000
0100
0000
0001
0000
0100
1000
,
0000
0010
0000
0100
0001
0000
0001
0000
0010
0000
0100
0000
1000
0001
0000
0010
,
0000
0100
0000
0001
1000
0000
1000
0000
0010
0000
0100
1000
0002
0000
0000
0000
,
1003
0000
0100
0000
1000
0000
0100
0010
0001
0100
0000
1000
0010
0000
0000
0001
,
0010
0000
1000
0000
0100
0000
0001
0010
1000
0000
0001
0100
1000
0000
0100
0000
,
0020
0000
0130
0010
1001
0010
0100
2001
,
0000
0000
0000
0000
3001
0000
0010
0000
0100
1000
0000
0001
1000
0000
0010
0000
,
0100
0000
1000
0001
0100
1000
0001
0010
,
0000
0100
0000
0001
1000
0000
0001
0000
,
0100
0000
0010
1000
0001
0100
0010
0001
,
0000
0010
0000
0100
0000
1000
0001
0010
,
0100
0000
1000
0001
0010
0100
0001
0010
,
0000
0100
1000
0000
0001
0000
0010
0000
,
0100
0000
1000
0001
0010
0100
1000
0001
,
1000
0010
0100
0000
1000
0000
0001
0000
,
2002
0000
0000
0000
,
3003
0000
0000
0000
;
