
//----- song ID: gigo -----//
#VERSION:0.83;
#TITLE:GiGaGoN;
#ARTIST:NAMCO Sound Team "SCaLL";
#GENRE:ナムコオリジナル;
#MUSIC:GiGaGoN.ogg;
#BANNER:GiGaGoN.png;
#BACKGROUND:GiGaGoN-bg.png;
#CDTITLE:./CDTitles/NSD A3.png;
#SAMPLESTART:83.994;
#SAMPLELENGTH:15.000;
#SELECTABLE:YES;
#OFFSET:0.000;
#BPMS:0.000=200.000;
#STOPS:236.000=0.225
,236.250=0.225
,237.500=0.150
;
#BGCHANGES:;
#FGCHANGES:;

//--------------- dance-single - ----------------
#NOTEDATA:;
#STEPSTYPE:dance-single;
#DESCRIPTION:;
#DIFFICULTY:Beginner;
#METER:3;
#RADARVALUES:0,0,0,0,0;
#NOTES:
0000
0000
0000
0000
,
0000
0000
0000
0000
,
0000
0000
0000
0000
,
1000
0001
0100
0000
,
0010
0000
0100
0000
,
1000
0001
0100
0000
,
0010
0000
0100
0000
,
0001
0100
0001
0000
,
0100
0000
0010
0000
,
0001
1000
0001
0000
,
0100
0000
0100
0000
,
0001
1000
0001
0000
,
0100
0000
0001
0000
,
0100
1000
0001
0000
,
0000
1000
0000
0000
0010
0000
0000
0000
,
0001
0100
1000
0000
,
0100
0000
0010
0000
,
0001
1000
0001
0000
,
0100
0000
0100
0000
,
0000
0001
0000
1000
,
0000
0001
0000
0100
,
0000
0010
0000
0100
,
0000
0001
0000
1000
,
0001
0100
1000
0010
,
0000
0001
1000
0001
,
0000
0100
0000
0100
,
0000
0010
0000
0010
,
0100
1000
0001
0000
,
0100
0010
0000
0000
,
1000
0001
0100
0000
,
0010
0100
0000
0000
,
0001
1000
0001
0000
,
0100
0010
0100
0000
,
1000
0001
0100
0000
,
0010
0100
1000
0000
,
0002
0000
0000
0000
,
1003
0000
0001
0000
,
0100
0000
0010
0000
,
1000
0000
0001
0000
,
0100
0000
0100
0100
,
0001
0000
0100
0000
,
1000
0000
0001
0000
,
0010
0000
0100
0000
,
1000
0000
0001
0000
,
0100
0000
1000
0000
,
0001
0000
0010
0000
,
0100
0000
1000
0000
,
0001
0000
0100
0000
,
0010
0000
0100
0000
,
1000
0000
0001
0000
,
0200
0000
0000
0000
,
0310
0000
0000
0000
,
1001
0000
0000
0000
,
0100
0000
0000
0000
,
0010
0000
0000
0000
,
0001
1000
0001
0000
,
0100
0000
0000
0000
,
0010
0000
0000
0000
,
0100
0000
0000
0000
,
1000
0000
0002
0000
,
0000
0000
0003
0000
,
0000
0000
2000
0000
,
0000
0000
0000
3000
,
0000
0000
0010
0000
,
0000
0000
0010
0000
,
0000
0000
0100
0000
,
0000
0000
0100
0000
,
0010
0000
1001
0000
,
0000
0000
0000
0000
,
0000
0000
1000
0000
,
0001
0000
0100
0000
,
0010
0000
0001
0000
,
0100
0000
0010
0000
,
1000
0000
0001
0000
,
0100
0000
0001
0000
,
0100
0000
0010
0000
,
1000
0000
0001
0000
,
0100
0010
1000
0000
,
0001
0000
0100
0000
,
0010
0000
1000
0000
,
0001
0000
0100
0000
,
0001
0010
0100
0000
,
1000
0000
0001
0000
,
0100
0000
0010
0000
,
1000
0000
0001
0100
,
0010
1000
0001
0000
,
0000
0000
1000
0000
,
0000
0000
0001
0000
,
0000
0000
0100
0000
,
0000
0000
0002
0000
,
0000
0003
2000
0000
,
0000
3000
0020
0000
,
0000
0000
0200
0000
,
0000
0000
0000
0330
,
0000
1001
0000
0000
;

//--------------- dance-single - ----------------
#NOTEDATA:;
#STEPSTYPE:dance-single;
#DESCRIPTION:;
#DIFFICULTY:Easy;
#METER:7;
#RADARVALUES:0,0,0,0,0;
#NOTES:
0000
0000
0000
0000
,
0000
0000
0000
0000
,
0000
0000
0000
0000
,
0001
0000
1000
0100
0010
0000
0001
0000
,
0100
1000
0010
0100
,
0001
0100
1000
0000
0010
0000
0001
0000
,
0100
1000
0010
0100
,
1001
0000
0010
0100
1000
0000
0001
0000
,
0010
1000
0100
0001
,
1000
0100
0001
0000
1000
0000
0100
0000
,
0010
0000
1000
0000
0100
0100
0001
0000
,
1000
0000
0001
0010
1000
0000
0100
0000
,
0010
0001
1000
0100
,
0010
0100
0001
0000
1000
0000
0100
0010
,
0000
0001
0000
0010
0000
0100
0000
0001
,
1000
0000
0010
0100
0001
0000
1000
0000
,
0010
0001
0100
0010
,
1000
0010
0001
0000
1000
0000
0100
0000
,
0010
0000
1000
0000
0010
0001
0010
0001
,
0010
0000
1010
0000
0100
0000
0001
0010
,
0100
1000
0001
0010
,
1000
0000
0100
0000
1000
0000
0010
0100
,
0001
1000
0010
0001
,
1001
0000
0010
0000
0001
1000
0100
0000
,
0010
1000
0001
1000
,
0100
0000
0010
0000
1000
0100
0010
0000
,
0001
0100
1000
0100
,
0010
0100
0001
0000
2000
0000
0000
0000
,
3010
0100
0101
1010
,
0001
0000
1000
0000
0010
1000
0001
0000
,
0100
0000
0010
0000
0100
0010
0001
0000
,
1000
0000
0001
0000
1000
0001
0100
0000
,
0010
0100
0010
1000
,
0001
0000
1000
0100
0010
0000
0001
0000
,
0100
0000
0010
0000
0001
0010
0100
0000
,
2000
0000
0000
0000
,
3001
0000
0010
0000
1000
0001
0000
0000
,
0010
0000
1000
0000
0100
0010
0000
0000
,
0001
0000
0010
0000
1000
0001
0000
0000
,
0010
0000
1000
0000
0100
0100
0001
0000
,
1000
0000
0100
0000
0010
1000
0000
0000
,
0001
0000
0100
0000
1000
0001
0000
0000
,
0100
0000
1000
0000
0010
1000
0000
0000
,
0001
0100
0000
0001
1000
0000
0100
0000
,
0010
1000
0001
0100
,
1000
0001
0100
1000
,
0010
0100
0001
0010
,
1000
0001
0010
1000
,
0100
0001
0010
0100
,
0001
0010
1000
0100
,
0020
0100
0100
0100
,
0130
0000
0000
0000
,
1001
0100
1000
0001
,
0010
1000
0001
0100
,
0010
0100
0001
0100
,
1000
0001
1000
0100
,
0010
1000
0001
0100
,
0010
1000
0001
0100
,
0010
0100
1000
0010
,
0002
0000
0000
0003
2000
0000
0010
0000
,
3100
0000
0001
1000
,
0001
0000
0002
0100
,
1003
0000
0010
0001
,
1000
0000
0100
0001
,
1000
0000
0100
0001
,
0100
0000
0010
1000
,
0001
0000
0010
0001
,
0100
0010
2002
0000
,
0000
0000
3003
0000
,
0100
0100
0001
0000
1001
0000
0010
0000
,
1000
0001
0100
0000
0010
0000
0001
0000
,
0100
0001
0010
0000
1000
0000
0100
0000
,
0010
1000
0001
0000
0100
0000
1000
0000
,
0001
0010
0100
0000
1000
0000
0100
0000
,
0010
1000
0001
0000
1000
0000
0100
0000
,
0010
0001
1000
0000
0100
0000
0010
0000
,
0001
0010
0100
0000
1000
0000
0100
0000
,
0010
1000
0100
0000
0001
0000
0010
0000
,
1000
0001
0100
0000
0010
0000
0001
0000
,
0100
0010
1000
0000
0001
0000
0100
0000
,
1000
0100
0001
0000
0010
0000
0100
0000
,
1000
0001
0100
0000
0010
0000
1000
0000
,
0001
0010
0100
0000
1000
0000
0001
0000
,
0010
0001
1000
0000
0100
0000
0010
0000
,
0001
1000
0100
0000
1000
0001
0010
0000
,
0100
1000
0001
0000
1000
0000
0010
0100
,
0000
0000
1000
0000
0001
0000
0010
0100
,
0000
0001
0010
0000
1000
0000
0010
0100
,
0000
1000
0000
0000
0010
0000
0000
0000
,
0010
0100
2000
0100
,
0010
3001
0002
0010
,
0100
0000
1003
0000
0100
0001
1000
0000
,
0001
0010
0100
0000
0220
0000
0000
0000
,
0000
0000
0000
0000
0330
0000
0000
1001
,
0000
0000
0100
1001
0000
0000
0000
0000
;

//--------------- dance-single - ----------------
#NOTEDATA:;
#STEPSTYPE:dance-single;
#DESCRIPTION:;
#DIFFICULTY:Medium;
#METER:13;
#RADARVALUES:0,0,0,0,0;
#NOTES:
0000
0000
0000
0000
,
0000
0000
0000
0000
,
0000
0000
0000
0000
,
1001
0000
0010
0100
1000
0001
0010
0100
,
0000
0001
0000
0010
1000
0000
0010
0000
,
1000
0100
0001
1000
0010
0001
0100
0010
,
0000
1000
0000
0001
0100
1000
0010
0000
,
0100
0000
0001
0010
0100
0010
0000
0001
,
0000
1000
0001
0100
0010
0001
0100
0000
,
0010
1000
0100
0001
0010
0100
0001
0010
,
1000
0010
0001
0010
0100
0100
0001
0000
,
0110
0000
0010
0001
1000
0010
0000
0100
,
0000
0010
0000
0001
1000
0001
0100
0010
,
1000
0100
0010
0001
1000
0100
0010
0100
,
0000
1000
0001
0010
0100
1000
0001
1000
,
0010
0000
0100
1000
0010
0001
0000
0100
,
0000
0010
0000
0001
1000
0001
0100
0001
,
1000
0001
0100
0010
1000
0100
0001
1000
,
0010
0000
0001
0000
0010
1000
0001
0100
,
0020
0000
0130
1000
0001
0010
0100
0000
,
0010
0100
1000
0001
0010
0000
0100
0000
,
0001
0010
0100
1000
0010
0001
0100
0000
,
0010
0100
1000
0010
0001
0000
0010
1000
,
0100
0000
0010
0000
0001
1000
0010
0000
,
0100
0010
1000
0000
0001
0100
0010
0000
,
0001
0100
1000
0010
0001
0100
0010
0000
,
0100
0010
1000
0100
0010
0000
1000
0100
,
0010
0000
0000
0000
1000
0000
0000
0000
0100
0000
1000
0100
0010
0000
0001
0000
,
1000
0001
0100
0010
0202
0303
2002
3003
,
0100
0000
0010
0000
1000
0000
0001
0000
0100
1000
0100
0000
0001
0000
0010
0000
,
0100
1000
0001
0100
0010
1000
0100
0001
,
0100
1000
0001
0010
0100
0000
0010
0100
,
1000
0001
0010
1000
0100
1000
0001
0010
,
0100
1000
0010
0001
0100
0000
0010
0100
,
1000
0010
0001
0000
0010
1000
0100
0000
,
2000
0000
0002
3003
,
0001
0000
1000
0000
0100
0100
0001
0000
,
1000
0001
0010
0000
0100
0100
0001
0000
,
1000
0001
0010
1000
0100
0100
0001
0000
,
0010
0001
0000
0000
0010
0100
0000
0000
0100
0000
0100
0000
0001
0000
0000
0000
,
1000
0000
0001
0000
0100
0100
0001
0000
,
0100
1000
0001
0000
0100
0100
0001
0000
,
1000
0001
0100
0010
0100
0100
0001
0000
,
0110
0000
0000
1001
0000
0000
0110
0000
,
0100
1000
0001
1000
,
0010
1000
0001
0010
,
0100
1000
0010
0100
,
0010
0100
0001
1000
,
0010
0100
1000
0001
,
0100
0010
1000
0001
,
0100
0010
1000
0001
0010
0100
1000
0001
,
0010
0000
1000
0000
0100
0100
0001
0000
,
1001
0000
0000
0010
0000
0000
0001
0000
1000
0100
0000
0000
,
0001
0000
0000
0010
0000
0000
0001
0000
1000
0010
0000
0000
,
0100
0000
0000
1000
0000
0000
0001
0000
0100
0010
0000
0000
,
0001
0000
0000
1000
0000
0000
0100
0000
0001
1000
0000
0000
,
0001
0000
0000
0100
0000
0000
0010
0000
1000
0100
0000
0000
,
0001
0000
0000
1000
0000
0000
0100
0000
0001
1000
0000
0000
,
0100
0000
0001
0010
0000
0000
0100
0000
0010
1000
0000
0000
,
0001
1000
0100
0000
0100
0000
0001
0000
0100
0000
0001
0000
1000
0000
0000
0000
,
0010
0000
1000
0000
0100
0001
1000
0000
,
0010
0000
0100
1000
0010
0000
0100
0000
,
0010
0001
1000
0000
0001
0000
0100
0000
,
0001
0010
1000
0000
0100
0000
1000
0000
,
0100
0001
1000
0000
0010
0000
0100
0000
,
0001
0010
0100
0000
0010
1000
0100
0000
,
0001
0100
1000
0000
0010
1000
0100
0001
,
0010
1000
0100
0010
0200
0000
0000
0000
,
0000
0000
0310
0000
,
0100
0100
0001
0000
1001
0000
1000
0010
,
0001
0100
1000
0000
0001
0100
0010
1000
,
0100
0000
0010
0000
0001
0010
1000
0001
,
0100
0010
1000
0000
0010
0001
1000
0001
,
0100
0001
0010
1000
0001
0010
0100
0000
,
0010
1000
0100
0001
0010
1000
0100
0000
,
0001
0010
1000
0100
0010
0001
1000
0000
,
0001
0100
1000
0001
0010
1000
0100
0000
,
0010
0100
1000
0010
0001
1000
0010
0100
,
0001
1000
0010
0000
0100
0001
1000
0001
,
0100
0010
1000
0001
0010
1000
0100
0001
,
0010
0100
1000
0010
0001
0100
1000
0001
,
0100
1000
0010
0001
0100
1000
0010
0000
,
0001
0100
1000
0100
0001
1000
0010
0000
,
0100
1000
0010
0100
0001
0100
1000
0001
,
0100
1000
0010
1000
0001
0100
0010
0100
,
0001
0010
1000
0001
1000
0001
0000
0101
,
0000
1000
0001
0000
1000
0001
0000
0110
,
0000
0000
1000
0100
0001
0000
0000
0000
0100
0000
0010
0000
0000
0000
1100
0000
,
0100
0100
0001
0000
0001
0100
0001
1000
,
0010
0100
0001
0010
0200
0000
0000
0000
0310
0000
0000
0000
0010
0000
0100
0000
,
0010
1000
0010
0100
0001
0010
0100
1000
,
0100
0001
1000
0100
0020
0000
0000
0000
1030
0000
0001
0000
0100
0000
0010
0000
,
0100
0000
1000
0000
0001
0000
1000
0001
1000
0001
1000
0001
1000
0001
1000
0001
,
1000
0001
1000
0001
1000
0001
1000
0001
1000
0000
0000
0000
0000
0000
0101
0000
,
0000
0000
1001
0110
0000
0000
0000
0000
;

//--------------- dance-single - ----------------
#NOTEDATA:;
#STEPSTYPE:dance-single;
#DESCRIPTION:;
#DIFFICULTY:Hard;
#METER:17;
#RADARVALUES:0,0,0,0,0;
#BPMS:0.000=200.000
,374.000=400.000
,377.000=800.000
;
#STOPS:236.000=0.225
,236.250=0.225
,237.500=0.150
;
#DISPLAYBPM:200.000;
#NOTES:
0000
0000
0000
0000
,
0000
0000
0000
0000
,
0000
0000
0000
0000
,
0100
1000
0010
0100
0001
0010
0100
0010
,
0001
0010
0001
0100
0010
0100
0010
0100
,
0001
0100
1000
0000
0010
0000
1000
0000
0100
0000
1000
0000
0010
0000
0100
0000
,
0010
0100
0010
1000
0001
0100
0001
0100
,
0010
0100
0010
1000
0100
0010
0001
0010
,
0100
1000
0001
1000
0001
0010
0001
0010
,
0100
1000
0010
0000
0001
0000
0100
0000
0001
0000
0010
0000
0100
0000
0010
0000
,
1000
0001
0010
1000
0100
0100
0001
0000
,
0001
0010
0001
0100
0010
1000
0001
0100
,
0010
0100
0010
0100
0001
0010
0100
1000
,
0001
0010
0001
1000
0100
0010
0100
0020
,
0000
0100
0100
0001
0001
1000
1000
0100
,
0130
0010
0100
0001
0100
0010
1000
0100
,
0010
0100
0010
0001
1000
0001
0100
0001
,
0010
1000
0100
0000
1000
0000
0001
0000
0010
0000
0100
0000
1000
0000
0001
0000
,
0010
0001
0100
0001
1000
0010
1000
0010
,
0200
0000
0310
0001
0010
0100
1000
0010
,
1000
0010
0100
0001
1000
0001
1000
0100
,
0010
0001
0100
0001
1000
0010
0100
0010
,
1000
0000
0100
0000
0010
0000
0001
0000
0010
0000
0100
0000
0010
0000
0001
0100
,
1000
0010
1000
0100
1000
0010
0100
0010
,
0100
0010
1000
0001
1000
0100
1000
0100
,
0010
0100
1000
0010
1000
0100
1000
0100
,
0010
0000
0001
0000
0010
0000
0100
0000
0010
0000
0100
0000
1000
0000
0010
0001
,
1000
0000
0100
0000
1000
0000
0001
0000
0100
0000
1000
0001
0100
0000
0010
0000
,
1000
0001
0100
0010
0022
0033
2200
3300
,
0010
0000
0100
0000
0001
0000
0010
0000
1000
0001
0100
0000
1000
0000
0010
0000
,
0010
0000
0100
0000
0010
0000
1000
0000
0100
1000
0010
0000
0001
0000
0010
1000
,
0001
0100
0001
0100
0010
0100
0010
1000
,
0100
0000
0010
0000
0100
0000
1000
0000
0010
0000
0100
0000
0001
0000
0010
1000
,
0001
1000
0010
1000
0100
1000
0100
0010
,
0100
0000
0010
0000
0001
0000
0100
0000
0001
0000
0010
1000
0100
0001
0010
0000
,
0200
0000
0000
0000
0010
0010
0310
0000
,
0001
0000
1000
0000
0100
0100
0001
0000
,
1000
0001
0010
0000
0100
0100
0001
0000
,
1000
0001
0010
1000
0100
0100
0001
0000
,
0010
0001
0000
0000
0010
0100
0000
0000
0100
0000
0100
0000
0001
0000
0000
0000
,
1000
0000
0001
0000
0100
0100
0001
0000
,
0100
1000
0001
0000
0100
0100
0001
0000
,
1000
0001
0100
0010
0100
0100
0001
0000
,
2001
3001
0000
1002
1003
0000
1002
1003
,
0010
0100
0010
1000
0001
0010
0001
0010
,
0100
0010
0001
1000
0001
0010
0001
1000
,
0010
0100
0001
1000
0001
0010
0001
1000
,
0100
0010
0100
0010
0100
1000
0010
1000
,
0001
0100
0001
1000
0001
1000
0100
0010
,
0001
1000
0010
1000
0010
1000
0001
0100
,
0010
0100
1000
0010
0001
0100
1000
0001
0100
1000
0010
0001
0100
1000
0010
0100
,
0020
0000
0130
0000
0100
0100
0001
0000
,
1001
0000
0001
0100
0000
1000
0001
0100
0010
1000
0000
0001
,
0100
0000
0010
0100
0000
1000
0001
0100
0010
1000
0010
0001
,
0100
0000
1000
0001
0000
0100
0001
0010
0100
1000
0000
0001
,
0010
0000
1000
0001
0000
0100
0001
0010
0100
1000
0001
0010
,
0100
0000
0100
0010
0000
0010
0001
0100
0010
1000
0001
1000
,
0100
0000
0001
0010
0000
1000
0001
0010
0100
0010
0100
1000
,
0010
0000
0001
0100
1000
0010
0001
1000
0010
1000
0001
0010
,
0100
0100
0001
1000
0001
0000
0100
0000
0001
0000
1000
0001
0100
0000
0001
0000
,
1000
0000
0001
1000
0000
0010
0001
0000
0100
0000
0010
1000
0001
0000
0100
0000
,
0010
0000
1000
0001
0000
0001
0100
0000
0010
0000
1000
0000
0002
0000
0000
0000
,
0103
1000
0000
0001
0100
0000
0010
0000
0100
0000
0001
0000
0010
0000
0100
0000
,
1000
0000
0001
0100
0000
0010
0001
0000
1000
0000
0001
1000
0010
0000
1000
0000
,
0001
0000
1000
0001
0000
0100
1000
0000
0010
0000
0100
0001
1000
0000
0010
0000
,
0100
0000
0001
1000
0000
1000
0010
0000
0100
0000
0001
0000
2000
0000
0000
0000
,
3010
0001
0000
1000
0010
0000
0100
0000
0010
0000
1000
0000
0100
0000
0010
0000
,
0001
0100
1000
0010
0001
0100
1000
0000
2002
0000
0000
0000
0000
0000
0000
0000
,
0000
0003
0000
0000
,
0100
0100
3001
0000
0001
0010
0001
0010
,
0001
1000
0100
0010
0100
1000
0010
0100
,
0010
0100
0001
0100
0001
0010
0100
1000
,
0001
0010
0001
0100
0001
1000
0010
1000
,
0100
0000
0010
0000
0100
0000
1000
0100
0010
0000
0100
0000
0010
0000
1000
0000
,
0001
1000
0010
1000
0100
0010
0001
0100
,
0001
1000
0010
0100
0010
1000
0100
0010
,
0100
0010
0100
1000
0001
0100
0001
0100
,
0010
0000
1000
0000
0010
0001
1000
0100
0010
0000
0100
0000
0001
0000
0100
0000
,
0010
0100
0010
1000
0010
0100
0001
0010
,
0100
0000
0010
0000
0001
1000
0010
0100
0001
0000
1000
0000
0001
0000
0100
0000
,
0010
0000
0100
0000
0001
0100
1000
0001
0010
0000
0100
0000
0001
0000
1000
0000
,
0100
0000
0010
0000
0001
0000
1000
0001
0100
0000
0010
0000
0001
0000
0100
0000
,
0010
0100
0001
1000
0010
1000
0001
0010
,
0100
0000
0010
1000
0001
0000
0010
1000
0001
0000
0100
0000
0001
1000
0010
0001
,
0100
0010
0100
0010
0001
0100
0010
0100
,
0010
0001
1000
0010
0100
0001
1000
0010
0100
0000
0110
0000
0000
0000
0101
0000
,
0000
0000
0101
0101
1001
1001
0000
1001
,
0000
0000
0001
0100
0001
0000
0000
0000
0101
0000
1010
0000
0000
0000
0101
0000
,
0110
1000
0001
1000
0001
0100
0001
0010
,
0001
1000
0100
0001
0010
0000
0100
0000
0001
0000
1000
0000
0001
0000
0010
0000
,
0001
1000
0010
0100
0001
0100
0010
1000
,
0010
0001
1000
0010
0100
0000
1000
0000
0100
1000
0010
0100
0001
1000
0010
0100
,
0001
0000
0010
0000
1000
0000
0100
0000
0010
0000
0100
0000
1000
0000
0001
0000
0100
0010
0100
0010
0100
0010
0100
0010
0100
0010
0100
0010
0100
0010
0100
0010
,
0100
0010
0100
0010
0100
0010
0100
0010
0100
0010
0100
0010
0100
0010
0100
0010
0100
0000
0000
0000
0000
0000
0000
0000
0000
0000
0000
0000
0000
0000
0000
0000
,
0000
1001
0000
0000
,
0000
0000
0000
1001
,
0000
0220
0000
0000
,
0000
0000
0000
0000
,
0000
0000
0000
0000
,
0000
0000
0000
0000
,
0000
0000
0000
0330
;
