
//----- song ID: gaod -----//
#TITLE:Galactic Odyssey;
#ARTIST:TAG;
#GENRE:SONIC LEAGUER'S PRIVILEGE;
#MUSIC:Galactic Odyssey.ogg;
#BANNER:Galactic Odyssey.png;
#BACKGROUND:Galactic Odyssey-bg.png;
#CDTITLE:./CDTitles/NSD A3.png;
#SAMPLESTART:55.992;
#SAMPLELENGTH:15.000;
#SELECTABLE:YES;
#OFFSET:0.000;
#BPMS:0.000=150.000
,104.000=75.000
,112.000=150.000
,196.000=75.000
,212.000=150.000
;
#STOPS:124.000=0.200
,124.250=0.200
,124.500=0.200
,124.750=0.200
,190.000=0.200
,190.250=0.200
,190.500=0.200
,190.750=0.200
;
#BGCHANGES:;
#FGCHANGES:;

//--------------- dance-single - ----------------
#NOTES:
     dance-single:
     :
     Beginner:
     3:
     0,0,0,0,0:
0000
0000
0000
0000
,
0000
0000
0000
0000
,
0000
0000
0000
0000
,
0000
0000
0000
0000
,
0000
0000
0000
0000
,
0000
0000
0000
0000
,
1000
0000
1000
0000
,
1000
0000
0000
0000
,
0001
0000
0001
0000
,
0001
0000
0000
0000
,
0100
0000
0010
0000
,
0001
0000
1000
0000
,
0100
0000
0010
0000
,
1000
0000
0001
0000
,
0100
0000
1000
0000
,
0001
0000
0100
0000
,
0010
0000
0100
0000
,
1001
0000
0000
0000
,
0100
0000
0010
0000
,
0100
0000
1000
0000
,
0001
0000
0000
0000
,
0010
0000
0000
0000
,
1000
0000
0001
0000
,
0100
0000
0010
0000
,
1000
0000
0001
0000
,
1000
0000
0000
0000
,
1001
0100
0001
1000
,
0001
0000
0100
0000
0010
0000
1000
0001
,
1000
0000
0100
0000
,
0010
0000
0001
0000
,
1000
0001
1000
0001
,
2002
3003
0000
0000
,
0000
0000
0110
0000
,
1000
0000
0001
0010
,
0100
0000
1000
0000
,
0001
0000
0100
0010
,
0001
0000
1000
0000
,
0001
0000
0100
0010
,
1000
0000
0001
0000
,
1000
0000
2002
0000
,
0000
3003
0100
0000
,
0000
0000
0001
0000
,
0000
0000
1000
0000
,
0000
0000
0001
0000
,
0000
0000
0010
0000
,
0100
0000
1000
0000
,
0001
0000
0100
0000
,
0010
0000
0200
0300
,
0000
0000
0000
0000
,
1001
0000
0100
0000
,
0010
0000
0001
0000
,
1000
0000
0001
0000
,
0100
0010
2002
3003
,
1001
0000
0100
0000
,
0010
0000
0001
0000
,
1000
0000
0001
0000
,
0100
0000
0010
0000
,
1000
0000
0001
0000
,
1000
0000
0100
0000
,
0010
0000
0100
0000
,
0001
0000
0000
0000
,
1000
0000
0001
0000
,
1000
0001
1000
0001
,
1001
0000
0100
0000
,
0110
1001
0000
0000
;

//--------------- dance-single - ----------------
#NOTES:
     dance-single:
     :
     Easy:
     7:
     0,0,0,0,0:
0000
0000
0000
0000
,
0000
0000
0000
0000
,
0000
0000
0000
0000
,
0000
0000
0000
0000
,
0000
0000
0000
0000
,
0000
0000
0000
0000
,
1000
0010
0100
0001
,
0010
0100
1000
0001
,
1000
1000
0000
0000
0001
0001
0000
0000
,
2002
0000
0000
3003
,
0001
0001
0100
0000
,
0001
0000
0010
0000
,
1000
1000
0100
0000
,
1000
0000
0010
0000
,
1000
1000
0001
0000
,
1000
0000
0001
0000
,
0100
0100
0010
0000
,
1000
0000
0001
0000
,
1000
0100
1000
0000
,
0001
0001
1000
0000
,
0001
0100
0001
0000
,
1000
1000
0001
0000
,
0100
0010
0100
0000
,
0010
0010
0100
0000
,
1001
0000
0110
0000
,
1000
0001
1000
0001
,
2000
0000
3200
0000
0320
0000
0031
0100
,
0020
0000
2030
0000
3200
0000
0310
0001
,
0200
0000
0320
0000
,
2030
0000
3100
0010
,
0011
0000
1100
0000
,
1010
0000
0101
0000
,
0001
0010
1000
0100
,
0010
0001
1000
0010
1000
0000
0010
0000
,
0011
1010
2200
3300
,
0100
0010
1000
0000
0100
0000
0010
1000
,
0100
0001
0010
0000
0100
0000
0001
0010
,
1000
0000
0100
0010
1000
0000
0010
0001
,
0100
0000
0010
1000
0202
0000
0303
0000
,
0000
0000
1000
0001
0010
0000
1000
0000
,
0010
0000
0100
0001
2000
0000
0000
3020
,
0000
0000
0230
0000
0000
0320
0000
0000
,
2030
3002
1003
0000
,
0010
0000
0001
0000
,
0010
0000
0001
0100
,
1000
0010
0001
0010
,
1000
0000
0100
0000
0001
0100
0001
0100
,
0010
1000
0010
1000
0002
0000
1003
0000
,
0000
0000
0000
0000
,
1000
0000
1010
0000
0100
0001
0101
0101
,
2000
0000
0010
3001
0200
0000
0001
0310
,
1000
0100
0001
0100
1000
0010
0100
0001
,
0200
0000
0001
0301
0010
0001
0100
1000
,
0010
0000
0010
0000
1000
0001
0100
0000
,
0001
0010
0100
1000
,
0010
0000
0010
0000
0001
1000
0100
0000
,
1000
0010
0100
0001
,
0000
0000
1000
0000
1000
0100
0001
0000
,
0000
0000
0001
0000
0001
0100
1000
0000
,
1000
0010
0001
0100
,
1000
0010
0001
0001
,
1000
0000
1000
0000
0100
0010
0001
0000
,
1000
0100
1100
0000
,
0001
0000
0001
0000
0100
0010
1000
0000
,
0001
1001
0000
0000
;

//--------------- dance-single - ----------------
#NOTES:
     dance-single:
     :
     Medium:
     12:
     0,0,0,0,0:
0000
0000
0000
0000
,
0000
0000
0000
0000
,
0000
0000
0000
0000
,
0000
0000
0000
0000
,
0000
0000
0000
0000
,
0000
0000
0000
0000
,
1000
0100
1000
0100
,
0010
0001
0010
0001
,
1000
1000
0000
0000
0001
0001
0000
0000
,
1000
0000
0000
0010
0000
0000
0001
0000
0000
0100
0000
0000
1000
0000
0001
0000
,
0010
0000
0010
0000
1000
0100
1000
0010
,
0000
0010
0100
0001
1000
0100
0010
0001
,
1000
0000
1000
0000
0100
0010
0100
0001
,
0000
0100
1000
0001
0000
0100
0010
0000
,
0100
0000
0100
0000
0010
1000
0010
0100
,
0000
0001
0010
0100
1000
0001
0100
0010
,
0100
0000
0100
0000
0001
0100
0001
0010
,
0000
0010
0100
1000
0010
0100
0001
1000
,
0001
0000
0011
0000
1000
0100
0010
0001
,
0100
0001
1000
0010
0100
0001
0100
0100
,
0010
0000
1010
0000
1000
0001
0100
0010
,
1000
0001
0100
1000
0100
0001
0010
0000
,
0110
0000
1000
0000
0010
0001
0100
0001
,
1001
0000
0100
0000
0010
1000
0100
1000
,
1010
0100
0011
0100
,
1000
0100
1000
0010
0100
0001
0010
0000
,
1001
0000
0010
1000
0000
0010
0100
0000
0001
0000
0010
0100
0000
1000
0001
0100
,
0010
0000
0100
0001
0000
1000
0100
0000
0001
0000
0100
1000
0000
0001
0100
0010
,
1000
0100
1000
0100
0010
0100
0010
0100
,
0010
0001
0010
0001
0100
0001
0100
0001
,
0110
1000
0001
0000
0110
0001
1000
0000
,
0100
0010
0100
0010
1000
0100
0010
0001
,
1000
0000
0000
0000
1001
0000
0000
0000
1000
0000
0100
0010
0000
0100
0010
0000
,
0001
0000
0100
0010
0000
0100
0010
0000
1000
0000
0010
0100
0000
0010
0100
0000
,
0101
0000
0000
0000
1100
0000
0000
0000
1001
0000
0000
0000
0000
0000
0001
0100
,
0010
0000
1000
0000
0010
0000
1010
0000
0000
0000
1000
0100
0010
0000
0011
0000
,
0000
0000
0001
1000
0001
0000
0000
0000
1000
0000
0010
0100
0000
0001
0010
0000
,
0100
0000
0010
0001
0000
0100
0010
0000
1000
0000
0100
0010
0000
0001
0100
0000
,
0010
0000
0100
0001
0000
0010
0100
0000
2000
0000
0000
0000
0001
0000
0000
0000
,
0010
0000
0000
0000
3001
0100
0001
0000
1000
0000
0100
0000
0001
0000
0100
0000
,
1000
0000
0000
0001
0000
0000
1000
0000
2000
0000
0000
0000
0000
0000
3020
0000
,
0000
0000
0230
0000
0000
0320
0000
0000
,
2030
3002
1003
0000
,
0010
0000
0001
0000
,
0010
0000
0001
0100
,
1000
0010
0001
0010
,
1000
0000
0100
0000
0001
0100
0001
0100
,
0010
1000
0010
1000
0001
0001
1000
1000
,
1000
0000
0000
0000
,
1001
0000
0010
1000
0000
0010
0100
0000
0001
0000
0010
0100
0000
1000
0001
0100
,
0010
0000
0100
0001
0000
1000
0100
0000
0001
0000
0100
1000
0000
0001
0100
0010
,
1000
0100
1000
0100
0010
0100
0010
0100
0010
0001
0010
0001
0100
0001
0100
0001
,
0110
1000
0001
0000
0110
0001
1000
0000
0100
0010
0100
0010
1000
0100
0010
0001
,
0010
0000
0100
0010
0000
0000
0100
0000
0001
0000
0010
0000
0100
0000
1000
0000
,
0001
0000
0000
0001
1000
0000
0010
0000
1000
0000
0000
0000
0101
0000
0000
0000
,
0001
0000
1000
0001
0000
0000
0100
0000
0010
0000
1000
0000
0100
0000
0010
0000
,
0001
0000
0000
0001
0010
0000
0100
0000
1000
0000
0000
1000
0010
0000
0100
0000
,
0010
1000
0010
0100
0010
1000
0010
0000
,
0001
0010
0100
0010
0001
0010
0100
0000
,
1000
0000
0000
0010
0100
0000
0010
0000
1000
0000
0000
0100
0010
0000
0100
0000
,
1000
0000
0000
0010
0100
0000
0001
0000
1000
0000
0000
0000
0110
0000
0000
0000
,
0001
0000
1000
0001
0000
0000
0001
0000
0010
0000
0100
0000
1000
0000
0001
0000
,
0000
0000
0001
0000
1000
0100
0000
0010
0000
0000
0010
0000
0001
0000
0001
0000
,
1000
0000
0010
1000
0000
0000
0001
0000
0100
0000
0010
0000
1000
0000
0001
0000
,
1000
1001
0000
0000
;

//--------------- dance-single - ----------------
#NOTES:
     dance-single:
     :
     Hard:
     16:
     0,0,0,0,0:
0000
0000
0000
0000
,
0000
0000
0000
0000
,
0000
0000
0000
0000
,
0000
0000
0000
0000
,
0000
0000
0000
0000
,
0000
0000
0000
0000
,
0010
0000
1000
0000
0010
0100
1000
0000
0100
0000
0010
0000
0100
0001
1000
0000
,
0001
0000
1000
0000
0010
1000
0100
0000
0010
0000
0100
0000
0010
0100
1000
0000
,
0001
1000
0010
0000
0001
0000
0010
0000
0001
1000
0100
0000
0010
0000
0100
0000
,
0010
1000
0000
0100
0001
0000
0010
0100
0000
0001
1000
0000
0001
0000
0010
0000
,
0001
0010
0100
1000
0010
1000
0100
0010
,
0100
0000
1000
0000
0001
0000
0100
0000
0001
0000
0100
0000
0001
0000
0010
1000
,
0100
0010
0100
1000
0100
1000
0001
0010
,
0100
0000
1000
0000
0010
0000
0100
0000
0010
0000
1000
0000
0001
0000
1000
0100
,
0010
1000
0100
0010
0100
0010
0001
1000
,
0010
0000
0100
0000
0001
0000
1000
0000
0010
0000
1000
0000
0010
0000
1000
0010
,
0001
0000
0100
0000
0010
0000
1000
0000
0010
0001
1000
0100
0010
0001
0100
1000
,
0200
0000
0000
0310
,
0021
0000
2030
0000
3001
0010
0100
0010
,
0001
0000
0100
0000
1000
0000
0100
0000
0010
0000
1000
0100
1000
0000
0001
0000
,
0201
0000
2300
0000
3001
0010
0100
0001
,
0100
0000
1000
0000
0100
0000
0010
0000
1000
0000
0100
0010
0100
0000
0010
0000
,
0120
0000
0032
0000
0103
0010
0001
0010
,
0100
0000
0001
0000
1000
0000
0100
0000
0010
0000
0100
1000
0100
0000
0010
0000
,
0001
0000
0001
0000
0000
0000
1000
0010
0100
0000
0100
0000
0000
0000
0001
1000
,
0001
0000
0000
0001
0000
0000
1000
0000
0000
1000
0000
0000
0001
0000
1000
0000
,
0010
0000
0010
1000
0000
1000
0001
0000
0010
0001
0000
0000
0100
0000
0010
0000
1000
0000
1000
0001
0000
0001
0100
0000
0010
0100
0000
0000
1000
0000
1100
0000
,
0001
0000
0001
0010
0000
0010
0100
0000
0010
0001
0000
0000
1000
0000
0100
0000
0010
0000
0010
0001
0000
0001
0100
0000
0001
0010
0000
0000
0100
0000
1100
0000
,
0001
0000
0001
0100
0000
0100
0010
0000
1000
0010
0000
0000
0100
0000
0010
0000
,
1000
0000
1000
0100
0000
0100
0001
0000
0100
1000
0000
0000
0001
0000
0011
0000
,
0100
0000
0100
0010
0000
0010
0001
0000
1000
0001
0000
0000
1000
0000
1000
0000
,
0001
1000
0100
0001
0010
0000
0100
0000
1000
0001
0000
0100
1000
0000
0100
0000
,
0010
0000
1000
0100
0002
0000
0003
0000
1000
0000
0001
1000
0000
0001
0100
0000
,
0001
0000
1000
0001
0000
0100
0001
0000
1000
0000
0001
0100
0000
0001
0010
0000
,
0001
0000
1000
0100
1000
0000
0000
0000
0001
0000
1000
0100
0000
1000
0010
0000
,
1000
0000
0001
0100
0000
0001
0010
0000
0001
0000
1000
0100
0000
1000
0010
0000
,
2000
0000
0000
0000
3100
0000
0010
0000
0001
0000
1000
0001
0000
1000
0100
0000
,
1000
0000
0001
1000
0000
0100
1000
0000
0001
0000
1000
0100
0000
1000
0010
0000
,
1000
0000
0001
0100
0001
0000
0000
0000
1001
0000
0000
1100
0000
0000
0101
0000
,
1001
0000
0000
0011
0000
0000
1010
0000
1001
0000
0000
0110
0000
0000
1010
0000
,
2002
0000
0000
3003
0100
0000
0010
0200
,
0000
0000
0000
0000
0301
0000
1000
0100
,
0000
0010
0001
1000
0100
0000
0010
0200
,
0000
0000
0000
0000
1300
0000
1000
0001
,
0000
1000
0100
0010
0001
1000
0100
0001
,
1000
0000
0001
0000
0100
0000
0010
0000
1000
0000
0000
0100
0000
0000
0010
0000
,
0000
0001
0000
0000
1000
0000
0001
0000
0100
0010
0100
0000
0100
0000
0010
0001
,
1000
0000
0010
0000
0010
0000
0100
0010
1000
1001
0110
0101
1010
0000
0110
0000
,
2000
0000
0000
3001
,
0100
1000
0010
0100
0001
0010
0100
1000
0010
0100
0001
0010
0001
0100
0010
1000
,
0001
0100
1000
0001
0010
1000
0001
0100
1000
0001
0010
1000
0001
1000
0100
0010
,
0001
0010
0010
0100
0010
0010
1000
0010
0010
0100
0010
0010
0001
0010
0010
0100
,
1000
1000
1000
0010
0010
0010
0001
0001
0001
0100
0100
0100
1000
0010
0100
0001
2000
0000
0000
0000
0000
0000
0000
0000
0000
0000
0000
0000
3000
0000
0000
0000
,
0100
0010
0100
0000
1000
0000
0100
0010
0100
0000
1000
0000
0001
0100
0001
0000
,
1000
0100
1000
0000
0010
0000
0100
0010
0100
0000
0001
0000
0010
0000
0100
0000
,
1000
0010
1000
0000
0001
0000
0010
0100
0010
0000
0100
0000
1000
0001
1000
0000
,
0010
0100
0010
0000
0100
0000
0001
0010
0001
0000
1000
0000
0010
0000
0100
0000
,
0010
1000
0100
0000
0010
0000
0100
1000
0010
0000
0100
0000
0010
1000
0100
0000
,
0010
0001
0100
0000
0010
0000
0100
0001
0010
0000
0001
0000
1000
0000
0010
0000
,
0100
0001
1000
0000
0100
0000
1000
0001
0100
0000
0010
0000
0100
0001
1000
0000
,
0100
1000
0001
0000
0100
0000
0001
0010
0100
0000
1000
0000
0001
0000
0100
0000
,
0010
0000
0000
0000
1000
0001
0100
0000
0010
0000
0000
0000
1000
0000
0000
0000
,
0100
0010
0001
0100
0001
0010
0100
0010
0100
0010
0001
0100
0001
0100
0001
1000
,
0100
1000
0100
1000
0010
0100
0010
1000
0001
0100
0010
0100
0010
1000
0100
0010
,
0000
2002
0000
0000
,
0000
0000
0000
0000
,
3003
0000
0000
0000
;
