
//----- song ID: grgs -----//
#TITLE:GORI×GORI×SafaRI;
#ARTIST:NAMCO Sound Team "小林伸嘉";
#ARTISTTRANSLIT:NAMCO Sound Team "Nobuyoshi Kobayashi";
#GENRE:ナムコオリジナル;
#MUSIC:GORI GORI SafaRI.ogg;
#BANNER:GORI GORI SafaRI.png;
#BACKGROUND:GORI GORI SafaRI-bg.png;
#CDTITLE:./CDTitles/NSD A3.png;
#SAMPLESTART:37.059;
#SAMPLELENGTH:15.000;
#SELECTABLE:YES;
#OFFSET:0.000;
#BPMS:0.000=272.000
,394.000=150.000
,397.000=152.000
,401.000=154.000
,405.000=155.000
,410.000=157.000
,414.000=158.470
,420.000=159.000
,422.000=163.180
,428.000=164.720
,431.000=166.000
,439.000=169.000
,441.000=172.000
,444.000=173.000
,458.000=176.000
,460.000=178.000
,462.000=179.000
,470.000=181.000
,474.000=185.000
,482.000=188.000
,490.000=190.000
;
#STOPS:;
#BGCHANGES:;
#FGCHANGES:;

//--------------- dance-single - ----------------
#NOTES:
     dance-single:
     :
     Beginner:
     8:
     0,0,0,0,0:
0000
0000
0000
0000
,
0000
0000
0000
0000
,
0000
0000
0000
0000
,
0000
0000
0000
0000
,
0000
0000
0000
0000
,
0000
0000
0000
0000
,
0000
0000
0000
0000
,
0000
0000
0000
0000
,
0000
0000
0000
0000
,
0000
0000
0000
0000
,
0000
0000
0000
0000
,
0000
0000
0000
0000
,
0000
0000
0000
0000
,
0000
0000
0000
0000
,
0000
0000
0000
0000
,
0000
0000
0000
0000
,
0000
0000
0000
0000
,
2002
0000
0000
0000
,
0000
0000
0000
0000
,
0000
3003
0000
0000
0000
0000
0000
0000
0000
0000
0000
0000
0000
0000
0000
0000
,
0000
0000
0000
0000
,
0000
0000
0000
0220
,
0000
0000
0000
0000
,
0000
0000
0000
0000
,
0000
0330
0000
0000
,
0000
0000
0000
0000
,
1001
0000
0001
0000
,
1000
0000
0000
0000
,
0010
0000
0100
0000
,
1000
0000
0000
0000
,
0001
0000
1000
0000
,
0001
0000
0000
0000
,
0100
0000
0010
0000
,
1000
0000
0000
0000
,
0001
0000
0000
0000
,
1000
0000
0000
0000
,
0001
0000
0100
0000
,
1000
0000
0000
0000
,
0001
0000
0000
0000
,
1000
0000
0000
0000
,
0001
0000
1000
0000
,
0001
0000
0000
0000
,
1001
0000
0000
0000
,
0010
0000
0000
0000
,
0100
0000
0000
0000
,
0010
0000
0100
0000
,
0010
0000
0000
0000
,
1000
0000
0000
0000
,
0001
0000
0000
0000
,
0010
0000
0000
0000
,
0110
0000
0000
0000
,
1000
0000
0000
0000
,
0001
0000
0000
0000
,
0010
0000
0000
0000
,
0100
0000
0000
0000
,
1000
0000
0000
0000
,
0001
0000
0000
1000
,
0000
0000
0100
0000
,
0001
0000
0000
0000
,
0100
0000
0000
0000
,
1000
0000
0001
0000
,
0100
0000
0000
0001
,
1000
0000
0000
0001
,
0000
0000
0100
0010
,
0000
0000
1000
0000
,
0001
0000
0000
1000
,
0001
0000
1000
0000
,
0000
0000
0001
0000
,
0000
0000
0100
0000
,
0000
0000
0010
0000
,
0100
0000
1000
0000
,
0000
0000
0001
0000
,
0000
0000
0010
0000
,
0000
0000
0100
0000
,
0010
0000
1000
0000
,
0000
0000
0001
0000
,
0000
0000
0100
0000
,
0000
0000
0010
0000
,
0000
0000
0001
0000
,
1000
0000
0001
0000
,
0000
0000
0100
0000
,
0000
0000
0010
0000
,
0000
0000
1000
0000
,
0001
0000
0100
0000
,
0000
0000
0010
0000
,
0000
0000
0100
0000
,
0000
0000
1000
0000
,
0001
0000
0100
0000
,
0000
0000
0010
0000
,
0000
0000
0100
0000
,
0000
0000
1000
0000
,
0001
0000
0100
0000
,
0000
0000
0010
0000
,
0000
0000
0100
0000
,
0000
0000
1000
0000
,
0000
0000
0001
0000
,
0000
0000
0100
0000
,
0000
0000
0001
0000
,
0000
0000
1000
0000
,
0000
0000
0000
0000
,
0000
0000
0000
0000
,
0000
0000
0000
0000
,
0000
0000
2000
0000
,
0000
0000
3000
0000
,
0000
0200
0000
0000
,
0000
0000
0300
0000
,
0000
0002
0000
0000
,
0000
0000
0003
0000
,
0000
0000
2000
0000
,
0000
0000
0000
3000
,
0000
0000
0000
0010
,
0100
1000
0000
0000
,
0000
0000
1000
0001
,
0100
0000
0000
0000
,
0000
0000
1001
0000
,
0100
0000
0010
0000
,
1000
0001
0100
0000
,
0000
0000
0010
0000
,
0000
0000
0001
0000
,
1000
0000
0001
0010
,
0100
0000
1000
0000
,
0000
0000
0001
0000
,
0000
0000
1001
0000
,
0100
0000
1000
0000
,
0001
0100
0010
0000
,
1000
0000
0001
0000
,
0100
0000
0010
0000
,
1000
0000
0001
0000
,
0100
0010
0001
0000
,
1000
0000
0001
0100
,
0010
0000
1000
0000
,
0000
0000
0001
0000
,
0000
0000
0010
0000
,
0100
0000
1000
0000
;

//--------------- dance-single - ----------------
#NOTES:
     dance-single:
     :
     Easy:
     11:
     0,0,0,0,0:
0000
0000
0000
0000
,
0000
0000
0000
0000
,
0000
0000
0000
0000
,
0000
0000
0000
0000
,
0000
0000
0000
0000
,
0000
0000
0000
0000
,
0000
0000
0000
0000
,
0000
0000
0000
0000
,
0000
0000
0000
0000
,
0000
0000
0000
0000
,
0000
0000
0000
0000
,
0000
0000
0000
0000
,
0000
0000
0000
0000
,
0000
0000
0000
0000
,
0000
0000
0000
0000
,
0000
0000
0000
0000
,
0000
0000
0000
0000
,
2002
0000
0000
0000
,
0000
0000
0000
0000
,
0000
3003
0000
0000
0000
0000
0000
0000
0000
0000
0000
0000
0000
0000
0000
0000
,
0000
0000
0000
0000
,
0000
0000
0000
0220
,
0000
0000
0000
0000
,
0000
0000
0000
0000
,
0330
1000
0000
0000
,
0001
0000
0000
0000
,
1001
0000
1000
0000
,
0001
0000
0100
0000
,
0100
0000
0010
0000
,
0001
0000
1000
0000
,
1000
0000
0001
0000
,
1000
0000
0010
0000
,
0010
0000
0100
0000
,
0001
0000
1000
0001
,
1000
0000
0100
0000
,
0001
0000
0100
0000
,
1000
0000
0010
0000
,
0001
1000
0001
0000
,
1000
0000
0010
0000
,
0001
0000
0100
0000
,
1000
0000
0001
0000
,
1000
0100
0010
0000
,
1001
0000
0100
0000
,
0100
0000
0001
0000
,
0010
0000
1000
0000
,
0100
0000
0010
0001
,
0100
0000
0010
0000
,
0001
0000
1000
0000
,
1000
0000
0001
0000
,
0100
0000
0010
0000
,
0110
0000
1000
0000
,
0001
1000
0001
0000
,
1000
0000
0010
0000
,
0100
1000
0001
0000
,
0010
0000
0100
0000
,
0001
1000
0001
0000
,
1000
0000
0100
0001
,
0000
0000
0010
0000
,
1000
0001
1000
0000
,
0010
0000
0001
1000
,
0001
0000
1000
0000
,
0010
0100
0000
1000
,
1001
0000
0010
1001
,
0000
0000
0010
0100
,
0000
1000
0001
0000
,
1000
0000
0010
0001
,
1000
0000
0001
0000
,
0100
0000
1000
0000
,
0001
1000
0010
0000
,
0001
0000
0100
0000
,
0010
1000
0001
0000
,
0010
0000
1000
0000
,
0001
1000
0100
0000
,
0001
0000
0010
1000
,
0100
0000
0001
0000
,
0010
0000
1000
0001
,
1000
0000
0010
0000
,
0100
0000
0100
0001
,
1000
0000
1000
0000
,
0001
0000
1000
0100
,
0001
0000
0010
1000
,
0001
0000
0100
0010
,
0100
0000
0001
0000
,
1000
0000
0010
1000
,
0001
0000
0100
0010
,
1000
0000
0010
0000
,
1000
0000
0001
0100
,
1000
0000
0010
1000
,
0000
0001
0100
0000
,
0001
0000
0010
1000
,
0000
1000
0001
0000
,
1001
0000
0010
0100
,
0001
1000
0100
0000
,
0001
0000
0010
1000
,
0001
0000
0002
0000
,
0000
0000
1003
0010
,
0100
1000
0010
0000
,
0101
0000
1000
0000
,
0100
0000
1001
0000
,
0000
0000
0000
0000
,
0000
0000
0000
0000
,
0000
0000
0000
0000
,
0000
0000
0002
0000
,
1000
0000
1003
0000
,
0000
0020
0000
0100
,
0000
0000
0031
0000
,
0000
2000
0000
0010
,
0000
0000
3001
0000
,
0000
0000
1002
0000
,
0100
0000
0000
1003
,
0000
0000
0000
0100
,
0010
0001
0000
1000
,
0000
0100
0001
1000
,
0010
0100
0000
0001
,
0000
0010
1001
0000
,
0010
0000
0100
0010
,
0001
1000
0010
0000
,
1000
0000
0100
0000
,
0001
0010
1000
0000
,
0001
0100
1000
0100
,
0010
1000
0001
0000
,
0001
0000
1000
0100
,
0010
0000
1001
0000
,
0010
1000
0001
0000
,
1000
0010
0100
1000
,
0001
0000
1000
0001
,
0010
1000
0100
0000
,
0001
0010
1000
0001
,
0010
0100
1000
0100
,
0001
0010
1000
0010
,
0100
0000
0001
0000
,
0001
0000
1000
0000
,
0001
0000
0100
1000
,
0010
1000
1001
0000
;

//--------------- dance-single - ----------------
#NOTES:
     dance-single:
     :
     Medium:
     13:
     0,0,0,0,0:
0000
0000
0000
0000
,
0000
0000
0000
0000
,
0000
0000
0000
0000
,
0000
0000
0000
0000
,
0000
0000
0000
0000
,
0000
0000
0000
0000
,
0000
0000
0000
0000
,
0000
0000
0000
0000
,
0000
0000
0000
0000
,
0000
0000
0000
0000
,
0000
0000
0000
0000
,
0000
0000
0000
0000
,
0000
0000
0000
0000
,
0000
0000
0000
0000
,
0000
0000
0000
0000
,
0000
0000
0000
0000
,
0000
0000
0000
0000
,
2002
0000
0000
0000
,
0000
0000
0000
0000
,
0000
3003
0000
0000
0000
0000
0000
0000
0000
0000
0000
0000
0000
0000
0000
0000
,
0000
0000
0000
0000
,
0000
0000
0000
0220
,
0000
0000
0000
0000
,
0000
0000
0000
0000
,
0330
0000
0000
1000
0000
0000
0010
0000
0000
1000
0000
0001
,
0000
0100
0000
0010
0000
0000
1001
0000
0000
0000
0000
0000
,
1001
0010
1000
0100
,
0001
0000
1000
0010
0100
0000
0001
0000
,
0100
1000
0010
1000
,
0001
0000
0020
0000
,
1030
0100
0001
0010
,
1000
0000
0100
0001
0010
0000
1000
0000
,
0010
0001
0100
1000
,
0002
0000
1003
0001
,
1000
0001
0100
1000
,
0001
0000
0010
0000
0100
1000
0001
0000
,
1000
0100
0010
1000
,
0001
1000
0001
0000
,
1000
0000
0100
0000
0010
1000
0100
0000
,
0001
0010
0100
0000
,
1000
0000
0010
0000
0001
0100
0010
0000
,
1000
0100
0010
0000
,
1001
0010
0100
1000
,
0100
0010
0001
1000
,
0010
0001
1000
0001
,
0100
0000
1000
0000
0010
0000
0001
0010
,
0100
1000
0010
0000
,
0001
0100
1000
0001
,
1000
0100
0001
0010
,
0100
0000
1010
0000
,
0100
0010
1000
0100
,
0001
0000
1000
0000
0001
0000
0010
0001
,
1000
0100
0010
1000
,
0100
1000
0001
0000
,
0010
0000
0001
0000
0100
0000
1000
0010
,
0001
1000
0001
0100
,
1000
0000
0100
0001
,
0000
1000
0020
0000
,
1030
0001
1000
0100
,
0010
0000
1000
0010
0001
0000
1000
0000
,
0001
0100
2000
0000
,
3010
0200
0000
1300
,
0001
0000
0100
0000
0010
0001
1000
0000
,
0001
1000
0010
0100
,
0001
0000
1000
0100
0001
0000
0010
0000
,
1000
0000
0010
0001
,
1001
0000
1001
0000
,
0100
0000
0001
0010
1000
0000
0000
0000
,
0001
0000
1000
0100
0010
0000
0000
0000
,
0001
0000
1000
0001
0100
0000
0000
0000
,
0010
1000
0001
0000
,
0010
0000
0001
0100
1000
0000
0000
0000
,
0001
0000
1000
0010
0100
0000
0000
0000
,
0001
0000
1000
0001
0010
0000
1000
0000
,
0100
0000
0000
0000
0001
0000
1000
0100
,
0010
0000
1000
0001
,
1000
0000
0000
0000
0010
0000
0001
1000
,
0100
0000
0100
0001
,
1000
0000
0000
0000
1000
0000
0010
1000
,
0001
0000
1000
0100
,
0001
0000
0000
0000
0010
0000
1000
0100
,
0001
0000
0100
0010
,
0100
0000
0000
0000
0001
0000
0100
0001
,
1000
0000
0010
1000
,
0001
0000
0000
0000
0100
0000
0010
0001
,
1000
0000
0010
0001
,
1000
0000
0000
0000
0001
0000
0100
0010
,
1000
0000
0010
1000
,
0010
0000
0001
0000
0100
0000
1000
0010
,
0001
0000
0010
1000
,
0001
1000
0001
0000
,
1001
0000
0010
0100
,
0001
0000
1000
0000
0100
0000
1000
0010
,
0001
0000
0010
1000
,
0001
1000
0002
0000
,
0100
0000
0000
0000
1003
0000
0010
0001
,
0100
1000
0010
0000
,
0101
0000
1000
0001
,
0100
0010
1001
0000
,
0000
0000
0000
0000
,
0000
0000
0000
0000
,
0000
0000
0000
0000
,
0000
0000
0002
0100
,
1000
0010
1003
0000
,
0000
0020
1000
0100
,
0001
1000
0031
0000
,
0000
2000
0100
0010
,
0001
0100
3001
0000
,
0010
0000
1002
0000
,
0100
0000
0010
1003
,
0100
1000
0001
0000
0000
0000
0100
0000
,
0010
0000
0001
0100
0010
0000
1000
0000
,
0000
0100
0001
1000
,
0010
0000
0100
1000
0010
0000
0001
0100
,
1000
0000
0010
0000
1001
0000
1000
0001
,
0010
0000
1000
0000
0100
0000
0010
1000
,
0001
0000
1000
0000
0010
0000
0001
0010
,
1000
0000
0001
0000
0100
0000
1000
0010
,
0001
0000
0010
0000
1000
0000
0100
1000
,
0001
0000
0100
0000
1000
0000
0100
0001
,
0010
1000
0001
1000
,
0001
0010
1000
0100
,
0010
0100
1001
0100
,
0010
1000
0001
0010
,
1000
0000
0010
0000
0100
0001
1000
0000
,
0001
0000
0010
0000
1000
0000
0001
0100
,
0010
0000
1000
0000
0100
0000
0001
1000
,
0001
0000
0010
0000
1000
0000
0001
1000
,
0010
0000
0100
0000
1000
0001
0100
0000
,
0001
0000
0010
0000
1000
0100
0010
0000
,
0100
0000
0001
1000
,
0001
0100
1000
0010
,
0001
0000
0010
0000
0100
0001
1000
0000
,
0010
0100
1000
0000
1001
0000
0000
0000
;

//--------------- dance-single - ----------------
#NOTES:
     dance-single:
     :
     Hard:
     17:
     0,0,0,0,0:
0000
0000
0000
0000
,
0000
0000
0000
0000
,
0000
0000
0000
0000
,
0000
0000
0000
0000
,
0000
0000
0000
0000
,
0000
0000
0000
0000
,
0000
0000
0000
0000
,
0000
0000
0000
0000
,
0000
0000
0000
0000
,
0000
0000
0000
0000
,
0000
0000
0000
0000
,
0000
0000
0000
0000
,
0000
0000
0000
0000
,
0000
0000
0000
0000
,
0000
0000
0000
0000
,
0000
0000
0000
0000
,
0000
0000
0000
0000
,
2002
0000
0000
0000
0000
0000
3003
0100
,
0010
0100
0010
0000
0100
0000
0010
0000
,
0000
0200
0000
0000
0000
0000
0000
0000
0000
0000
0000
0000
0000
0000
0000
0000
,
0000
0000
0000
0000
,
0000
0000
0000
0020
,
0000
0300
0000
1030
,
0001
0000
0000
1000
0000
0000
0001
0000
0000
1000
0000
0001
,
0000
1000
0000
0001
0000
0000
1000
0000
0000
0001
0000
0010
,
0000
1000
0000
0001
0000
0000
0100
0000
0000
0010
0000
0000
,
1001
0000
0001
0010
0001
0100
0001
0010
,
0100
0010
0100
1000
0001
1000
0100
1000
,
0100
0010
0001
0100
0001
0100
0001
0010
,
0200
0302
0023
0130
,
0202
0303
0100
1000
0001
0010
0001
1000
,
0010
0100
0010
1000
0010
0100
0001
1000
,
0100
1000
0010
0100
0001
0100
0001
1000
,
0200
0001
1000
0001
,
0301
0000
0100
0010
0100
0010
0001
1000
,
0100
1000
0100
0010
0100
0010
0001
0100
,
0001
0010
0001
0100
0010
0100
0010
1000
,
0020
0100
0001
1000
,
0130
0000
1000
0001
0100
0010
0100
1000
,
0010
0100
0010
1000
0001
0100
0010
0100
,
0001
1000
0010
1000
0100
0010
0001
1000
,
0200
0010
0001
0001
,
0301
0000
0010
0100
0001
1000
0010
0100
,
0010
0100
0010
1000
0100
0010
0100
1000
,
0010
0100
0010
0100
0010
1000
0001
0010
,
0100
0000
0000
0000
2002
3003
0000
0000
0220
0330
0000
0000
0202
0303
0000
0000
,
2002
3003
0000
0000
0100
0000
0010
0000
0100
0000
1000
0000
0100
0000
1000
0000
,
0001
0010
0100
1000
0001
0010
0001
0100
,
0010
0100
0010
1000
0001
1000
0001
0010
,
0200
0300
0000
0000
0200
0300
0000
0000
0002
0003
0000
0000
0020
0030
0000
0000
,
2002
3003
0000
0000
0001
0000
0100
0000
0010
0000
1000
0000
0001
0000
0010
0000
,
0001
0010
0100
1000
0001
0010
0001
0100
,
0010
1000
0010
1000
0001
1000
0100
0010
,
2002
3003
0000
0000
0220
0330
0000
0000
0202
0303
0000
0000
2020
3030
0000
0000
,
2002
3003
0000
0000
0100
0000
0010
0000
0001
0000
1000
0000
0010
0000
1000
0000
,
0001
0010
0100
0010
0100
1000
0100
0010
,
2002
0000
3003
0101
,
1001
0000
0110
0000
1010
0000
0000
1000
,
0001
0000
1000
0000
0100
0000
0001
0000
0100
0000
0000
0000
0010
0001
1000
0000
,
0100
0001
0010
1000
0100
0000
0001
1000
,
0100
0000
0001
0100
1000
0000
0200
0000
,
0320
2030
3002
0203
,
0301
2000
0000
3001
,
0000
0010
1000
0000
0001
0000
0000
0000
0100
0000
0000
0000
0001
0000
0010
0000
,
0100
1000
0001
0100
1000
0000
0100
0000
,
0001
0010
0100
0010
0100
1000
0001
0100
,
0001
1000
0100
0000
1001
0000
0100
1000
,
0001
0100
0001
0010
0100
1000
0001
0100
,
0001
0010
0100
0010
0001
1000
0001
0010
,
0100
1000
0010
1000
0001
0010
0001
1000
,
0100
0010
0100
1000
0001
1000
0100
0010
,
0100
1000
0010
1000
0100
1000
0010
0100
,
0001
0100
0010
1000
0010
1000
0010
0100
,
0001
0100
0010
0100
0010
1000
0001
0100
,
0001
1000
0001
1000
0100
0000
0010
0001
,
0100
0010
1000
0000
0010
0000
0100
0000
,
0010
0001
1000
0010
0100
0001
0010
1000
,
0100
1000
0010
1000
,
0001
0010
0100
0000
0010
0100
1000
0000
,
0001
0010
1000
0100
0010
0001
0100
1000
,
0010
0000
0100
0000
0001
0010
0100
1000
,
0001
0100
0010
0000
0101
0000
1000
0000
,
0010
1000
0100
0001
0010
0100
1000
0000
,
0100
0001
1000
0000
0010
1000
0100
0000
,
0010
0100
1000
0000
0001
0010
0100
0010
,
0001
0100
1000
0001
0100
0000
0010
1000
,
0100
0010
0101
1010
,
0110
0000
1001
0000
0001
1000
0100
0001
,
0010
0000
0100
1000
0001
0100
0010
0001
,
0100
0000
1000
0000
0001
0100
1000
0010
,
0100
0000
1000
0000
0001
1000
0010
0001
,
0100
1000
0010
0000
0100
0000
0010
0000
,
0001
0100
1000
0010
0001
0010
1000
0000
,
0100
0000
1000
0001
0100
1000
0010
0001
,
0100
0000
1000
0000
0010
1000
0100
0000
,
0001
0010
0100
0000
0010
1000
0100
0001
,
0010
0100
1000
0000
0010
1000
0100
0000
,
0001
1000
0010
0001
0100
0010
1000
0010
,
0100
2002
0000
0000
,
0000
0000
0000
0000
,
0000
0000
0000
0000
,
0000
0000
3003
0000
,
0000
0000
0000
0000
0000
0000
0000
0000
0010
0000
1000
0000
0001
0100
0010
0000
,
0001
0000
0100
1000
0100
0000
0001
0000
0000
0000
0000
0000
0000
0000
0000
0000
,
0000
0000
0000
0000
1000
0000
0001
0000
1000
0000
0001
0010
0100
1000
0001
0100
,
0010
0000
0001
1000
0001
0000
0100
0000
0010
0000
0000
0000
0000
0000
0000
0000
,
0000
0000
0000
0000
0001
0000
1000
0001
0100
0000
0010
1000
0001
0000
0100
0000
,
1000
0000
0100
0000
0001
0000
0000
1000
0000
0000
0001
0000
0100
0000
0000
0100
,
1000
0000
0000
0000
0000
0000
0000
0000
0100
0000
0010
0100
1000
0000
0000
1000
,
0001
0000
0000
0000
0100
0010
0000
0000
0000
0000
0010
0100
0001
0000
1000
0010
,
0100
0000
0010
0100
0001
0000
0000
0000
1000
0000
0000
0000
0110
0000
0000
0000
,
0001
0010
0000
0000
1000
0001
0000
0000
0000
1000
0000
0000
0000
0000
0001
1000
,
0020
0000
0000
0000
0030
0000
0000
0000
1000
0000
0001
0010
0100
0000
1000
0010
,
0001
0000
0100
1000
0001
0000
0100
0001
2000
0000
0000
0000
3001
0000
0000
0000
,
0000
0000
0000
0000
0000
0000
0000
0000
0100
0000
1000
0010
0001
0000
1000
0001
,
0010
0000
0100
0000
0001
0000
1000
0000
0001
0010
1000
0000
0001
1000
0010
0000
,
0100
0000
0010
0000
0100
0001
1000
0010
0001
0100
1000
0000
0010
0000
0100
0000
,
0010
0000
0100
0000
0010
0001
1000
0010
0100
0000
1000
0010
0001
0000
0010
0000
,
0100
1000
0010
0000
0100
0001
0010
1000
0001
0000
0100
0000
0001
0000
0100
0000
,
0010
0001
1000
0100
0010
0000
0100
0001
0010
0000
0100
0000
0001
0000
0010
0000
,
0100
0000
1000
0010
0001
0100
1000
0000
0001
0000
0010
0000
0001
0100
1000
0000
,
0010
0001
1000
0000
0100
0001
1000
0000
0010
0000
0100
0010
0001
0000
1000
0100
,
0010
0000
0100
0000
0010
0000
1000
0000
0100
0000
1000
0010
0001
0000
0100
0000
,
0010
0000
1000
0000
0100
0000
1000
0000
0100
0000
0010
0100
0001
0000
1000
0000
,
0100
0000
0010
0000
0001
0000
0010
0000
0100
0000
1000
0001
0100
0000
1000
0000
,
0100
0000
0010
0000
0001
0000
0100
0000
0001
1000
0010
0000
0100
0000
0010
0000
,
0100
0000
0010
0000
0001
0000
0100
0000
0001
0000
1000
0000
0001
1000
0010
0000
,
0100
0000
1000
0000
0100
0000
0010
0000
0001
0000
1000
0000
0010
0001
0100
0000
,
0010
0100
0001
0010
0100
0010
0100
1000
,
0001
1000
0010
1000
0010
0100
0001
0100
,
0001
1000
0100
1000
0010
1000
0010
0100
,
0010
1000
0100
0010
0100
0010
0100
1000
,
0001
1000
0001
0010
2002
0000
0000
0000
,
0000
3003
0110
0000
;
