
//----- song ID: gigl -----//
#TITLE:GIGALODOON;
#ARTIST:NAMCO Sound Team "Laur";
#GENRE:ナムコオリジナル;
#MUSIC:GIGALODOON.ogg;
#BANNER:GIGALODOON.png;
#BACKGROUND:GIGALODOON-bg.png;
#CDTITLE:./CDTitles/NSD A3.png;
#SAMPLESTART:112.042;
#SAMPLELENGTH:15.000;
#SELECTABLE:YES;
#OFFSET:0.000;
#BPMS:0.000=120.000
,16.000=240.000
,76.000=480.000
,82.000=240.000
,83.000=480.000
,89.000=240.000
,90.000=960.000
,104.000=120.000
,105.000=480.000
,110.000=240.000
,126.000=120.000
,134.000=240.000
,148.000=480.000
,152.000=240.000
,159.000=480.000
,169.000=120.000
,171.000=240.000
,203.000=480.000
,229.000=240.000
,248.000=60.000
,252.000=480.000
,281.000=120.000
,290.000=480.000
,316.000=120.000
,318.000=116.000
,320.000=109.000
,322.000=106.000
,324.000=99.000
,326.000=67.000
,327.000=100.000
,331.000=105.000
,333.000=110.000
,335.000=227.000
,339.000=228.000
,340.000=249.000
,343.000=240.000
,367.000=120.000
,371.000=960.000
,372.000=240.000
,403.000=480.000
,451.000=960.000
,467.000=240.000
,471.000=480.000
,527.000=120.000
,528.000=240.000
,529.000=480.000
,530.000=960.000
,532.000=240.000
,540.000=480.000
,579.000=960.000
,593.000=240.000
,610.000=480.000
,638.000=960.000
,646.000=120.000
;
#STOPS:256.000=0.125
,261.000=0.125
,270.000=0.125
,298.000=0.125
,312.000=0.124
,371.000=0.188
,646.000=3.000
;
#BGCHANGES:;
#FGCHANGES:;

//--------------- dance-single - ----------------
#NOTES:
     dance-single:
     :
     Beginner:
     8:
     0,0,0,0,0:
0000
0000
0000
0000
,
0000
0000
0000
0000
,
0000
0000
0000
0000
,
0000
0000
0000
0000
,
1000
0100
0000
0001
0000
0100
0000
0010
,
0000
0200
0000
0000
0000
0000
0000
0000
,
0000
0000
0000
0000
,
0310
0000
0000
0000
,
0000
0000
0000
0000
,
0000
0000
0000
0000
,
0000
0000
0000
0000
,
1000
0000
0001
0000
,
0100
0000
0010
0000
,
1000
0000
0001
0000
,
1000
0001
1000
0000
,
0100
0000
0010
0000
,
0001
0000
1000
0001
,
1000
0000
0100
0000
,
0010
0000
0100
0000
,
1000
0000
0000
0000
,
0001
0000
0000
0100
,
0000
0000
0000
0010
,
0000
0000
1000
0000
,
0000
0000
0001
0000
,
0000
0000
0100
0000
,
0000
0000
0000
0000
,
0110
0000
0000
0000
,
0000
0000
1000
0001
,
0100
0000
0010
0000
,
0010
0000
0001
1000
,
0001
0000
0100
0000
,
0100
0000
0001
1000
,
0001
0000
0100
0010
,
0001
0000
1000
0000
,
0001
0000
0100
0010
,
0100
0000
1000
0000
,
0001
0000
0100
0010
,
1000
0000
0000
0000
,
0001
0000
1000
0000
,
0001
0000
0100
0000
,
0000
0010
0000
0100
,
0000
1000
0000
0000
,
0000
1001
0000
0100
,
0010
0100
1000
0001
,
0000
0100
0000
0010
,
0001
0010
0100
1000
,
0000
0001
0000
1000
,
0000
0001
0000
0100
,
0000
0010
0000
0001
,
0000
0010
0000
0100
,
0100
0001
0000
1001
,
0000
0000
0000
0100
,
0000
0000
0000
0010
,
0000
0000
0000
0001
,
0000
0000
0000
1000
,
0000
0000
0000
0001
,
0000
0000
0000
1000
,
0000
0001
1000
0000
,
1001
0000
0100
0000
,
0010
0000
0001
0000
,
1000
0000
0001
0000
,
1000
0000
0001
0000
,
2002
0000
3003
0000
,
0002
0000
0000
0000
,
2003
0000
0000
0000
,
0000
3002
0000
0000
,
2003
0000
3002
0000
,
0000
0000
0203
0000
,
0000
0000
0320
0000
,
0000
2030
0000
0000
,
0000
3001
0010
0100
,
0000
1000
0001
1000
,
0000
0001
0020
0000
,
0000
0000
0000
0000
,
0000
0000
0130
0000
,
0000
2000
0000
0000
,
0000
0000
0000
0000
,
0000
0000
0000
0000
,
0000
0000
3000
0000
,
0001
0100
0010
0000
,
1000
0100
0010
0000
,
1001
0010
0100
1000
,
0100
0010
0000
0001
,
1000
0001
0000
0100
,
0000
1000
0000
0001
,
1000
0001
0000
1001
,
0000
0000
0000
0000
,
0000
0000
0000
0110
,
0000
0000
0000
0000
,
0000
0000
0000
1100
,
0000
0000
0000
0000
0000
0101
0000
0000
,
0000
0000
0000
1001
,
0000
0000
0000
0000
,
1000
0000
0100
0000
,
0010
0000
0001
0000
,
1000
0000
0001
0000
,
0100
0010
0100
0000
,
1000
0000
0001
0000
,
0100
0000
0010
0001
,
0000
0000
0000
0000
,
0000
0000
0000
1000
,
0000
0000
0000
0001
,
0000
0000
0000
0100
,
0000
0000
0000
0010
,
0000
1000
0000
0100
,
0000
0000
0000
0010
,
0000
0000
0000
0001
,
0000
1000
0000
0001
,
0000
0000
0000
0100
,
0000
0010
0000
1000
,
0000
0000
0000
0001
,
0000
1000
0000
0001
,
0000
0000
0000
0100
,
0000
0000
0000
1000
,
0000
0000
0000
0001
,
0000
0000
0000
0000
,
0000
0000
0000
0110
,
0000
0000
0000
1000
,
0000
0001
0000
1000
,
0000
0000
0000
0100
,
0000
0010
0000
0001
,
0000
0000
0000
1000
,
0000
0001
0000
0100
,
0000
0000
0000
0010
,
0000
0000
0000
0100
,
0000
0000
0000
1000
,
0000
0001
0100
0000
,
0000
0000
0000
0010
,
0000
0100
0000
0001
,
0000
0000
0000
1000
,
0000
0001
0000
0100
,
0000
0010
0000
2002
,
0000
0000
0000
0000
,
3003
0000
0000
0000
,
0110
0000
0000
0000
,
0001
0000
1000
0000
,
0001
0000
0000
0000
,
0100
0000
0010
0000
,
1000
0000
0000
0000
,
0001
0000
1000
0000
,
0001
0000
0000
0000
,
0010
0000
0001
0000
,
0010
0000
0000
0000
,
1000
0000
0001
0000
,
0100
0000
0010
1000
,
0000
0002
0000
0000
,
0000
0000
0000
0000
,
0000
0000
0000
0000
,
0000
0003
1001
0000
,
0000
0000
0000
0000
,
0000
0000
0000
0000
,
0000
0000
0000
0000
,
0000
0000
1000
0000
,
0000
0000
0001
0000
,
0000
0000
0100
0000
,
0000
0000
0010
0000
,
0000
0000
0001
0000
,
1000
0000
0001
0000
,
0000
0000
0100
0000
,
0010
0000
0100
0000
,
0000
0000
0000
0000
,
0000
0000
1001
0000
;

//--------------- dance-single - ----------------
#NOTES:
     dance-single:
     :
     Easy:
     12:
     0,0,0,0,0:
0000
0000
0000
0000
,
0000
0000
0000
0000
,
0000
0000
0000
0000
,
0000
0000
0000
0000
,
1000
0001
0000
1000
0000
0001
0000
1000
,
0000
0001
1000
0001
1000
0001
1000
0001
,
1000
0000
0000
0000
0001
0000
0000
0000
1000
0000
0000
0000
0001
0000
0000
1000
0000
0000
0001
0000
0000
1000
0000
0000
,
0002
0000
0000
0000
,
0000
0000
0000
0000
,
0000
0000
0000
0003
,
0000
0000
0000
0000
,
1001
0100
0001
1000
,
0010
1000
0001
0100
,
0010
0100
1000
0001
,
0010
0100
1000
0001
,
0110
1000
0001
0100
,
0010
0000
1000
0000
0001
0000
0010
1000
,
0100
0001
0010
0100
,
1000
0001
0100
1000
,
0001
0000
1000
0000
,
0001
0000
1001
1000
,
0000
0001
0000
1000
,
0000
1001
1000
0000
,
0100
0000
0010
0000
,
0001
0000
0100
1000
,
0010
0000
1000
0010
,
1000
0000
0000
0000
,
0000
0000
0001
1000
,
0001
0100
0010
1000
,
0001
0000
1000
0001
0010
0000
0100
0000
,
0010
0000
1000
0100
0001
0000
0010
0000
,
0100
0000
1000
0000
0001
0100
1000
0000
,
0001
0100
0010
1000
0001
1000
0001
0000
,
0100
0010
1000
0001
1000
0000
0001
0000
,
0100
0000
0010
0100
,
1000
0001
0010
0100
,
0001
1000
0100
0001
,
0200
0000
0000
0000
,
0310
1000
0001
0100
,
0010
0100
1000
0001
,
0000
0100
0000
1000
,
0000
0001
0000
0010
,
0000
0100
0001
1001
,
1000
0001
0100
0020
,
0000
1030
0000
0001
,
0100
0010
1000
0002
,
0000
0023
0000
0130
,
1000
0001
0000
0100
,
1000
0001
0100
0010
,
1000
0001
0000
0100
,
0010
1000
0000
0001
,
0000
1000
0000
0001
,
0000
0010
0000
0100
,
0000
0001
0000
2000
,
0000
0000
0000
3001
,
0000
1000
0000
0001
,
0000
0100
0010
1000
,
0000
0000
0100
0000
,
0001
1000
0001
0000
,
0100
0010
1000
0001
,
0100
0010
1000
0000
,
0001
1000
0001
0100
,
2002
0000
3000
0003
,
0001
1000
0001
1000
,
0001
1000
0001
1000
,
0001
1000
0001
1000
,
0001
0000
0010
0100
,
0010
0100
0010
0100
,
0010
0100
0010
0100
,
0000
1000
0001
1000
,
0000
0000
1000
0000
0100
0001
0010
0000
,
1000
0000
0001
0000
1000
0010
0100
0000
,
1000
0000
0000
0001
0000
0000
1000
0000
0000
0000
0001
0000
,
0000
0000
1000
0000
0000
0000
0001
0000
0000
0000
1000
0000
,
0000
0000
0001
0000
0000
0000
1000
0000
0000
0000
0000
0000
,
0000
0000
0000
1000
0000
0000
0000
0001
0000
0000
0000
1000
,
0000
0000
0000
0001
0000
0000
0000
1000
0000
0000
0000
0001
,
0000
0000
0000
1000
0000
0000
0000
0001
0000
0000
0000
0000
,
2000
0000
0002
3003
,
1000
0100
0010
0000
0001
0000
0010
0000
,
0100
1000
0001
0000
0100
0000
0010
0000
,
1000
0000
0000
0001
0000
0000
0100
0010
1000
0001
0000
0000
,
0010
0000
0100
1000
0001
0000
0100
0000
,
0010
1000
0001
1000
,
0000
0001
0000
0100
,
0100
0001
0000
2002
,
0000
3003
0000
0000
,
0000
0000
0000
0220
,
0000
0330
0000
0000
,
0000
0000
0000
2002
,
0000
0000
3003
0000
0000
0202
0000
0000
,
0000
0303
0000
0000
0000
0000
1001
0000
,
0000
0000
0000
0000
,
1000
0001
0100
0010
,
1000
0000
0001
0000
0100
0000
0010
0100
,
1000
0001
0100
0010
,
1000
0000
0001
0000
0100
0000
0010
0001
,
0100
1000
0001
0100
,
0010
0000
1000
0000
0001
1000
0010
0000
,
0000
0100
0000
1000
,
0001
1000
0000
1001
,
0000
0100
0000
0010
,
0000
0001
0000
1000
,
0000
0001
0000
0100
,
0000
1000
0001
0010
,
0000
0001
0000
0100
,
0000
0001
0010
1000
,
0000
0001
0000
0100
,
0000
0010
0000
0100
,
0000
1000
0000
0001
,
0000
0100
0000
0010
,
0000
0100
0000
1000
,
0000
0001
0000
0100
,
0000
1000
0000
0100
,
0000
0010
0000
0001
,
0000
1000
0000
0001
,
0000
1000
0000
2002
,
0000
0000
3003
0100
,
0000
0010
0000
1000
,
0000
0001
0000
0100
,
0000
0010
0000
1000
,
0000
0001
0000
0100
,
0000
0010
0000
0100
,
0000
1000
0000
0001
,
0000
0100
0000
0010
,
0000
0001
0010
0100
,
0000
1000
0000
0001
,
0000
1000
0000
0001
,
0000
0100
0000
0010
,
0000
0001
0010
0100
,
0000
1000
0000
0001
,
0000
1000
0000
2002
,
0000
0000
3003
0000
,
1001
0000
0000
0000
,
0110
0000
0000
0000
,
0001
0000
1000
0000
,
0001
0000
0100
0000
,
0010
1000
0001
0000
,
0010
0000
0100
0000
,
1000
0000
0001
0000
,
0100
0000
0010
0000
,
1000
0000
0001
0000
,
0100
0000
0001
0010
,
0100
0000
1000
0000
,
0001
0000
0010
1000
,
0000
0001
0000
1000
,
0000
0100
0000
0001
,
0000
0010
0000
0100
,
0000
1000
2002
0000
,
0000
0000
0000
0000
,
0000
0000
3003
0000
,
0000
0000
0000
0000
,
0000
0000
1000
0000
,
0100
0000
0010
0000
,
0100
0000
1000
0000
,
0001
0000
0100
0000
,
0010
0000
1000
0000
,
0001
0000
0100
0000
,
0010
0000
1000
0000
,
0001
0000
1000
0000
,
0000
0000
0001
0000
,
0000
0000
1001
0000
;

//--------------- dance-single - ----------------
#NOTES:
     dance-single:
     :
     Medium:
     16:
     0,0,0,0,0:
0000
0000
0000
0000
,
0000
0000
0000
0000
,
0000
0000
0000
0000
,
0000
0000
0000
0000
,
0010
1000
0000
0001
0000
0100
0000
0010
,
0000
1000
0001
0100
0010
1000
0001
0100
,
0010
0000
0001
0000
1000
0000
0100
0000
0001
0000
0010
0000
1000
0000
0001
0000
0100
0000
0010
0000
0000
1000
0000
0000
,
0002
0000
0000
0000
,
0000
0000
0000
0000
,
0000
0000
0000
0003
,
1000
0000
0010
0100
0001
0000
1000
0000
0000
0000
1001
0000
0000
0000
0110
0000
,
1001
0000
0100
0010
0100
0010
0100
1000
,
0010
0100
0001
0100
0001
1000
0010
1000
,
0001
1000
0001
0010
0100
1000
0001
0100
,
0001
0100
0001
0010
0100
0010
0100
1000
,
0001
0000
1000
0000
0001
0000
0010
1000
,
0100
0000
1000
0000
0001
0010
0100
1000
,
0010
0000
0100
0000
1000
0000
0001
0010
,
0100
0010
1000
0001
,
0010
0001
0010
0000
,
1000
0010
1000
0001
,
1000
0001
0000
1000
,
0001
1000
0001
0000
,
1000
0000
0001
0000
,
1000
0000
0001
0000
,
1000
0001
1000
0001
,
1000
0000
0000
0000
,
1001
0000
0100
1000
,
0100
0001
1000
0001
,
0100
0000
0100
1000
0001
0000
1000
0000
,
0001
0000
0100
1000
0010
0100
0001
0000
,
0010
0000
0100
0000
1000
0001
0100
0010
,
1000
0001
0100
0010
1000
0001
0100
0010
,
1000
0001
0100
0010
1000
0000
0001
1000
,
0001
0000
0010
0000
1000
0001
0010
0100
,
1000
0000
0001
0000
0010
0000
0100
1000
,
0001
0000
0010
0000
0100
1000
0001
0010
,
0200
0000
0000
0000
,
0310
1000
0001
0010
,
0100
1000
0001
1000
,
0001
1000
0001
0010
,
0100
1000
0001
0010
,
0100
0000
2000
0000
3001
1001
0100
0000
,
0010
1000
0001
0100
,
0010
0000
1000
0000
0001
0010
0100
0000
,
1000
0000
0001
0010
1000
0000
0100
1000
,
0001
0010
0100
1000
0001
0010
0100
0001
,
1000
0001
0100
0000
0001
1000
0001
0100
,
0010
0000
0001
1000
0001
0000
1000
0001
,
0100
0010
1000
0000
0001
1000
0001
0100
,
0010
0000
1000
0001
1000
0000
0100
0000
,
0000
0101
0000
0100
,
0000
1100
0000
0100
,
0000
0101
0000
1001
,
0000
0001
1000
0001
,
0000
1000
0000
0001
,
0000
0100
0000
0010
,
0000
2000
0000
0000
,
3001
0010
0100
1000
0001
0000
1000
0001
,
0010
0100
1000
0000
0001
0010
0100
0000
,
1000
0001
0010
1000
0010
0000
1000
0010
,
0100
1000
0001
0000
1000
0001
0100
0000
,
2002
0000
0003
3001
,
0001
0100
0001
0100
,
0001
1000
0100
1000
,
0100
1000
0001
1000
,
0001
0000
1000
0001
,
1000
0001
1000
0001
,
0010
0100
1000
0001
,
0000
1000
0001
1000
,
0000
0000
0001
0100
1000
0000
1001
0000
,
0100
0000
0010
1000
0001
0000
1001
0000
,
0100
0000
0000
0010
0000
0000
1000
0000
0001
0000
1000
0000
,
0001
0000
1000
0000
0001
0000
1000
0000
0001
0000
1000
0000
,
0001
0000
1000
0000
0001
0000
1000
0000
0000
0001
0000
1000
,
0000
0100
0000
0010
0000
0100
0000
0010
0000
0100
0000
0010
,
0000
0100
0000
0010
0000
0100
0000
0010
0000
0100
0000
0010
,
0000
1000
0001
0000
1000
0000
0001
0000
1000
0000
0001
0000
,
2000
0000
0002
3003
,
1001
0000
0100
0000
1000
0001
0100
0000
,
0010
0000
0100
0001
1000
0001
0100
0000
,
0010
0000
0000
1000
0000
0000
0100
0000
0000
0001
0000
0000
1000
0000
0001
0000
0100
0000
0010
0000
0000
1000
0000
0000
,
0001
0100
0010
1000
0001
0100
0010
0100
,
1000
0001
0100
0010
0100
1000
0001
0000
,
0100
0000
1000
0000
0001
0000
1000
0010
,
0001
0000
1000
0010
0001
0000
2002
0000
,
0000
3003
0001
1000
,
0001
0100
0000
0220
,
0000
0330
1000
0100
,
0010
1000
0001
1100
,
0000
0100
0001
1000
,
0001
0100
0010
0100
,
0001
0000
0100
0100
0001
0000
0000
0000
,
1000
0000
0001
0000
1000
0000
0010
0001
,
0100
0000
1000
0000
0001
1000
0010
0100
,
1000
0000
0001
0000
1000
0000
0001
0010
,
0100
0000
1000
0010
0001
0100
1000
0000
,
0001
1000
0001
0010
,
0100
1000
0001
1000
0010
0100
2000
0000
,
0000
0000
0000
0000
3020
0000
0000
0000
0000
0000
0000
0000
0230
0000
0000
0300
,
0200
0000
0000
0300
0002
0000
0000
0000
1003
0000
0000
0000
1001
0000
0000
0000
,
0000
0100
0000
1000
,
0000
1001
0000
0100
,
0000
0010
0000
1000
,
0000
0001
0010
0100
,
0000
1001
0000
0001
,
0000
0100
0010
1000
,
0001
0010
0000
1000
,
0001
1000
0000
0100
,
0000
0001
0000
1000
,
0000
0001
0000
0100
,
0000
0010
0000
1000
,
0000
0001
0010
0100
,
0000
1000
0000
0100
,
0000
0010
0000
0001
,
1000
0001
1000
0001
,
1000
0001
1000
0002
,
0000
1003
0110
1001
,
0000
0110
0000
1000
,
0000
0001
0100
1100
,
0000
0011
0000
1000
,
0000
0001
0010
0100
,
0000
1001
0000
0100
,
0001
0100
1000
0001
,
0000
0100
1000
0100
,
0010
1000
0001
1000
,
0000
1001
0000
0010
,
0100
1000
0001
0100
,
0000
1001
0000
0010
,
0100
0010
1000
0001
,
0100
0000
1000
0001
,
1000
0001
0100
0020
,
0000
0000
0000
0030
,
2020
0000
0000
3030
,
0202
0000
0000
0303
,
1001
0000
0100
0000
,
0010
1000
0001
0000
,
1000
0001
0100
0010
,
1000
0000
0001
0000
,
1000
0000
1001
0000
,
0100
1000
0001
0100
,
0010
0000
1001
0000
,
0010
1000
0001
0100
,
0010
0000
1000
0100
,
0010
0001
0010
1000
,
0010
1000
0001
1000
,
0001
1000
0001
1000
,
0001
1000
0001
1000
,
0001
1000
2002
0000
,
0000
0000
0000
0000
,
0000
0000
3003
0000
,
0000
0000
0000
0000
,
0000
0000
1000
0100
,
1000
0000
0001
0010
,
0001
0000
1000
0001
,
1000
0000
0010
0100
,
0010
0000
1000
0100
,
0010
0000
0001
0010
,
0100
0000
1000
0001
,
1000
0001
1000
0000
,
0001
0000
1000
0000
,
0001
0000
1001
0000
;

//--------------- dance-single - ----------------
#NOTES:
     dance-single:
     :
     Hard:
     18:
     0,0,0,0,0:
0000
0000
0000
0000
,
0000
0000
0000
0000
,
0000
0000
0000
0000
,
0000
0000
0000
0000
,
1001
0110
0000
0101
0000
1010
0000
0101
,
0000
0000
1000
0000
0100
0000
0001
0000
0100
1000
0010
1000
0001
0010
0100
0010
,
0100
0000
0000
0000
0000
0000
0000
0000
1000
0000
0000
0000
0000
0000
0000
0000
0010
0000
0000
0000
0000
0000
0000
0000
1000
0000
0000
0000
0000
0000
0000
0000
0100
0000
0000
0000
0000
0000
0000
0000
0010
0000
0000
0000
0000
0000
0000
0000
0001
0000
0000
0000
0000
0000
0000
0000
1000
0000
0000
0000
0000
0000
0000
0000
0001
0000
0000
0000
0000
0000
0000
0000
1000
0000
0000
0001
0000
0000
1000
0000
0000
0001
0000
0000
1000
0000
0000
0001
0000
0000
1000
0000
0000
0001
0000
0000
,
2000
0000
0000
0000
,
0000
0000
0000
0000
,
0000
0000
0000
3000
,
0001
1000
0001
0000
0010
0000
0200
0000
0310
0000
0200
0000
0310
0000
0002
0000
,
1003
0000
0010
0000
1000
0000
0010
0000
0100
0010
0001
0000
0100
1000
0010
0000
,
0100
0010
0001
0000
1000
0100
0010
0000
1000
0100
0010
0001
1000
0100
0001
1000
,
0010
0000
0001
0000
1000
0001
0100
0000
0010
1000
0100
0000
0010
0000
0100
0001
,
1000
0000
0001
0010
0100
0010
0001
0100
1000
0001
0010
1000
0100
0001
0010
0100
,
0001
0000
1000
0100
0010
0000
0100
0001
0010
0000
0100
1000
0010
0000
1000
0010
,
0001
0000
0100
0010
0001
0000
1000
0010
0100
0000
0010
0000
0001
0000
0100
0000
,
0010
0000
1000
0001
0100
0000
0010
0100
0001
0000
1000
0000
0010
0100
1000
0001
,
0010
0000
1000
0000
0001
0000
0010
0000
0100
1000
0010
0000
0001
0010
0100
1000
,
0100
1000
0100
1000
0001
0100
0001
0010
,
0100
1000
0010
0100
0020
0000
1030
0100
,
0001
1000
0001
0100
0010
0100
0010
0100
,
0001
0010
0002
0000
0103
0000
1000
0000
,
0100
1000
0010
1000
,
0100
0000
0010
0000
0001
1000
0010
0001
,
0100
0000
1000
0000
0100
0001
1000
0010
,
0200
0300
0000
1000
,
0001
1000
0001
1000
0001
0100
0010
0100
,
1000
0100
0010
0110
0000
1000
0100
0010
,
0100
0000
0001
0000
0100
0000
0010
0000
0100
0000
1000
0010
1000
0000
0100
0000
,
0010
0001
0010
0000
0100
0000
1000
0010
1000
0000
0001
0100
0000
0001
0100
0000
,
0010
0000
1000
0001
1000
0001
1000
0000
0010
1000
0100
0010
0001
0010
0100
0010
,
0100
1000
0010
0100
0001
0000
0010
0000
0100
1000
0010
1000
0001
0010
0100
0010
,
0100
0010
0001
0100
0010
0000
1001
0000
0010
0000
0100
0000
0010
0000
1000
0000
,
0100
0010
0100
0010
0001
0010
0100
1000
,
0001
0010
0001
1000
0010
1000
0001
0100
,
0010
1000
0010
1000
0010
0100
0001
1000
,
0200
0000
0000
0000
,
0301
0100
0010
0100
1000
0100
0010
0110
,
0000
1000
0100
0010
0100
0001
0100
0000
,
0010
0000
0100
0000
1000
0010
1000
0000
,
0100
0000
0010
0001
0010
0000
0100
0000
,
1000
0010
1000
0000
0001
0100
0001
0100
,
0010
0100
1000
0100
0010
0110
0000
1000
,
0100
0000
0010
0000
0100
0000
0001
0000
0100
0000
0010
0000
0100
0000
1000
0010
,
1000
0000
0100
0000
0010
0001
0010
0000
0100
0000
1000
0010
1000
0000
0001
0100
,
0000
0001
0100
0000
0010
0000
1000
0001
1000
0001
1000
0000
0010
0000
0001
0000
,
0010
1000
0001
0100
0010
1010
0000
1100
,
0100
0000
0010
0000
0001
1000
0001
1000
0001
0000
0000
0000
0100
0000
0010
1000
,
0000
0000
0001
0000
0010
0000
0000
0000
0010
0000
0001
1000
0001
0000
0100
0010
,
0000
1000
0010
0000
1000
0100
1000
0000
0001
0100
0001
0000
1001
0000
0000
0000
,
0000
0101
0000
1001
,
0000
0110
0000
1001
,
0000
0101
0000
1010
,
0000
0101
0101
1001
,
0000
0101
0000
0101
,
0000
0000
0000
0000
0110
0000
0000
0000
0001
0000
1000
0001
1000
0000
0000
0000
,
1001
0101
0000
0000
,
0010
1000
0010
1000
0100
1000
0100
0010
,
0001
0100
0010
1000
0100
1000
0100
1000
,
0001
0100
0001
0010
0100
1000
0010
0100
,
0001
0010
0001
0010
0001
1000
0100
1000
,
0020
0000
0000
0000
2030
0000
0000
3000
,
0001
1000
0001
1000
0001
1000
0001
1000
,
0001
0000
0010
0100
0010
0100
0010
0100
,
0010
0100
0010
0000
1000
0001
1000
0001
,
1000
0001
1000
0001
1000
0100
0010
0100
,
0010
0100
0010
0100
0010
0000
1000
0001
,
1000
0001
1000
0001
1000
0001
1000
0001
,
1000
0001
1000
0001
1000
0001
1000
0001
,
1000
0000
0001
0000
1000
0000
0000
1000
0000
0000
1010
0000
0000
1010
0000
0000
,
0100
0000
0001
0000
0010
0000
0000
0010
0000
0000
0011
0000
0000
0011
0000
0000
,
1001
0000
0000
0110
0000
0000
1000
0000
0001
0000
1000
0000
,
0001
0000
1000
0000
0001
0000
1000
0000
0001
0000
1000
0000
,
0001
0000
1000
0000
0001
0000
1001
0000
0000
1000
0000
0100
,
0000
0001
0000
0010
0000
0100
0000
0010
0000
0100
0000
0010
,
0000
0000
0000
0000
0100
0000
0000
0000
0000
0000
0000
0000
0010
0000
0000
0000
0000
0000
0000
0000
0100
0000
0000
0000
0000
0000
0000
0000
0010
0000
0000
0000
0000
0000
0000
0000
1000
0000
0000
0001
0000
0000
1000
0000
0000
0001
0000
0000
,
1000
0000
0001
0000
1000
0000
0001
0000
1000
0000
0001
0000
,
2000
0000
0002
3003
,
1000
0000
0000
1000
0000
0000
1010
0000
0000
1010
0000
0000
0100
0000
0001
0000
,
0010
0000
0000
0010
0000
0000
0011
0000
0000
0011
0000
0000
1001
0000
0000
0000
,
0110
0000
0000
0000
0000
0000
1000
0000
0000
0000
0000
0000
0001
0000
0000
0100
0000
0000
0010
0000
0000
0000
0000
0000
0100
0000
1000
0000
0010
0000
0000
0000
0001
0000
1000
0000
0010
0000
0000
0100
0000
0000
0001
0000
0000
0000
0000
0000
,
0100
0000
1000
0000
0010
0000
1000
0000
0010
0000
0001
0000
0100
0000
0000
0000
0100
0000
0010
0000
1000
0001
1000
0000
0110
0000
0000
0000
1000
0000
0100
0000
,
0010
0000
0100
0001
1000
0001
0000
0000
0010
0000
0100
0000
0010
0000
1000
0000
0010
0000
0100
0000
0001
1000
0100
0000
0100
0000
0000
0000
0010
0000
0000
0000
,
0100
0010
0100
1000
0001
0100
0001
0100
,
0001
0000
1000
0000
0001
1000
0002
0000
0000
0003
0000
0000
1001
0000
0000
0000
,
0000
0101
0000
0100
,
0100
0001
0000
1001
,
0000
0000
0100
0001
1000
0010
0100
0001
,
0100
0000
0000
0000
0001
0000
0000
0000
1000
0000
0001
0010
0100
0000
0000
0000
,
1000
0001
0100
0010
1000
0100
0001
0010
0100
0000
2000
0000
0000
0000
3001
0010
,
0100
0010
0001
0100
1000
0010
0100
0001
1000
0100
0010
1000
0002
0000
1003
0000
,
0100
0010
0000
0001
0000
0100
0010
0000
1000
0000
0100
0000
1002
0000
0000
0000
,
1003
0010
0100
0010
0100
0010
1000
0100
,
1000
0000
0001
0000
1000
0000
0001
0000
0010
0000
0001
0100
1000
0000
0010
0000
,
0100
0010
0100
0010
1000
0100
1000
0100
,
0010
0000
0001
0000
0100
0000
0001
0000
1000
0100
0001
0010
1000
0000
0100
0000
,
0010
0001
1000
0100
1000
0100
1000
0010
,
0100
0000
0001
0000
0010
0000
0100
0000
1000
0001
1000
0001
1000
0000
0000
0000
,
0100
0000
0001
1000
0000
0110
0000
0001
,
1000
0110
1001
1000
,
0000
0101
0000
1001
,
0000
0110
0000
0101
,
0000
1001
0000
0101
,
0000
1001
0110
0101
,
0000
1001
0000
0110
,
0000
0000
1100
0000
0001
1000
0001
0000
,
0000
0110
0000
1001
,
0101
0000
0101
0000
1000
0001
1000
0000
,
0100
0010
0001
1000
,
0100
0010
0001
1000
,
0001
0010
0001
1000
,
0100
0010
0001
0010
,
1000
0010
0100
0001
,
0010
0100
1000
0010
,
0100
0010
1000
0010
,
0100
0001
0010
2002
,
3003
0000
0100
0100
0001
0000
1000
0000
,
0001
0100
0010
1000
,
0010
0100
0001
0010
,
0100
0001
1000
0010
,
0100
0000
0001
1000
0001
0000
0010
0000
,
0100
1000
0001
0000
0100
0010
1000
0000
,
0010
1000
0001
0000
1000
0100
0010
0000
,
0001
0000
0100
0000
0001
1000
0010
0000
,
0010
0100
1000
0010
,
0100
0001
1000
0010
,
0100
0001
0010
0100
,
0001
1000
0100
0010
,
1000
0000
0001
0000
0001
0010
0001
0000
,
0100
0001
0100
0000
0001
0000
1000
0010
,
1000
0010
1000
0000
0001
0000
0200
0000
,
0000
0000
0300
0000
,
1000
0100
0010
0001
1000
0000
0000
0000
,
0001
0000
1000
0000
0010
0000
0001
0000
1000
0001
1000
0001
1000
0010
0100
0010
,
0100
1000
0001
0010
,
0100
0000
1000
0010
0100
0000
0010
0000
,
0100
0001
0100
0001
0100
0000
0010
0000
,
1000
0010
0001
0010
,
1000
0100
0001
0001
,
1000
0001
0100
1000
,
0100
0000
0010
1000
0001
1000
0001
0000
,
0010
0000
0100
1000
0001
1000
0001
1000
,
0100
0010
0001
1000
0001
0010
0100
0010
,
0100
1000
0001
0010
0100
0010
0001
0000
,
0100
0001
0100
0001
,
1000
0010
1000
0100
,
1000
0100
0010
0100
,
1000
0010
2002
0000
,
0000
0000
0000
0000
,
0000
0000
0000
0000
,
0000
0000
0000
0000
3003
0000
0000
0100
,
0000
0100
0000
0001
0010
0000
0100
0000
,
0010
1000
0100
1000
,
0001
0100
0010
0100
,
0010
0100
0001
0010
,
0001
0100
0010
0100
,
0010
1000
0010
0100
,
0001
0100
0010
0100
,
0001
0010
0100
0010
,
0001
1000
0010
1000
,
0100
0000
0000
0000
0000
0000
0000
0000
0000
0000
0000
0000
0000
0000
0000
0000
0010
0000
0000
0000
0000
0000
0000
0000
0000
0000
0000
0000
0000
0000
0000
0000
2002
3003
0000
0000
0000
0000
0000
0000
0000
0000
0000
0000
0000
0000
0000
0000
0000
0000
0000
0000
0000
0000
0000
0000
0000
0000
0000
0000
0000
0000
0000
0000
;
