
//----- song ID: gaxd -----//
#TITLE:GABBA THA FUTURE XD;
#ARTIST:NAMCO Sound Team "Xenon";
#GENRE:ナムコオリジナル;
#MUSIC:GABBA THA FUTURE XD.ogg;
#BANNER:GABBA THA FUTURE XD.png;
#BACKGROUND:GABBA THA FUTURE XD-bg.png;
#CDTITLE:./CDTitles/NSD A3.png;
#SAMPLESTART:72.522;
#SAMPLELENGTH:15.000;
#SELECTABLE:YES;
#OFFSET:0.000;
#BPMS:0.000=112.500
,16.000=56.250
,18.000=225.000
,86.000=150.000
,90.000=112.500
,93.000=150.000
,96.000=225.000
,100.000=450.000
,107.000=112.500
,108.000=900.000
,116.000=112.500
,172.000=225.000
,188.000=112.500
,192.000=225.000
,212.000=450.000
,216.000=225.000
;
#STOPS:212.000=0.267
,213.000=0.267
;
#DISPLAYBPM:112.000:225.000;
#BGCHANGES:;
#FGCHANGES:;

//--------------- dance-single - ----------------
#NOTES:
     dance-single:
     :
     Beginner:
     4:
     0,0,0,0,0:
0000
0000
0000
0000
,
0000
0000
0000
0000
,
0000
0000
0000
0000
,
1001
0000
0000
0100
0000
0000
0010
0000
,
0000
0000
1000
0000
,
0000
0001
0000
0000
,
0000
0000
0100
0000
,
0000
0000
0010
0000
,
0000
0000
1000
0000
,
0000
0000
0001
0000
,
0000
0000
0100
0000
,
0010
0000
0001
0000
,
0000
0000
1000
0000
,
0000
0001
0000
0000
,
0100
0000
0010
0000
,
0000
1000
0000
0000
,
0001
0000
0100
0000
,
0000
0000
0010
0000
,
0000
0000
1000
0000
,
0000
0000
0001
0000
,
0000
0000
0200
0000
,
0000
0000
0000
0000
,
0000
0000
0000
0000
,
0000
0320
0000
0000
,
0000
0000
0000
0000
,
0000
0000
0000
0000
,
0000
0000
0000
0030
,
0000
0000
0000
0000
,
0000
0000
0000
0000
,
1001
0000
0100
0000
,
0010
0100
1000
0001
,
0100
0000
0010
0000
,
0001
0000
0000
1000
0000
0000
0001
0000
,
0010
0000
1000
0000
,
0001
0010
0100
0010
,
1000
0000
0001
0000
,
0100
0000
0010
0000
,
1001
0000
0000
0000
,
0000
0000
0000
0000
,
1000
0000
0000
0000
,
0001
0000
0000
0000
,
0010
0000
0000
0000
,
0100
0000
0000
0000
,
1000
0000
0000
0000
,
0001
0000
0000
0000
,
1000
0000
0001
0000
,
0100
0100
0001
0000
,
1001
0000
0000
0000
,
1001
0000
0100
0000
,
0010
0000
0001
0000
,
1000
0000
0000
0000
,
0001
0000
0000
0000
,
0100
0000
0000
0000
,
0010
0100
0010
0000
,
0100
0000
0000
0000
,
1000
0000
0000
0000
,
0001
0000
0000
0000
,
0100
0000
1000
0000
,
0001
0000
0000
0000
,
0010
0000
0000
0000
,
0100
0000
0000
0000
,
0001
0000
0000
0000
,
1000
0000
0000
0000
,
0001
0000
0000
0000
,
0100
0000
0000
0000
,
0010
0000
0000
0000
,
0001
0000
0000
0000
,
1000
0000
0000
0000
,
0001
0000
0000
0000
,
0100
0000
0000
0000
,
0010
0000
0000
0000
,
1000
0000
0000
0000
,
0001
0000
0000
0000
,
0100
0000
0001
0000
,
1000
0000
0000
0000
,
0100
0000
0000
0000
,
0010
0000
0000
0000
,
0001
0000
0000
0000
,
1001
0000
0000
0000
;

//--------------- dance-single - ----------------
#NOTES:
     dance-single:
     :
     Easy:
     7:
     0,0,0,0,0:
0000
0000
0000
0000
,
0000
0000
0000
0000
,
0000
0000
0000
0000
,
0001
0000
0000
0000
0000
0000
0100
0000
0000
0000
1000
0000
0000
0001
0000
0000
,
0200
0000
0000
0020
0000
0000
0330
0000
1000
0000
0000
0000
0000
0000
0000
0000
,
0000
0100
0000
0010
,
0100
1000
0001
0000
,
0100
0000
0010
1000
,
0001
0000
0100
0000
,
0010
0000
0001
0000
,
1000
0000
0001
0000
,
0100
0000
0010
0001
,
1000
0000
1001
0000
,
0100
0000
0010
0000
,
0001
0000
0010
0000
,
0100
0000
1000
0000
,
0001
0000
0100
0000
,
1000
0000
0001
0000
,
0100
0000
0010
0000
,
0100
0000
1000
0001
,
1000
0000
0100
0000
,
0100
0000
0000
0000
0000
0000
0100
0000
0000
0000
0100
0000
,
0000
0000
0100
0000
0000
0000
0100
0000
0000
0100
0000
0000
,
0100
0000
0000
0010
0000
0000
0000
0010
0000
0000
0000
0010
,
0000
0000
0000
0010
0000
0000
0000
0010
,
0000
0010
0000
0010
,
0000
0010
0000
0010
,
0000
0000
0000
0000
,
0000
0000
0000
0000
,
1001
0000
0100
0010
,
0001
1000
0001
0100
,
1001
0100
0010
0001
,
0100
0000
0000
0000
0000
0000
0110
0000
0000
1000
0000
0000
0001
0000
0000
0000
,
0100
0010
0100
1000
,
0001
0100
0010
1000
,
0001
0100
0010
1000
,
0001
1000
0001
0000
0100
0010
0100
0000
,
2002
0000
0000
0000
,
3003
0000
0000
0000
,
0020
0000
0000
0030
,
0200
0000
0000
0300
,
1000
0001
0100
0000
,
0010
1000
0001
0000
,
0100
0000
1000
0000
,
0001
0000
0100
0000
,
0010
0000
0001
0000
,
1000
0000
1001
0000
,
0100
0000
0000
0000
,
0001
0000
1000
0000
,
0001
0000
0100
0000
,
0020
0000
0000
0030
,
1000
0000
0001
0000
,
0100
0000
0010
0000
,
0001
1000
0001
0000
,
1001
0000
0001
0000
,
0100
0000
0001
0000
,
1000
0000
0001
0000
,
0100
0000
0010
0000
,
0100
0000
1000
0000
,
0001
0000
0100
0000
,
0010
0000
0001
0000
,
0020
0000
0000
0030
,
0100
0000
1000
0000
,
0001
0000
0100
0000
,
0010
0000
0001
0000
,
0010
0000
1000
0000
,
0002
0000
0003
2000
,
0000
0000
3000
0000
,
0001
0000
0010
0000
,
0100
0000
0000
0000
,
0001
0000
1000
0000
,
0001
0100
1000
0000
,
0010
0000
0001
0000
,
1000
0001
0100
0000
,
0020
0000
0030
0000
,
2000
0000
3000
0000
,
0001
0000
1000
0000
,
0001
0100
1000
0000
,
1001
0000
0000
0000
;

//--------------- dance-single - ----------------
#NOTES:
     dance-single:
     :
     Medium:
     12:
     0,0,0,0,0:
0000
0000
0000
0000
,
0000
0000
0000
0000
,
0000
0000
0000
0000
,
1001
0000
0000
0000
0200
0000
0320
0000
0030
0000
2000
0000
0000
3001
0000
0000
,
0200
0000
0000
0020
0000
0000
0330
0000
2000
0000
0000
0000
0000
0000
0000
0000
,
0000
3002
0000
0103
,
1000
0010
0001
1000
,
0001
0100
0010
0100
,
1000
0001
0200
0000
,
0301
0020
0000
0000
,
0230
0000
0010
0000
0000
0001
0000
0000
,
0301
0000
0000
0010
0000
0000
1000
0000
,
0000
0000
0001
0100
1000
0000
0001
0000
,
0100
0010
1000
0001
,
0100
0010
0100
1000
,
0001
0000
0100
0000
0010
0000
0001
1000
,
0010
0000
0100
0000
1000
0100
0001
0000
,
0010
0001
0100
0000
1000
0100
0001
0000
,
0100
1000
0010
0000
1000
0001
0100
0000
,
0010
0100
0000
1000
0001
0000
0010
0000
,
0100
1001
0100
1000
,
0010
0000
0000
0100
0000
0000
0010
0000
0100
0000
1000
0000
,
0010
0000
0000
0000
0001
0000
0000
0000
1000
0000
0000
0000
0100
0000
0000
0001
0000
0000
1000
0000
0000
0100
0000
0000
,
0010
0000
0000
0001
0000
0000
0100
0000
0000
0000
1000
0000
0000
0000
0010
0000
0000
0000
0100
0000
0000
0000
1000
0000
,
0000
0001
0000
0100
0000
0010
0000
1000
,
0010
1000
0001
0010
,
0001
1000
0001
0200
,
0310
0000
0000
0000
,
0000
0000
0000
0000
,
1001
0000
0000
0001
0000
0000
1000
0000
0100
0000
0000
0000
0010
0000
0100
0000
,
0001
0100
1000
0010
0001
0010
0100
0100
,
1001
0000
0000
0010
0000
0000
1000
0000
0010
0000
0000
0000
0001
0000
0000
0000
,
0101
0000
0000
0000
0000
0000
0110
0000
0000
1000
0000
0000
0101
0000
0000
0000
,
0100
0000
0000
1000
0000
0000
0010
0000
0100
0000
0001
0000
1000
0000
0010
0000
,
0001
1000
0100
0001
0010
0100
1000
0010
,
0001
0000
0000
1000
0100
0000
0001
0000
0010
0000
0100
0000
1000
0001
0100
0010
,
0001
1000
0001
0000
0100
0010
0100
0000
,
2002
0000
0000
0000
,
3003
0000
0000
0000
,
1000
0000
0001
0000
,
0100
0000
0010
0100
,
1000
0100
0001
0000
0100
1000
0010
0000
,
1000
0010
0001
0000
0100
1000
0010
0000
,
1000
0001
0100
0010
,
1000
0001
0010
0100
,
1000
0001
0010
0000
0100
1000
0001
0000
,
0010
0100
1010
0000
,
0002
0000
0100
0000
0010
0000
0100
1003
,
0010
1000
0100
0010
,
0001
1000
0010
0000
0001
0000
0010
0000
,
0100
0001
1000
0000
0001
0000
0010
0000
,
0001
1000
0100
0000
0001
0000
0100
0000
,
0010
0000
0000
0100
0000
0000
1000
0000
0000
0000
0001
0000
0100
0000
0000
0000
,
1001
0011
0110
0000
,
0100
0001
1000
0000
0010
0000
0100
0000
,
0010
0000
0100
0001
0010
0000
1000
0000
,
0100
0001
0010
0000
0001
0000
1000
0000
,
0001
1000
0010
0000
0001
0000
0100
0000
,
0010
0001
1000
0000
0010
0001
1000
0000
,
0100
0000
1000
0000
0010
1000
0100
0000
,
0001
0000
0010
0001
0100
0010
1000
0000
,
0100
0000
0000
0010
0000
0000
0110
0000
,
0010
0001
1000
0000
0100
0000
1000
0000
,
0001
1000
0010
0100
,
0010
1000
0100
0000
0001
0000
0100
0000
,
0010
0001
1000
0000
0001
0100
1000
0000
,
0010
0000
0000
1000
0000
0000
0001
0000
0000
0000
0100
0000
0010
0000
0000
0000
,
0100
0001
1000
0000
0001
0000
0100
1000
,
0010
0000
1000
0000
0001
0000
0100
0001
,
0010
1000
0100
1000
,
0010
0100
1000
0000
0001
0000
0100
0000
,
0010
1000
0010
0100
,
0001
0010
1000
0000
0001
0000
1000
0000
,
0010
0001
1000
0000
0001
0000
0010
0000
,
0001
0000
0000
1000
0000
0000
0010
0000
0000
0000
0100
0000
2000
0000
0000
0000
,
0000
3001
0100
0000
0001
0010
1000
0000
,
0001
0000
0100
0000
0001
0000
0010
1000
,
0100
1000
0001
1000
,
1001
0000
0000
0000
;

//--------------- dance-single - ----------------
#NOTES:
     dance-single:
     :
     Hard:
     16:
     0,0,0,0,0:
0000
0000
0000
0000
,
0000
0000
0000
0000
,
0000
0000
0000
0000
,
1002
0000
0000
0000
1003
0000
0120
0000
0000
0000
1030
0000
0001
0200
0000
0000
,
0320
0000
0000
0200
0000
0000
0330
0000
1000
0000
0001
0000
0200
0000
0000
0000
,
0000
0320
0000
2030
,
3002
0203
0320
0230
,
2300
0000
3002
0000
0203
0000
0310
0002
,
0000
2003
3200
0000
,
0320
0032
2003
0000
,
3002
0000
0100
0000
0000
0010
0000
0000
,
1000
0000
1000
0000
0100
0000
0013
0001
,
1000
0000
0100
1000
0010
0100
0010
0100
,
0001
0100
0001
0010
0001
1000
0010
1000
,
0001
0010
0001
1000
0010
0100
0010
1000
,
0001
0010
0100
0010
0001
1000
0001
0100
,
0001
0100
0010
0100
0010
1000
0010
1000
,
0001
0000
0010
0000
0100
0000
0010
0000
1000
0001
0100
0010
0100
0001
1000
0010
,
0100
0001
0010
1000
0100
0001
1000
0010
0001
0000
1000
0000
0100
0000
1000
0000
,
0001
0000
0010
0000
0100
0000
1000
0000
0100
0001
1000
0000
0010
0100
1000
0000
,
0001
1000
0010
0000
0202
0303
0000
0000
1000
0000
0010
0000
0001
0000
0100
0000
,
0010
0000
0000
1000
0000
0000
0100
0000
0000
0010
0000
0000
1000
0000
0100
0000
0010
0000
0001
0000
0010
0000
0100
0000
,
1000
0000
0000
0000
0001
0000
0000
0000
0100
0000
0000
0000
0010
0000
0000
0000
0100
0000
0000
0000
1000
0000
0000
0000
0001
0000
0000
0010
0000
0000
0100
0000
0000
1000
0000
0000
0001
0000
0000
0010
0000
0000
1000
0000
0000
0100
0000
0000
,
0001
0000
0000
0010
0000
0000
1000
0000
0000
0100
0000
0000
0001
0000
0000
0000
0000
0000
0000
0000
0000
0000
0000
0000
0010
0000
0000
0000
0000
0000
0000
0000
1000
0000
0000
0000
0000
0000
0000
0000
0001
0000
0000
0000
0000
0000
0000
0000
0010
0000
0000
0000
0000
0000
0000
0000
0100
0000
0000
0000
0000
0000
0000
0000
1000
0000
0000
0000
0000
0000
0000
0000
0001
0000
0000
0000
0000
0000
0000
0000
0100
0000
0000
0000
0000
0000
0000
0000
0010
0000
0000
0000
0000
0000
0000
0000
,
0100
0000
1000
0000
0100
0000
0010
0000
0001
0000
0010
0000
0100
0000
1000
0100
,
0010
1000
0010
0100
0001
1000
0100
1000
,
0010
1000
0010
0100
0010
1000
0002
0000
,
1003
0000
0000
0000
,
0000
0000
0000
0000
,
1001
0000
0000
0100
0010
1000
0001
0010
0100
1000
0010
0100
0001
1000
0000
0010
,
0002
0000
1003
0010
0100
1000
0010
1000
0001
0100
1000
0010
0001
1000
0100
0001
,
1010
0000
0000
0100
0001
1000
0010
0000
0001
0010
0100
0001
1000
0100
0010
0001
,
2000
0000
0000
0000
3001
0000
0110
0000
0000
1001
0000
0000
0101
0000
0000
0000
,
1001
0000
0000
0100
0010
1000
0001
0010
0100
1000
0010
0100
0001
1000
0000
0010
,
0002
0000
1003
0010
0100
1000
0010
1000
0001
0100
1000
0010
0001
1000
0100
0001
,
1000
0010
1000
0100
0001
1000
0010
0000
0001
0010
0100
0001
1000
0100
0010
0001
,
0200
0000
0000
0000
0000
0000
0000
0000
0000
2300
0000
0000
0000
0000
0000
0000
0000
0000
3002
0000
0000
0000
0000
0000
0203
0000
0000
0000
0000
0000
0000
0000
0310
0000
0000
0000
0001
0000
0000
0000
1000
0000
0000
0000
0001
0000
0000
0000
,
0200
0000
0000
0000
,
0310
0000
0000
0001
0000
0000
0010
0000
1000
0000
0000
0010
0000
0100
0000
0000
,
0001
0000
0000
0010
0000
0100
0000
0000
1000
0000
0100
0001
0000
0010
0000
0000
,
1000
0000
0000
0100
0000
0010
0000
0000
0001
0000
0000
1000
0000
0001
0000
0000
,
0010
0100
0001
1000
0010
0100
0001
1000
,
0100
1000
0100
0010
0100
1000
0010
1000
,
0010
1000
0010
1000
0010
0100
0001
0010
,
0100
0010
0100
1000
0010
0100
0001
1000
,
0001
0100
0010
1000
0010
0100
0010
0100
0001
0010
0001
0010
0100
1000
0100
1000
,
0200
0000
0310
0000
,
0100
0000
0000
0000
0010
0000
0000
0000
0100
0000
0000
0000
0010
0000
0000
0000
0100
0000
0001
0000
1000
0000
0100
0000
0010
0100
0001
0100
1000
0000
0000
0000
,
0010
1000
0001
0010
0100
0010
0001
0010
,
0001
1000
0010
0100
0010
0100
0001
1000
,
0100
0010
0100
0010
0001
0010
0100
1000
,
0100
1000
0010
0100
0001
0100
0010
0100
,
0010
0000
0000
0100
0000
0000
0001
0000
1000
0000
0100
0000
0001
0000
1000
0000
,
0101
1001
0120
0000
,
1030
0100
0010
0100
0010
0100
1000
0001
,
0010
0001
1000
0100
1000
0001
0100
0001
,
0100
0010
0100
0001
0010
0100
1000
0100
,
0010
0100
0010
0001
1000
0001
1000
0001
,
0100
1000
0010
0001
0100
0000
0001
0000
1000
0000
0001
0000
1000
0000
0001
0000
,
0100
1000
0010
0001
0100
0000
0001
0000
1000
0000
0100
0000
1000
0000
0001
0000
,
1000
0100
0010
0001
0100
0000
0001
0000
0100
1000
0001
0010
0100
1000
0010
0001
,
0200
0300
0000
0000
0000
0000
2002
0000
3003
0000
0000
0000
0202
0000
0303
0000
,
0001
0100
0001
1000
0010
0100
0001
0100
,
0010
0100
0010
1000
0100
1000
0001
0010
,
0100
0010
0100
1000
0010
1000
0001
0100
,
0001
1000
0001
0010
0100
1000
0100
0010
,
0001
0000
0000
0001
0000
0000
0001
0000
0100
0000
1000
0000
0002
0000
0000
0000
,
0000
1003
0100
0010
0001
1000
0001
0100
,
1000
0000
0001
0000
0100
0000
0010
0000
1000
0100
0001
0010
0100
1000
0010
0001
,
0200
0320
0032
2003
,
3001
0010
1000
0001
0100
0010
1000
0010
,
0100
0010
0100
0001
0010
0001
1000
0100
,
0010
0100
0010
0001
0100
0001
1000
0010
,
1000
0001
1000
0100
0010
0001
0010
0100
,
1000
0000
0000
1000
0000
0000
1000
0000
0010
0000
0001
0000
2000
0000
0000
0000
,
0000
3001
0010
0100
1000
0001
1000
0010
,
0001
0000
1000
0000
0010
0000
0100
0000
0001
0010
1000
0100
0010
0001
0100
1000
,
0020
0000
0230
0000
2300
0000
3002
0003
,
2002
0000
0000
0000
,
0000
0000
0000
0000
,
3003
0000
0000
0000
;
