#VERSION:0.83;
#TITLE:Finale Woah;
#ARTIST:Crash Bandicoot;
#GENRE:UNDERCRASH;
#BANNER:Finale Woah.png;
#BACKGROUND:Finale Woah.png;
#CDTITLE:./CDTitles/NSD A3.png;
#MUSIC:Finale Woah.ogg;
#SAMPLESTART:63.159;
#SAMPLELENGTH:15;
#BPMS:0=95,36=190,100=95,128=47.5,130=190;
#DISPLAYBPM:48:190;
#STAGE:28;
#NOTEDATA:;
#STEPSTYPE:dance-single;
#DESCRIPTION:;
#DIFFICULTY:Beginner;
#METER:2;
#NOTES:
0000
0000
0000
0000
,
0000
0000
0000
0000
,
0000
0000
0000
0000
,
2000
3000
0000
0000
,
2000
3000
0000
0000
,
0002
0003
0000
0000
,
0002
0003
0000
0000
,
0200
0300
0000
0000
,
0200
0300
0000
0000
,
0010
0000
0000
0000
,
1000
0000
0000
0000
,
0001
0000
0000
0000
,
0000
0000
0000
0000
,
0100
0000
0000
0000
,
0001
0000
0000
0000
,
1000
0000
0000
0000
,
0000
0000
0000
0000
,
0001
0000
0000
0000
,
0100
0000
0000
0000
,
0010
0000
0000
0000
,
0000
0000
0000
0000
,
1000
0000
0000
0000
,
0010
0000
0000
0000
,
0100
0000
0000
0000
,
0000
0000
0000
0000
,
0002
0003
0000
0000
,
0020
0030
0000
0000
,
0200
0300
0000
0000
,
2000
3000
0000
0000
,
0002
0003
0000
0000
,
0200
0300
0000
0000
,
0020
0030
0000
0000
,
0110
0000
0001
0000
,
0000
0000
1000
0000
,
0000
0000
0010
0000
,
0000
0000
0000
0000
,
0000
0000
0100
0000
,
0000
0000
0001
0000
,
0000
0000
1000
0000
,
0000
0000
0000
0000
,
0000
0000
0001
0000
,
0000
0000
0010
0000
,
0000
0000
0100
0000
,
0000
0000
1000
0000
,
0000
0000
1000
0000
,
0000
0000
0010
0000
,
0000
0000
0100
0000
,
0000
0000
0001
0000
,
0000
0000
0001
0000
,
0000
0000
1000
0000
,
0000
0000
0010
0000
,
0000
0000
0100
0000
,
0000
0000
0100
0000
,
0000
0000
0001
0000
,
0000
0000
1000
0000
,
0000
0000
0100
0000
,
0000
0000
0100
0000
,
0000
0000
1000
0000
,
0000
0000
0010
0000
,
0000
0000
0100
0000
,
0000
0000
0001
0000
,
0000
0000
0010
0000
,
0000
0000
0100
0000
,
0000
0000
1000
0000
,
0000
0000
2002
0000
,
0000
0000
0000
0000
,
0000
0000
3003
0000
;
#NOTEDATA:;
#STEPSTYPE:dance-single;
#DESCRIPTION:;
#DIFFICULTY:Easy;
#METER:5;
#NOTES:
0000
0000
0000
0000
,
0000
0000
0000
0000
,
0000
0000
0000
0000
,
0002
0003
2000
3000
,
0002
0003
2000
3000
,
0002
0003
0002
0003
2000
3000
2000
3000
,
0002
0003
0002
0003
0200
0300
0020
0030
,
2000
3000
2000
3000
0002
0003
0002
0003
,
2000
3000
2000
3000
0020
0000
0030
0000
,
1001
0000
1000
0000
,
0010
0000
0010
0000
,
0100
0000
0001
0000
,
1000
0001
1000
0000
,
0001
0000
0010
0000
,
0100
0000
1000
0000
,
1000
0000
0001
0000
,
0100
0010
0100
0000
,
0010
0000
1000
0000
,
0001
0000
0001
0000
,
1000
0000
0100
0000
,
0010
0001
0010
0000
,
0001
0000
1000
0000
,
0010
0000
0010
0000
,
0100
0000
0001
0000
,
1000
0001
1000
0000
,
1001
0000
2000
3000
,
0002
0003
0020
0030
,
0200
0300
2000
3000
,
0020
0030
0200
0300
,
0002
0000
2003
0000
,
3020
0000
0230
0000
,
0320
0000
2030
0000
,
3001
0000
0001
0000
,
1000
0000
0001
0000
,
1000
0000
0010
0000
,
0100
0000
0001
0001
,
1000
1000
0010
0000
,
0100
0000
0001
0000
,
0010
0000
0100
0000
,
1000
0000
0010
0100
,
0001
0000
0001
0000
,
1000
0000
0100
0000
,
1000
0000
0010
0000
,
0100
0000
0001
0010
,
0100
1000
0001
0000
,
0001
0000
1000
0000
,
0010
0000
0100
0000
,
0001
0000
2000
0000
,
3010
0000
0010
0100
,
0010
0000
1000
0001
,
1000
0000
0010
0000
,
0100
0000
0001
0010
,
0100
1000
0001
0000
,
0001
0000
0010
0000
,
0100
0000
1000
0000
,
0001
0000
0200
0000
,
0310
0000
1000
0010
,
1000
0000
0001
0100
,
0001
0000
1000
0100
,
0010
0001
2002
0000
,
3003
0000
0001
0000
,
0100
0000
0001
0000
,
0010
0000
0100
1000
,
0001
0100
0010
0000
,
1000
0000
2002
0000
,
0000
0000
0000
0000
,
0000
0000
3003
0000
;
#NOTEDATA:;
#STEPSTYPE:dance-single;
#DESCRIPTION:;
#DIFFICULTY:Medium;
#METER:8;
#NOTES:
0000
0000
0000
0000
,
0000
0000
0000
0000
,
0000
0000
0000
0000
,
2000
3000
0002
0003
2000
3000
0002
0003
,
2000
3000
0002
0003
2000
3000
0002
0003
,
0100
0100
0010
0000
0100
0100
0001
0000
,
0100
0100
0010
1000
0001
0010
0100
1000
,
0010
0010
0100
0000
0010
0010
1000
0000
,
0010
0010
0100
0001
1000
0100
0010
0000
,
0011
0000
1000
0000
,
0001
0010
0100
0010
,
0001
0100
0001
1000
,
0002
0023
0230
2300
,
3001
0000
MMMM
0000
,
0001
1000
0100
1000
,
0010
0100
0001
1000
,
0020
0230
0302
0003
,
1000
0000
MMMM
0000
,
0010
0010
1000
0001
,
0100
0100
0001
0010
,
0200
2300
3002
0203
,
0310
0000
MMMM
0000
,
1000
1000
0001
0010
,
0100
0100
1000
0001
,
0200
0320
2030
3000
,
1001
0002
0023
0230
,
2300
0000
3002
0203
,
0320
0000
0000
0000
,
0230
0000
0000
0300
,
0001
2000
3200
0320
,
0032
0000
0023
0230
,
2300
0000
0000
0000
,
3010
MMMM
0010
0010
,
0100
0001
1000
1000
,
0100
0010
0001
0001
,
0100
0010
2000
3200
,
0320
0032
1003
0010
,
0100
0001
1000
0000
,
MMMM
0000
1000
0010
,
0100
0001
2000
0000
,
0002
3003
1000
1000
,
0100
0010
0001
0001
,
1000
0010
0100
0100
,
0001
1000
0002
0023
,
0230
2300
3001
0100
,
0010
1000
0001
0000
,
MMMM
0000
0001
0100
,
0010
1000
0002
0000
,
2000
0000
3003
0000
1001
0000
0000
MMMM
,
0000
MMMM
0000
0000
0110
0000
0000
MMMM
,
0000
MMMM
0000
0000
1001
0000
0000
MMMM
,
0000
MMMM
0000
0000
0002
0000
0023
0000
,
0230
2300
3001
0100
,
0001
0010
0001
1000
,
0100
1000
0010
1000
,
0001
0010
0200
0000
,
2000
0000
3300
0000
0011
0000
0000
MMMM
,
0000
MMMM
0000
0000
1100
0000
0000
MMMM
,
0000
MMMM
0000
0000
0101
0000
0000
MMMM
,
0000
MMMM
0000
0000
1010
0000
0000
MMMM
,
0000
MMMM
0000
0000
0001
0000
1000
0000
,
0010
0100
0010
1000
,
0100
0010
0001
0010
,
0100
1000
0020
0000
,
0200
0330
2002
0000
,
0000
0000
0000
0000
,
0000
0000
3003
0000
;
#NOTEDATA:;
#STEPSTYPE:dance-single;
#DESCRIPTION:;
#DIFFICULTY:Hard;
#METER:13;
#NOTES:
0000
0000
0000
0000
,
0000
0000
0000
0000
,
0000
0000
0000
0000
,
0002
0003
2000
3000
0002
0003
2000
3000
,
0002
0003
2000
3000
0002
0003
2000
3000
,
0001
0000
0010
0001
0010
0000
0100
0000
1000
0000
0010
1000
0010
0000
0100
0000
,
0001
0000
1000
0100
0010
0000
0100
0000
1000
0000
0010
0000
0100
0000
0001
0000
,
1000
0000
0100
1000
0100
0000
0010
0000
0001
0000
0100
0001
0100
0000
0010
0000
,
1000
0000
0001
0010
0100
0000
0010
0000
0001
0000
1000
0000
0001
0000
MMMM
0000
,
0001
0000
0001
0100
0010
0000
1010
0000
,
1000
0000
0100
0010
0001
0000
1001
0000
,
1000
0000
0010
0100
0001
0000
0011
0000
,
0020
0230
2300
3002
,
1003
0000
1000
0010
0100
0000
0101
0000
,
0001
0000
0010
0100
1000
0000
1001
0000
,
0001
0000
1000
0010
0100
0000
0010
0000
,
2000
0000
3002
0000
0203
0000
0300
MMMM
,
0100
0000
0001
0010
0100
0000
1100
0000
,
1000
0000
0010
0100
0010
0000
1010
0000
,
1000
0000
0001
1000
0100
0000
0110
0000
,
0002
0023
0230
2300
,
3010
0000
0010
0100
0001
0000
0011
0000
,
0010
0000
0100
1000
0001
0000
0101
0000
,
0100
0000
0010
1000
0001
0000
0010
0000
,
0200
0000
2300
0000
3002
0000
0003
MMMM
,
0001
0000
2000
3200
0320
0032
2003
3020
,
0230
0000
0300
0000
0000
MMMM
0000
0000
0200
0000
0302
0000
2003
0000
3200
0000
,
2300
0000
3000
0000
0000
MMMM
0000
0000
2000
0000
3020
0000
0230
0000
0302
0000
,
0023
0000
0030
0000
0000
MMMM
0000
0000
0010
0000
0100
0000
1000
0000
0001
0000
,
0100
0010
2000
3200
0320
0032
0023
0230
,
2300
0000
3000
0000
0000
MMMM
0000
0000
2000
0000
3002
0000
0203
0000
0320
0000
,
0032
0023
2030
3200
0320
0032
0203
0302
,
1003
MMMM
MMMM
MMMM
1000
0000
0100
1000
,
0010
0000
0110
0000
0101
0000
0001
0010
,
0100
0000
1100
0000
1001
0000
0001
0100
,
0010
2010
0001
0100
,
3001
0000
MMMM
0000
1001
0000
1000
0010
,
0100
0000
0001
0010
0011
0000
1000
0100
,
0010
0000
0011
0000
1100
0000
0001
0100
,
1000
0200
1000
0010
,
0301
0000
MMMM
0000
0001
0000
0100
0001
,
0010
0000
0100
1000
0010
0000
0100
0001
,
1000
0000
1100
0000
0011
0000
1000
0010
,
0100
0000
1000
0100
0002
0000
1000
0000
,
0013
0000
MMMM
0000
1100
0000
0001
1000
,
0010
0000
0110
0000
1000
0000
0001
0010
,
0100
0000
1000
0000
1010
0000
0001
0100
,
0010
0100
0002
0000
,
2000
3003
1100
MMMM
,
0101
MMMM
0011
MMMM
,
1010
MMMM
0101
0011
,
1010
1100
0002
0100
,
1003
0000
MMMM
0000
1000
0100
0010
0001
,
0100
0000
MMMM
0000
0100
0000
0001
1000
,
0100
0000
0011
0000
0010
0100
1000
0010
,
0001
0010
1000
0100
0010
0000
MMMM
0000
,
0010
0000
MMMM
0000
0010
0000
0100
1000
,
0010
1000
0100
1000
0010
1000
0100
1000
,
0010
0000
MMMM
0000
0010
1000
0100
1000
,
0010
0100
0001
0010
0001
0100
0001
0010
,
0001
MMMM
0002
0100
,
1000
0000
0013
0000
MMMM
0000
1000
0100
,
0010
0000
MMMM
0000
0010
0100
1000
0001
,
0100
0010
0100
0001
0010
0001
1000
0100
,
1000
0010
0100
0000
2002
0000
0000
0000
,
0000
0000
0000
0000
,
0000
0000
3003
0000
;
#NOTEDATA:;
#STEPSTYPE:dance-single;
#DESCRIPTION:;
#DIFFICULTY:Challenge;
#METER:15;
#BPMS:0=95,36=190,100=95,128=760,144=380,146=190,147=95,148=190,276=95,278=47.5,279=23.75,279.5=190;
#NOTES:
0000
0000
0000
0000
,
0000
0000
0000
0000
,
0000
0000
0000
0000
,
2000
3000
0002
0003
2000
3000
0002
0003
2000
3000
0002
0003
0020
0030
0200
0300
,
2000
3000
0002
0003
2000
3000
0002
0003
2000
3000
0002
0003
0020
0030
0200
0300
,
2000
3000
0001
0100
0010
0000
1000
0000
0001
0000
1000
0100
0010
0000
0001
0000
,
0200
0300
0010
1000
0001
0000
0010
0000
0200
0300
0002
0003
0200
0300
2000
3000
,
0020
0030
0100
0001
1000
0000
0001
0000
0010
0000
0100
1000
0001
0000
0100
0000
,
0020
0030
0100
0001
1000
0000
0100
0000
0110
0000
0011
0000
1001
0000
MMMM
0000
,
1000
1000
0001
0100
0010
1000
0100
1000
,
0001
0001
1000
0100
0010
0001
0100
0001
,
1000
0001
0100
0010
1000
0001
0010
0001
,
0100
MMMM
1000
MMMM
0010
MMMM
1000
MMMM
,
0100
0001
1000
0100
0010
0001
0100
0001
,
1000
1000
0001
0100
0010
1000
0100
1000
,
0001
1000
0100
0010
0001
1000
0010
0100
,
0101
MMMM
0011
MMMM
2002
0000
3003
MMMM
,
0001
0001
1000
0010
0100
0001
0010
0001
,
1000
1000
0001
0010
0100
1000
0010
1000
,
0001
1000
0010
0100
0001
1000
0100
1000
,
0010
MMMM
0001
MMMM
0100
MMMM
0001
MMMM
,
0010
1000
0001
0010
0100
1000
0010
1000
,
0001
0001
1000
0010
0100
0001
0010
0001
,
1000
0001
0010
0100
1000
0001
0100
0010
,
1010
MMMM
1100
MMMM
2002
0000
3003
0000
,
MMMM
0000
0000
0000
0000
0000
0000
0000
2000
3000
0000
0000
MMMM
0000
0000
0000
0020
0030
0000
0000
MMMM
0000
0000
0000
0200
0300
0000
0000
MMMM
0000
0000
0000
,
0002
0003
0000
0000
MMMM
0000
0000
0000
0020
0030
0000
0000
MMMM
0000
0000
0000
0200
0300
0000
0000
MMMM
0000
0000
0000
2000
3000
0000
0000
MMMM
0000
0000
0000
,
0002
0003
0000
0000
MMMM
0000
0000
0000
0200
0300
0000
0000
MMMM
0000
0000
0000
0002
0003
0000
0000
MMMM
0000
0000
0000
2000
3000
0000
0000
MMMM
0000
0000
0000
,
0200
0300
0000
0000
MMMM
0000
0000
0000
2000
3000
0000
0000
MMMM
0000
0000
0000
0020
0030
0000
0000
MMMM
0000
0000
0000
0200
0300
0000
0000
MMMM
0000
0000
0000
,
0002
0000
0023
0000
0230
0000
2300
3000
MMMM
0000
2000
0000
3200
0000
0320
0000
0032
0000
2003
0000
3002
0000
0203
0300
MMMM
0000
0200
0000
0302
0000
2003
0000
,
3020
0000
2030
0000
3200
0000
0320
0030
MMMM
0000
0020
0000
0230
0000
2300
0000
3002
0000
0203
0000
0320
0000
2030
3000
MMMM
0000
2000
0000
3020
0000
0230
0000
,
0302
0023
0032
2003
3200
2300
3020
0230
0302
0023
0032
2003
3020
0230
0301
0000
,
2002
0000
0000
0000
,
0000
0000
0000
0000
,
0000
0000
0000
0000
,
0000
0000
0000
0000
,
0000
0000
0000
0000
3003
0000
0000
0000
0000
0000
0000
0000
MMMM
MMMM
MMMM
MMMM
,
0001
1000
0010
0100
0001
1000
0001
0010
,
0100
0000
1000
0000
0001
0000
0100
0010
0100
0000
0001
0000
1000
0000
0100
0000
,
0010
0000
0001
0000
1000
0000
0010
0100
0010
0000
1000
0000
0001
0000
0100
0000
,
0010
MMMM
0001
MMMM
0010
MMMM
1000
MMMM
,
0001
0000
1000
0001
0100
0000
0010
0000
,
1000
0100
0010
0100
1000
0000
1001
0000
,
0001
0010
0100
1000
MMMM
1000
0100
0010
,
0002
0000
0100
0000
2000
0000
3003
MMMM
,
0001
0000
0010
0000
0100
0000
1000
0100
1000
0000
0001
0000
1000
0000
0010
0000
,
0100
0000
0001
0000
1000
0000
0100
0010
0100
0000
1000
0000
0001
0000
0100
0000
,
0010
0000
1000
0000
0001
0000
0010
0100
0010
0000
0001
0000
1000
0000
0100
0000
,
0010
MMMM
1000
MMMM
0010
MMMM
0001
MMMM
,
1000
0000
0001
1000
0100
0000
0010
0000
,
0001
0100
0010
0100
0001
0000
1001
0000
,
1000
0010
0100
0001
MMMM
0001
0100
0010
,
2000
0000
0100
0000
0002
0000
3003
MMMM
,
1000
0001
1000
0000
0100
0000
0010
0000
0001
0000
MMMM
0000
0100
0000
0000
0000
,
1000
0001
1000
0000
0010
0000
0100
0000
0001
0000
MMMM
0000
0010
0000
0000
0000
,
1000
0100
0010
0001
0100
0010
0001
0010
,
1000
0010
1000
0000
0001
0000
0010
0000
0100
1000
0100
0000
0010
0000
0001
0000
,
2000
0000
3010
0100
0002
0000
0013
MMMM
,
0010
0001
1000
0001
0100
0010
0001
0010
,
1000
0100
0010
1000
0010
0001
1000
0010
,
2000
0000
0100
0000
0002
0000
3003
MMMM
,
0001
1000
0001
0000
0010
0000
0100
0000
1000
0000
MMMM
0000
0010
0000
0000
0000
,
0001
1000
0001
0000
0100
0000
0010
0000
1000
0000
MMMM
0000
0100
0000
0000
0000
,
0001
0010
0100
1000
0010
0100
1000
0100
,
0001
0100
0001
0000
1000
0000
0100
0000
0010
0001
0010
0000
0100
0000
1000
0000
,
0002
0000
0103
0010
2000
0000
3100
MMMM
,
0100
1000
0001
1000
0010
0100
1000
0100
,
0001
0010
0100
0001
0100
1000
0001
0100
,
0101
MMMM
0011
MMMM
1100
MMMM
0110
MMMM
,
2002
0000
0000
0000
0000
0000
0000
0000
0000
0000
0000
0000
0000
0000
0000
0000
0000
0000
0000
0000
0000
0000
0000
0000
0000
0000
3003
0000
MMMM
MMMM
MMMM
0000
,
0000
0000
0000
0000
;
#NOTEDATA:;
#STEPSTYPE:dance-double;
#DESCRIPTION:;
#DIFFICULTY:Easy;
#METER:5;
#NOTES:
00000000
00000000
00000000
00000000
,
00000000
00000000
00000000
00000000
,
00000000
00000000
00000000
00000000
,
00002000
00003000
00020000
00030000
,
00002000
00003000
00020000
00030000
,
00002000
00003000
00002000
00003000
00020000
00030000
00020000
00030000
,
00002000
00003000
00002000
00003000
00020000
00030000
00020000
00030000
,
00002000
00003000
00002000
00003000
00020000
00030000
00020000
00030000
,
00002000
00003000
00002000
00003000
00020000
00030000
00020000
00030000
,
00011000
00000000
00001000
00000000
,
01000000
00000000
00010000
00000000
,
00100000
00000000
00001000
00000000
,
00010000
00000000
00000100
00000000
,
00000010
00000000
00000001
00000000
,
00000001
00000000
00000100
00000000
,
00001000
00000000
00010000
00000000
,
00001000
00000000
00010000
00000000
,
00011000
00000000
00001000
00000000
,
01000000
00000000
00010000
00000000
,
00100000
00000000
01000000
00000000
,
10000000
00000000
01000000
00000000
,
00010000
00000000
00001000
00000000
,
00000010
00000000
00000001
00000000
,
00001000
00000000
00000010
00000000
,
00000100
00000000
00000001
00000000
,
00001001
00000000
00000002
00000003
,
00000200
00000300
00000020
00000030
,
00020000
00030000
00002000
00003000
,
02000000
03000000
00020000
00030000
,
00200000
00300000
02000000
03000000
,
20000000
30000000
00020000
00030000
,
00200000
00300000
00002000
00003000
,
00000000
00000000
00001000
00000000
,
00010000
00000000
00000100
00000000
,
00001000
00000000
00000010
00000000
,
00001000
00000000
00000001
00000010
,
00000100
00001000
00000010
00000000
,
00010000
00000000
00001000
00000000
,
01000000
00000000
00010000
00000000
,
10000000
00000000
00100000
00100000
,
01000000
00000000
00010000
00000000
,
10000000
00000000
01000000
00000000
,
00100000
00000000
00010000
00000000
,
01000000
00000000
00001000
00010000
,
00001000
00010000
00000100
00000000
,
00001000
00000000
00000001
00000000
,
00000100
00000000
00000010
00000000
,
00000100
00000000
00000001
00000001
,
00000001
00000000
00000010
00000000
,
00000100
00000000
00001000
00000000
,
00000010
00000000
00010000
00000000
,
00001000
00000000
01000000
00010000
,
01000000
00010000
00100000
00000000
,
01000000
00000000
10000000
00000000
,
00010000
00000000
01000000
00000000
,
00100000
00000000
10000000
10000000
,
10000000
00000000
01000000
00000000
,
00100000
00000000
00010000
00000000
,
01000000
00000000
00001000
00000000
,
00010000
00000000
00000100
00001000
,
00000100
00001000
00000010
00000000
,
00000100
00000000
00000010
00000000
,
00001000
00000000
00000001
00000000
,
00001000
00000000
00000100
00000000
,
00010000
00000000
00022000
00000000
,
00000000
00000000
00000000
00000000
,
00000000
00000000
00033000
00000000
;
#NOTEDATA:;
#STEPSTYPE:dance-double;
#DESCRIPTION:;
#DIFFICULTY:Medium;
#METER:8;
#NOTES:
00000000
00000000
00000000
00000000
,
00000000
00000000
00000000
00000000
,
00000000
00000000
00000000
00000000
,
00002000
00003000
00020000
00030000
00002000
00003000
00020000
00030000
,
00002000
00003000
00020000
00030000
00002000
00003000
00020000
00030000
,
00002000
00100000
00023000
00000010
,
00031000
00001000
00100000
00010000
01000000
00100000
00010000
00001000
,
00020000
00000010
00032000
00100000
,
00013000
00010000
00000100
00001000
00000010
00010000
00001000
00000000
,
00011000
00000000
00010000
00000000
,
00001000
00100000
00010000
00000000
,
10000000
00100000
01000000
00010000
,
00200000
00302000
00023000
00030200
,
00001300
00000000
00000010
00000000
,
00001000
00000100
00000010
00000000
,
00000001
00000100
00000010
00000000
,
00020000
00032000
00003020
MMMM0030
,
00000100
00000000
00000100
00000000
,
00001000
00000001
00001000
00000000
,
00000001
00000100
00000010
00001000
,
00000200
00020300
00032000
00203000
,
00310000
00000000
01000000
00000000
,
00010000
00100000
01000000
00000000
,
10000000
00010000
01000000
00000000
,
00002000
00023000
00230000
0030MMMM
,
01100000
02000000
03200000
20300000
,
32000000
00000000
03020000
00032000
,
00003200
00000000
00000000
00000000
,
00000320
00000000
00000000
00000030
,
00010000
00002000
00203000
02300000
,
03020000
00000000
02030000
23000000
,
30200000
00000000
00000000
00000000
,
01300000
MMMMMMMM
00000010
00000000
,
00010000
00000000
00001000
00010000
,
00100000
0000MMMM
01000000
00001000
,
00010000
00000100
00000020
00002030
,
00023000
02030000
0310MMMM
00000000
,
00001000
00000000
00010000
00000100
,
00001000
00000010
00010000
00001000
,
01000000
00100000
20000000
00000000
,
30010000
00000000
10000000
01000000
,
00010000
00000000
00001000
00000010
,
00000001
MMMM0000
00000001
00000100
,
00001000
00010000
00200000
00320000
,
00032000
00003200
MMMM0310
00000000
,
00010000
00000000
00000100
00000010
,
00000001
00001000
00000001
00000100
,
00000010
00010000
00002000
00000000
,
00013000
00000000
00010000
00001000
,
00000010
MMMM0000
00000010
00001000
,
00010000
00000000
00010000
00001000
,
00000100
MMMM0000
00000100
00001000
,
00010000
00000000
00001000
00010000
,
00100000
0000MMMM
00100000
00010000
,
00001000
00000000
00010000
00001000
,
00000010
MMMM0000
00000010
00001000
,
00010000
00000000
00021000
00000000
,
0010MMMM
00000000
00032000
00000000
,
MMMM0010
00000000
00023000
00000000
,
0010MMMM
00000000
00031000
00000010
,
00000001
00000100
00001000
00000000
,
00010000
00000000
00001000
00010000
,
01000000
10000000
00100000
00010000
,
00001000
00000000
00000020
00000000
,
00000130
00000000
00002002
00000000
,
00000000
00000000
00000000
00000000
,
00000000
00000000
00003003
00000000
;
#NOTEDATA:;
#STEPSTYPE:dance-double;
#DESCRIPTION:;
#DIFFICULTY:Hard;
#METER:12;
#NOTES:
00000000
00000000
00000000
00000000
,
00000000
00000000
00000000
00000000
,
00000000
00000000
00000000
00000000
,
00002000
00003000
00020000
00030000
00002000
00003000
00020000
00030000
,
00002000
00003000
00020000
00030000
00002000
00003000
00020000
00030000
,
00001000
00000000
00010000
00001000
00010000
00000000
00000100
00000000
00000010
00000000
00000100
00001000
00000100
00000000
00010000
00000000
,
00001000
00000000
00000100
00000010
00001000
00000000
00000001
00000000
00000010
00000000
00000100
00000000
00001000
00000000
00000100
00000000
,
00010000
00000000
00001000
00010000
00001000
00000000
01000000
00000000
00100000
00000000
01000000
00010000
01000000
00000000
00001000
00000000
,
00010000
00000000
01000000
00100000
00010000
00000000
10000000
00000000
00100000
00000000
00010000
00000000
00001000
00000000
00000000
00000000
,
00011000
00000000
00010000
00001000
00000010
00000000
00000100
00000000
,
00010000
00000000
00010000
00001000
00000100
00000000
00000010
00000000
,
00010000
00000000
00010000
00001000
00010000
00000000
00000100
00000000
,
00000020
00000000
00000000
00000000
00000000
00000000
00000000
00000000
00000000
00000000
00000000
00000000
00000000
00000000
00000000
00000000
00000000
00000000
00000000
00000000
00000000
00000000
00000000
00000000
00002030
00000000
00000000
00000000
00000000
00000000
00000000
00000000
00000000
00000000
00000000
00000000
00000000
00000000
00000000
00000000
00000000
00000000
00000000
00000000
00000000
00000000
00000000
00000000
00023000
00000000
00000000
00000000
00000000
00000000
00000000
00000000
00000000
00000000
00000000
00000000
00000000
00000000
00000000
00000000
00000000
00000000
00000000
00000000
00000000
00000000
00000000
0000MMMM
02030000
00000000
00000000
00000000
00000000
00000000
00000000
00000000
00000000
00000000
00000000
00000000
00000000
00000000
00000000
00000000
00000000
00000000
00000000
00000000
00000000
00000000
00000000
00000000
,
1300MMMM
00000000
10000000
00100000
01000000
00000000
00010000
00000000
,
10000000
00000000
10000000
01000000
00100000
00000000
00001000
00000000
,
00010000
00000000
00000000
00000000
00000000
00000000
00000000
00000000
00000000
00000000
00000000
00000000
00000000
00000000
00000000
00000000
00000000
00000000
00000000
00000000
00000000
00000000
00000000
00000000
00010000
00000000
00000000
00000000
00000000
00000000
00000000
00000000
00000000
00000000
00000000
00000000
00001000
00000000
00000000
00000000
00000000
00000000
00000000
00000000
00000000
00000000
00000000
00000000
01000000
00000000
00000000
00000000
00000000
00000000
00000000
00000000
00000000
00000000
00000000
00000000
00000000
00000000
00000000
00000000
00000000
00000000
00000000
00000000
00000000
00000000
00000000
00000000
00100000
00000000
00000000
00000000
00000000
00000000
00000000
00000000
00000000
00000000
00000000
00000000
00000000
00000000
00000000
00000000
00000000
00000000
00000000
00000000
00000000
00000000
00000000
0000MMMM
,
00020000
00032000
00023000
0103MMMM
,
00100000
00000000
00001000
00010000
00100000
00000000
01000000
00000000
,
00001000
00000000
00001000
00010000
01000000
00000000
00100000
00000000
,
00001000
00000000
00001000
00010000
00001000
00000000
01000000
00000000
,
00200000
00000000
00000000
00000000
00000000
00000000
00000000
00000000
00000000
00000000
00000000
00000000
00000000
00000000
00000000
00000000
00000000
00000000
00000000
00000000
00000000
00000000
00000000
00000000
00320000
00000000
00000000
00000000
00000000
00000000
00000000
00000000
00000000
00000000
00000000
00000000
00000000
00000000
00000000
00000000
00000000
00000000
00000000
00000000
00000000
00000000
00000000
00000000
00032000
00000000
00000000
00000000
00000000
00000000
00000000
00000000
00000000
00000000
00000000
00000000
00000000
00000000
00000000
00000000
00000000
00000000
00000000
00000000
00000000
00000000
00000000
MMMM0000
00003200
00000000
00000000
00000000
00000000
00000000
00000000
00000000
00000000
00000000
00000000
00000000
00000000
00000000
00000000
00000000
00000000
00000000
00000000
00000000
00000000
00000000
00000000
00000000
,
MMMM0301
00000000
00000001
00000010
00000100
00000000
00001000
00000000
,
00000001
00000000
00000001
00000100
00000010
00000000
00010000
00000000
,
00001000
00000000
00000000
00000000
00000000
00000000
00000000
00000000
00000000
00000000
00000000
00000000
00000000
00000000
00000000
00000000
00000000
00000000
00000000
00000000
00000000
00000000
00000000
00000000
00001000
00000000
00000000
00000000
00000000
00000000
00000000
00000000
00000000
00000000
00000000
00000000
00010000
00000000
00000000
00000000
00000000
00000000
00000000
00000000
00000000
00000000
00000000
00000000
00000100
00000000
00000000
00000000
00000000
00000000
00000000
00000000
00000000
00000000
00000000
00000000
00000000
00000000
00000000
00000000
00000000
00000000
00000000
00000000
00000000
00000000
00000000
00000000
00000010
00000000
00000000
00000000
00000000
00000000
00000000
00000000
00000000
00000000
00000000
00000000
00000000
00000000
00000000
00000000
00000000
00000000
00000000
00000000
00000000
00000000
00000000
MMMM0000
,
00002000
00023000
00032000
MMMM3100
,
00000110
00000000
00020000
00032000
00003200
00000320
00020030
00032000
,
00003020
00000230
00020300
00032000
00003200
00000302
00000023
00002030
,
00023000
02030000
23000000
30200000
00320000
00032000
00203000
02300000
,
03020000
00000000
00000000
00000000
00000000
00000000
00000000
00000000
00000000
00000000
00000000
00000000
00032000
00000000
00000000
00000000
00000000
00000000
00000000
00000000
00000000
00000000
00000000
00000000
00003200
00000000
00000000
00000000
00000000
00000000
00000000
00000000
00000000
00000000
00000000
00000000
00000320
00000000
00000000
00000000
00000000
00000000
00000000
00000000
00000000
00000000
00000000
00000000
00020030
00000000
00000000
00000000
00000000
00000000
00000000
00000000
00000000
00000000
00000000
00000000
00032000
00000000
00000000
00000000
00000000
00000000
00000000
00000000
00000000
00000000
00000000
00000000
00003020
00000000
00000000
00000000
00000000
00000000
00000000
00000000
00000000
00000000
00000000
00000000
00000032
00000000
00000000
00000000
00000000
00000000
00000000
00000000
00000000
00000000
00000000
MMMM0000
,
00000203
00000000
00000000
00000000
00000000
00000000
00000000
00000000
00000000
00000000
00000000
00000000
00002300
00000000
00000000
00000000
00000000
00000000
00000000
00000000
00000000
00000000
00000000
00000000
00023000
00000000
00000000
00000000
00000000
00000000
00000000
00000000
00000000
00000000
00000000
00000000
02030000
00000000
00000000
00000000
00000000
00000000
00000000
00000000
00000000
00000000
00000000
0000MMMM
03200000
00000000
00000000
00000000
00000000
00000000
00000000
00000000
00000000
00000000
00000000
00000000
00302000
00000000
00000000
00000000
00000000
00000000
00000000
00000000
00000000
00000000
00000000
00000000
00023000
00000000
00000000
00000000
00000000
00000000
00000000
00000000
00000000
00000000
00000000
00000000
00230000
00000000
00000000
00000000
00000000
00000000
00000000
00000000
00000000
00000000
00000000
0000MMMM
,
02300000
00000000
00000000
00000000
00000000
00000000
00000000
00000000
00000000
00000000
00000000
00000000
03002000
00000000
00000000
00000000
00000000
00000000
00000000
00000000
00000000
00000000
00000000
00000000
00023000
00000000
00000000
00000000
00000000
00000000
00000000
00000000
00000000
00000000
00000000
00000000
02030000
00000000
00000000
00000000
00000000
00000000
00000000
00000000
00000000
00000000
00000000
0000MMMM
23000000
00000000
00000000
00000000
00000000
00000000
00000000
00000000
00000000
00000000
00000000
00000000
30200000
00000000
00000000
00000000
00000000
00000000
00000000
00000000
00000000
00000000
00000000
00000000
00320000
00000000
00000000
00000000
00000000
00000000
00000000
00000000
00000000
00000000
00000000
00000000
00032000
00000000
00000000
00000000
00000000
00000000
00000000
00000000
00000000
00000000
00000000
00000000
,
00003020
MMMM0000
00000230
00000000
00020300
00000000
00032000
00000000
00003200
MMMM0000
00000320
00000000
00002030
00000000
00003200
00000000
,
MMMM0301
00000000
MMMMMMMM
00000000
10000000
00000000
00100000
00010000
,
00001000
00000000
MMMM0010
00000000
MMMM0001
00000000
00000001
00000100
,
00001000
00000000
00010000
00000000
0010MMMM
00000000
1000MMMM
01000000
,
00010000
00000000
00000000
00000000
00000000
00000000
00000000
00000000
00000000
00000000
00000000
00000000
00000000
00000000
00000000
00000000
00000000
00000000
00000000
00000000
00000000
00000000
00000000
00000000
00001000
00000000
00000000
00000000
00000000
00000000
00000000
00000000
00000000
00000000
00000000
00000000
00000000
00000000
00000000
00000000
00000000
00000000
00000000
00000000
00000000
00000000
00000000
MMMM0000
00000020
00000000
00000000
00000000
00000000
00000000
00000000
00000000
00000000
00000000
00000000
00000000
00000000
00000000
00000000
00000000
00000000
00000000
00000000
00000000
00000000
00000000
00000000
MMMM0000
00002030
00000000
00000000
00000000
00000000
00000000
00000000
00000000
00000000
00000000
00000000
00000000
00000000
00000000
00000000
00000000
00000000
00000000
00000000
00000000
00000000
00000000
00000000
00000000
,
00023000
00000000
00000000
00000000
00000000
00000000
00000000
00000000
00000000
00000000
00000000
00000000
00000000
00000000
00000000
00000000
00000000
00000000
00000000
00000000
00000000
00000000
00000000
0000MMMM
02030000
00000000
00000000
00000000
00000000
00000000
00000000
00000000
00000000
00000000
00000000
00000000
00000000
00000000
00000000
00000000
00000000
00000000
00000000
00000000
00000000
00000000
00000000
00000000
1300MMMM
00000000
00000000
00000000
00000000
00000000
00000000
00000000
00000000
00000000
00000000
00000000
00000000
00000000
00000000
00000000
00000000
00000000
00000000
00000000
00000000
00000000
00000000
00000000
10000000
00000000
00000000
00000000
00000000
00000000
00000000
00000000
00000000
00000000
00000000
00000000
00100000
00000000
00000000
00000000
00000000
00000000
00000000
00000000
00000000
00000000
00000000
00000000
,
00010000
00000000
00010010
00000000
MMMM1010
00000000
00000010
00010000
,
00001000
00000000
01001000
00000000
0101MMMM
00000000
01000000
0010MMMM
,
01000000
0101MMMM
01002000
00000000
,
00020000
00000000
00033000
00000000
00011000
00000000
00001000
00000010
,
MMMM0001
00000000
MMMM0011
00000000
00001200
00000000
00010300
01000000
,
1000MMMM
00000000
1010MMMM
00000000
02010000
00000000
03001000
00000100
,
MMMM0001
MMMM0010
00000200
00020300
,
00032000
00000000
00203000
00000000
00310000
00000000
01000000
00001000
,
00010000
00000000
00000010
00000000
00010000
00000000
00001000
00100000
,
00010000
00000000
10000000
00000000
00010000
00000000
01000000
00001000
,
00010000
00001000
00200000
00000000
,
00020000
00000000
00330000
00000000
0010MMMM
00000000
00001000
00000010
,
MMMM0100
00000000
00001000
00000000
00000010
00000000
00010000
00100000
,
0100MMMM
00000000
00010000
00000000
00100000
00000000
00001000
00000010
,
MMMM0100
00010000
00002000
00003200
,
00000302
00000000
00000023
00000000
00000130
00000000
00010000
00100000
,
0100MMMM
00000000
00010000
00000000
01000000
00000000
00001000
00000010
,
MMMM0100
00000000
00001000
00000000
00000100
00000000
00010000
00100000
,
0100MMMM
00001000
00020000
00000000
,
00002000
00000000
00033000
00000000
00011000
00000000
00010000
01000000
,
10000000
00000000
00100000
00000000
10000000
00000000
01000000
00010000
,
00002000
00000000
MMMM0010
00000000
00010000
00000000
MMMM3010
00000100
,
00020000
00001000
0010MMMM
00001000
,
0013MMMM
01000000
00010000
00000000
10000000
00000000
01000000
00100000
,
00010000
00000000
01000000
00000000
00001000
00000000
00010000
00000100
,
00000010
00000000
00001000
00000000
00010000
00001000
00000100
00000010
,
00001000
00000001
00000010
00000100
00002000
00000000
00000000
00000000
,
00000002
00003003
00000220
00000000
,
00000000
00000000
00000000
00000000
,
00000000
00000000
00000330
00000000
;
#NOTEDATA:;
#STEPSTYPE:dance-double;
#DESCRIPTION:;
#DIFFICULTY:Challenge;
#METER:15;
#BPMS:0=95,36=190,100=95,128=760,144=380,146=190,147=95,148=190,276=95,278=47.5,279=23.75,279.5=190;
#NOTES:
00000000
00000000
00000000
00000000
,
00000000
00000000
00000000
00000000
,
00000000
00000000
00000000
00000000
,
00002000
00003000
00020000
00030000
00200000
00300000
20000000
30000000
20000000
30000000
02000000
03000000
00020000
00030000
00002000
00003000
,
00000200
00000300
00000002
00000003
00000002
00000003
00000020
00000030
00002000
00003000
00020000
00030000
00200000
00300000
20000000
30000000
,
00020000
00030000
01000000
00100000
00010000
00000000
00001000
00000000
00010000
00000000
00000100
00000010
00001000
00000000
00000010
00000000
,
00000002
00000003
00000100
00001000
00010000
00000000
00000100
00000000
00000020
00000030
00002000
00003000
00020000
00030000
02000000
03000000
,
20000000
30000000
00100000
01000000
00010000
00000000
00100000
00000000
00001000
00000000
00010000
00100000
00010000
00000000
00001000
00000000
,
00000200
00000300
00000010
00010000
00001000
00000000
00000010
00000000
00000100
00000000
00010000
00000000
00011000
00000000
MMMMMMMM
00000000
,
00001000
01000000
00010000
00100000
01000000
00010000
00001000
00010000
,
00000010
00000100
00001000
00000100
00000010
00010000
00001000
00000010
,
00000001
00000100
00000010
00001000
MMMM0010
00000100
00010000
00001000
,
00000010
MMMM1000
00000100
00001000
00010000
00000010
MMMM0001
00000000
,
00001000
00000000
00000001
00000100
00001000
00010000
00100000
01000000
,
10000000
01000000
00100000
00010000
00001000
00000010
00000100
00010000
,
00001000
00000100
00001000
00000100
00000001
00000010
00000100
00001000
,
00020000
00000000
00000000
00000000
00000000
00000000
00000000
00000000
00000000
00000000
00000000
00000000
00000000
00000000
00000000
0000MMMM
00230000
00000000
00000000
00000000
00000000
00000000
00000000
00000000
00000000
00000000
00000000
00000000
00000000
00000000
00000000
00000000
00302000
00000000
00000000
00000000
00000000
00000000
00000000
00000000
00000000
00000000
00000000
00000000
00000000
00000000
00000000
00000000
00003000
00000000
00000000
00000000
00000000
00000000
00000000
00000000
00000000
00000000
00000000
00000000
00000000
00000000
00000000
00000000
,
00010000
00000100
00001000
00000010
00000100
00001000
00010000
00001000
,
00100000
01000000
00010000
01000000
00100000
00001000
00010000
00100000
,
10000000
01000000
00100000
00010000
0010MMMM
01000000
00001000
00010000
,
00100000
0001MMMM
01000000
00010000
00001000
00100000
1000MMMM
00000000
,
00010000
00000000
10000000
01000000
00010000
00001000
00000010
00000100
,
00000001
00000100
00000010
00001000
00010000
00100000
01000000
00001000
,
00010000
01000000
00010000
01000000
10000000
00100000
01000000
00010000
,
00002000
00000000
00000000
00000000
00000000
00000000
00000000
00000000
00000000
00000000
00000000
00000000
00000000
00000000
00000000
MMMM0000
00003020
00000000
00000000
00000000
00000000
00000000
00000000
00000000
00000000
00000000
00000000
00000000
00000000
00000000
00000000
00000000
00020030
00000000
00000000
00000000
00000000
00000000
00000000
00000000
00000000
00000000
00000000
00000000
00000000
00000000
00000000
00000000
00030000
00000000
00000000
00000000
00000000
00000000
00000000
00000000
MMMMMMMM
00000000
00000000
00000000
00000000
00000000
00000000
00000000
,
00011000
00000000
00000000
00000000
00000000
00000000
00000000
00000000
00002000
00003000
00000000
00000000
MMMMMMMM
00000000
00000000
00000000
00000020
00000030
00000000
00000000
MMMMMMMM
00000000
00000000
00000000
00000002
00000003
00000000
00000000
MMMMMMMM
00000000
00000000
00000000
,
00000200
00000300
00000000
00000000
MMMMMMMM
00000000
00000000
00000000
00002000
00003000
00000000
00000000
MMMMMMMM
00000000
00000000
00000000
00020000
00030000
00000000
00000000
MMMMMMMM
00000000
00000000
00000000
00200000
00300000
00000000
00000000
MMMMMMMM
00000000
00000000
00000000
,
20000000
30000000
00000000
00000000
MMMMMMMM
00000000
00000000
00000000
02000000
03000000
00000000
00000000
MMMMMMMM
00000000
00000000
00000000
00020000
00030000
00000000
00000000
MMMMMMMM
00000000
00000000
00000000
00002000
00003000
00000000
00000000
MMMMMMMM
00000000
00000000
00000000
,
00000020
00000030
00000000
00000000
MMMMMMMM
00000000
00000000
00000000
00000002
00000003
00000000
00000000
MMMMMMMM
00000000
00000000
00000000
00000200
00000300
00000000
00000000
MMMMMMMM
00000000
00000000
00000000
00002000
00003000
00000000
00000000
MMMMMMMM
00000000
00000000
00000000
,
00002000
00000000
00000000
00000000
00000000
00000000
00000000
00000000
00023000
00000000
00000000
00000000
00000000
00000000
00000000
00000000
00230000
00000000
00000000
00000000
00000000
00000000
00000000
0000MMMM
02300000
00000000
00000000
00000000
00000000
00000000
00000000
0000MMMM
03200000
00000000
00000000
00000000
00000000
00000000
00000000
00000000
00320000
00000000
00000000
00000000
00000000
00000000
00000000
00000000
00032000
00000000
00000000
00000000
00000000
00000000
00000000
00000000
00203000
00000000
00000000
00000000
00000000
00000000
00000000
0000MMMM
,
00320000
00000000
00032000
00000000
00003200
00000000
00020300
00000000
00032000
00000000
00003200
MMMM0000
00000320
00000000
00020030
00000000
,
00230000
0000MMMM
02300000
00000000
03002000
00000000
00003200
MMMM0000
00000320
00000000
00020030
00000000
00032000
00000000
00013000
00000000
,
00022000
00000000
00000000
00000000
,
00000000
00000000
00000000
00000000
,
00000000
00000000
00000000
00000000
,
00000000
00000000
00000000
00000000
,
00000000
00000000
00000000
00000000
00033000
00000000
00000000
00000000
00000000
00000000
00000000
00000000
MMMMMMMM
MMMMMMMM
MMMMMMMM
MMMMMMMM
,
00001000
00000000
00010000
00001000
00000100
00000010
00001000
00010000
,
00000100
00000010
00010000
00001000
00000010
00000000
00000011
00000000
,
00000001
00000100
00000010
00010000
00001000
00000000
00010000
00000000
,
0010MMMM
00010000
00001000
00000100
MMMM0001
00000100
00001000
00010000
,
0010MMMM
00000000
10000000
00100000
00010000
00000000
00000100
00000000
,
MMMM0110
00000000
00000010
00001000
00010000
00000000
0010MMMM
00000000
,
00010000
00000000
00001000
00000100
00000001
00000010
00001000
00000000
,
00020000
00000000
00001000
0000MMMM
00000020
00000000
00030030
00000000
,
00011000
00000000
00001000
00100000
00010000
00001000
00010000
00100000
,
00001000
00010000
00000010
00001000
00010000
00001000
00000010
00000000
,
00000100
00000001
00000010
00001000
00010000
01000000
10000000
01000000
,
00001000
00010000
00100000
0001MMMM
01000000
00010000
00001000
00100000
,
00010000
00001000
00010000
00001000
00000010
00000000
00000011
00000000
,
00001100
00000000
00010000
01000000
1000MMMM
00000000
00100000
00000000
,
00010000
00001000
MMMM0100
00001000
00010000
0100MMMM
00010000
00000000
,
00002000
00000000
00010000
MMMM0000
02000000
00000000
03003000
00000000
,
00001000
00010000
00000100
00001000
00010000
00100000
01000000
10000000
,
01000000
00100000
00010000
00001000
00000100
00010000
00001000
00100000
,
00010000
00001000
00000100
00000010
00000001
00000010
00000100
00001000
,
00010000
00100000
00001000
00010000
00000100
00001000
00010000
00100000
,
01000000
00000000
10000000
00100000
00010000
00000000
00002000
00000000
,
00010000
MMMM0010
00010000
MMMM0100
,
00023000
0010MMMM
00001000
0100MMMM
,
00032000
00000000
00010000
MMMM0000
00200000
00000000
00303000
00000000
,
00001000
00010000
00100000
0100MMMM
00010000
10000000
0100MMMM
00100000
,
00010000
00001000
00010000
00100000
00001000
00100000
0001MMMM
00001000
,
MMMM0100
00000010
00000001
MMMM0100
00001000
00010000
0010MMMM
00010000
,
00001000
00010000
01000000
1000MMMM
01000000
00010000
00001000
00000010
,
MMMM0001
00000010
00001000
00010000
0100MMMM
00010000
00001000
MMMM0010
,
00001000
00010000
0010MMMM
00010000
00001000
MMMM0100
00001000
00010000
,
0100MMMM
00010000
00001000
MMMM0010
00000001
MMMM1000
00000001
MMMM0100
,
00001000
00000000
00010000
00000000
0010MMMM
00000000
01000000
00000000
00001000
00000000
00010000
00000000
01000000
0000MMMM
00100000
00000000
,
00002000
00000000
00000000
00000000
00000000
00000000
00000000
00000000
00000000
00000000
00000000
00000000
00000000
00000000
00000000
00000000
MMMM0000
00000000
00000000
00000000
MMMM0000
00000000
00000000
00000000
MMMM0000
00000000
MMMM3000
00000000
MMMMMMMM
MMMMMMMM
MMMMMMMM
00000000
,
00000000
00000000
00000000
00000000
;
