#TITLE:エクスプロージョン!;
#ARTIST:足立賢明;
#TITLETRANSLIT:Explosion!;
#ARTISTTRANSLIT:Kenmei Adachi;
#GENRE:ゲームミュージック;
#MUSIC:Explosion!.ogg;
#BANNER:Explosion!.png;
#BACKGROUND:Explosion!-bg.png;
#CDTITLE:./CDTitles/beatmania The Cat The Dog The Pig.png;
#SAMPLESTART:28.002;
#SAMPLELENGTH:15.003;
#SELECTABLE:YES;
#OFFSET:-0.019;
#BPMS:0.000=139.970
,35.000=147.970
,36.000=139.970
,272.000=140.970
,276.000=139.970
;
#STOPS:;
#BGCHANGES:;
#FGCHANGES:;

//--------------- dance-single - ----------------
#NOTES:
     dance-single:
     :
     Beginner:
     3:
     0,0,0,0,0:
0000
0000
0000
0000
,
0000
0000
0000
0000
,
0000
0000
0000
0000
,
0000
0000
0000
0000
,
0000
0000
0000
0000
,
0010
0000
0000
0000
,
1000
0000
0000
0001
,
0010
0000
0000
0000
,
0100
0000
0000
1000
,
0001
0000
0010
0000
,
0100
0000
1000
0001
,
0100
0000
0010
0000
,
0100
0000
0001
0000
,
1000
0000
0001
0000
,
0010
0000
0100
0000
,
1000
0100
0010
0001
,
1001
0000
0000
0000
,
0110
0000
1000
0001
,
0100
0000
0010
0100
,
0010
0000
1000
0000
,
0010
0001
0100
0000
,
0010
0000
0100
0000
,
0010
0000
0001
0000
,
1000
0000
0010
0000
,
0010
0100
1000
0000
,
1001
0000
0000
0000
,
0010
0000
0000
0000
,
1000
0000
0000
0000
,
0001
0000
0000
0000
,
0100
0000
1000
0000
,
0001
0000
0010
0000
,
0100
0000
0001
0000
,
0100
0000
0010
0000
,
1000
0000
0001
0000
,
0100
0000
0010
0000
,
1000
0000
0001
0000
,
0010
0100
1000
0000
,
0001
0000
0010
0000
,
0100
0000
0010
0000
,
0100
0000
1000
0000
,
0001
0100
0010
0000
,
1000
0000
0001
0000
,
0100
0000
0001
0000
,
0100
0000
1000
0000
,
0001
0100
0010
0000
,
1001
0000
0000
0000
,
0010
0000
0000
0000
,
0100
0000
0000
0000
,
0010
0000
0000
0000
,
1000
0000
0000
0000
,
0001
0000
0000
0000
,
0010
0000
1000
0000
,
0001
0000
0010
0000
1000
0000
0001
0100
,
0010
1000
0010
0000
,
0010
0100
0010
0000
,
1000
0001
0100
0000
,
0100
0010
1000
0000
,
0001
0010
0100
0000
,
1000
0001
0100
0000
,
0010
0001
0100
0000
,
1000
0001
0100
0000
,
1001
0000
0000
0000
,
0010
0000
0000
0000
,
1000
0000
0000
0000
,
0001
0000
0000
0000
,
0010
0100
0010
0000
,
1000
0001
0010
0000
,
1000
0000
0001
0000
,
0010
0000
0000
0000
,
1000
0000
0001
0000
,
0010
0000
0100
0000
,
0001
0000
1000
0000
,
0001
0000
0010
0000
,
0100
0000
0001
0000
,
0100
0000
1000
0000
,
0001
0000
0100
0000
,
0010
0000
0100
0000
,
1001
0000
0000
0000
;

//--------------- dance-single - ----------------
#NOTES:
     dance-single:
     :
     Easy:
     7:
     0,0,0,0,0:
0000
0000
0000
0000
,
0000
0000
0000
0000
,
0000
0000
0000
0000
,
0000
0000
0000
0000
,
0000
0000
0000
0000
,
0001
1000
0100
0100
,
0100
0100
0100
1001
,
0100
0000
0100
0000
,
0010
0010
0010
0100
,
0100
0000
0100
0000
,
0100
0000
0000
0010
,
0010
0000
0100
0000
,
0100
0000
0100
0100
,
0100
0010
0100
0010
,
0100
0010
0100
0010
,
0100
0010
0100
0010
,
1001
2002
0000
0000
,
3003
1000
0100
0010
,
0001
0100
1000
1000
,
0000
1000
0000
1000
,
0000
1000
1000
1000
,
0001
0001
0001
0001
,
1000
1000
1000
1000
,
1000
0001
0001
0001
,
2002
0000
0000
3003
,
1001
1000
0100
0010
,
0001
0100
1000
0100
,
0010
0001
0100
1000
,
0100
0010
0001
0001
,
0001
1000
0100
0010
,
0100
0100
0100
1000
,
0100
0010
0001
0100
,
1000
0100
0010
0010
,
0001
0001
0001
0001
,
1000
1000
1000
1000
,
0001
0001
0001
0001
,
1000
1000
1000
1000
,
1001
0100
0010
0100
,
1000
1000
1000
1000
,
0001
0001
0001
0001
,
0001
0001
0001
0001
,
1000
1000
1000
1000
,
1000
0001
0001
0001
,
0001
0001
0001
0001
,
0001
0001
0200
0000
,
0300
1000
0100
0010
,
0001
0000
0001
0000
,
1000
0000
1000
0000
,
1000
0000
0001
0001
,
0001
1000
0000
1000
,
0000
1000
0000
1000
,
0100
0000
0010
0000
,
0100
0100
0100
0100
,
1001
0100
1000
0100
,
1000
0100
0010
0001
,
0100
1000
0100
1000
,
0100
1000
0100
1000
,
0010
0010
0010
0000
,
0100
0100
0100
0000
,
0010
0010
0010
0010
,
0100
0100
0100
0100
,
1001
0000
0000
0000
,
0010
0000
0000
0000
,
0110
0000
0000
0000
,
1000
0000
0000
0000
,
1001
1000
1000
1000
,
1000
1000
1000
1000
,
1000
0001
0001
0001
,
1001
0000
0000
0000
,
1001
0100
0010
0100
,
0010
0100
0010
0100
,
0010
0001
1000
0001
,
0001
0100
0100
0010
,
0010
0100
0100
0001
,
1000
0001
1000
0001
,
1000
0001
1000
0001
,
1000
0001
1000
0010
,
1001
0000
0000
0000
;

//--------------- dance-single - ----------------
#NOTES:
     dance-single:
     :
     Medium:
     8:
     0,0,0,0,0:
0000
0000
0000
0000
,
0000
0000
0000
0000
,
0000
0000
0000
0000
,
0000
0000
0000
0000
,
0000
0000
0000
0000
,
0010
1000
0001
0100
,
0010
1000
0001
1001
,
0100
0010
0100
1000
,
0001
0010
0100
1000
0001
0100
1000
0001
,
0010
0100
1000
0001
,
0100
0010
0100
1001
,
0100
0010
0100
1000
,
0001
0000
0000
0000
0010
0000
0000
0000
0100
0000
0000
1000
0010
0000
0001
0000
,
1000
0001
0100
0000
0001
0010
0000
1000
,
0000
0001
0010
0000
1000
0001
0000
0100
,
0000
0010
1000
0000
0001
0010
0000
0001
,
2000
0000
0000
3000
,
1002
0000
1003
0000
0010
0001
1000
0000
,
0100
0010
1000
0001
0100
0010
1000
0000
,
0001
0000
0010
0000
0001
0100
0010
0000
,
1000
0001
0100
0010
0100
1000
0001
0000
,
0010
0100
0001
0100
1000
0000
0001
0000
,
0010
0100
0001
0010
0100
0000
1000
0001
,
0010
0001
0100
1000
0001
0000
0100
1000
,
0001
0100
0010
0100
1000
0010
0001
0100
,
1000
0010
0100
0001
,
0100
0010
1000
0001
,
0100
0010
0100
1000
,
0001
0000
0100
0000
0010
1000
0001
0100
,
1000
0000
1001
0000
0100
0010
0100
1000
,
0001
0010
0110
0000
1000
0001
0010
0100
,
0010
0000
0101
0000
0010
0100
1000
0001
,
0010
0100
0110
0000
1000
0001
0010
0100
,
1000
0001
0101
0000
0010
0000
1000
0001
,
0100
0010
1010
0000
0100
0000
0010
1000
,
0001
0010
0110
0000
0001
0000
0010
0100
,
0001
0010
0101
0000
0010
0000
1000
0001
,
0100
0010
1000
0001
0100
0010
0100
0000
,
1000
0001
0100
0010
0001
0010
0100
0000
,
0010
0100
0001
0010
0100
0000
1000
0000
,
0001
0100
0010
0100
1000
0000
0001
0100
,
0010
0100
1000
0000
0001
0000
0100
0000
,
0010
0100
0001
1000
0010
0000
0100
0000
,
0010
1000
0001
0000
0100
0010
0000
0100
,
1000
0001
0010
1000
0001
0010
1000
0001
,
1000
0001
0100
0000
0010
0100
0000
1000
,
0000
0010
1000
0000
0001
0100
0000
0010
,
0000
0100
1000
0000
0001
0100
0000
1000
,
0000
0001
0010
0000
0100
1000
0000
0001
,
0010
0100
0010
0000
1000
0001
0000
0010
,
0000
0100
0001
0000
0010
0100
0000
1000
,
0002
0000
2003
0000
,
0100
0000
0010
0000
0100
0000
3010
0100
,
1000
0000
1001
0000
0100
0010
0100
1000
,
0001
0010
0110
0000
1000
0001
0010
0100
,
0010
0000
0101
0000
0010
0100
1000
0001
,
0010
0100
0110
0000
1000
0001
0010
0100
,
1000
0001
0101
0000
0010
0000
1000
0001
,
0100
0010
1010
0000
0100
0000
0010
1000
,
0001
0010
0110
0000
0001
0000
0010
0100
,
0001
0010
0101
0000
0010
0000
1000
0001
,
0200
0000
0000
0000
,
0320
0000
0000
0000
,
0032
0000
0000
0000
,
2003
0000
0000
0000
,
3001
0100
0010
0100
,
1000
0000
0001
0000
0100
0000
0010
1000
,
0001
0100
0010
1000
,
2002
0000
0000
3003
,
0100
0000
0010
0000
0100
1000
0010
0001
,
0100
0000
1000
0000
0001
1000
0010
0001
,
0100
0000
0010
0000
0100
0010
1000
0001
,
0100
0000
0010
0000
0001
1000
0100
0010
,
0001
0000
0100
0000
0001
1000
0010
0001
,
0100
0000
0010
0000
0001
1000
0010
0100
,
0001
0000
0100
0000
0001
0100
1000
0010
,
0100
0000
0010
0000
0100
0001
0010
0100
,
2002
0000
0000
0000
,
0000
0000
3003
0000
;

//--------------- dance-single - ----------------
#NOTES:
     dance-single:
     :
     Hard:
     15:
     0,0,0,0,0:
0000
0000
0000
0000
,
0000
0000
0000
0000
,
0000
0000
0000
0000
,
0000
0000
0000
0000
,
0000
0000
0000
0000
,
1000
0001
0100
1000
0001
0100
0010
0100
,
1000
0001
0010
0100
1000
0000
1001
0000
,
0010
0000
1000
0000
0001
0000
0100
0000
1000
0000
0000
1000
0100
0000
0001
0010
,
1000
0000
0010
0000
0100
0000
0001
0000
0010
0000
0000
1000
0001
0000
0100
0000
,
0010
0001
0010
0001
0010
0100
1000
0010
,
0100
0010
0100
0010
1000
0000
0101
0000
,
1000
0100
0010
0100
1000
0010
0100
0010
,
1000
0001
0100
0001
0010
0100
0010
0001
,
1000
0001
0100
0000
0001
0010
0000
1000
,
0000
0001
0010
0000
1000
0001
0000
0100
,
0000
0010
1000
0000
0001
0010
0000
0001
,
2000
0000
0000
3000
,
1002
0000
0000
0000
1003
0000
0100
0000
1000
0000
0010
0000
1000
0000
0001
0010
,
1000
0000
0100
0000
0010
0000
0001
0000
0010
0000
0100
0001
0010
0000
0100
0000
,
1000
0000
0010
0000
0100
0000
0001
0000
0100
0000
0010
0100
1000
0000
0001
0000
,
1000
0100
0000
0001
1000
0000
0010
0000
0100
0000
0001
0000
0010
0000
0100
0000
,
1000
0100
0001
0010
0100
0000
0001
0000
1000
0000
0001
0000
0100
0000
0010
0000
,
1000
0100
0010
0001
0100
0000
0010
0000
1000
0000
0001
0000
1000
0000
0010
0000
,
0100
1000
0010
0001
1000
0000
0010
0000
1000
0000
0100
0000
1000
0000
0001
0000
,
0100
0000
0010
0000
1000
0000
0100
0000
1000
0100
0010
0001
1000
0100
0010
0001
,
1000
0010
0001
1000
0001
0100
0010
1000
,
0010
1000
0001
0100
0001
0010
0100
1000
,
0010
1000
0100
0010
0100
0010
0001
0100
,
0001
0000
1000
0000
0100
0000
0010
0000
0100
0000
1000
0000
0100
0001
1000
0000
,
0010
0001
1000
0000
0001
0100
1000
0000
0100
0000
0010
0000
0100
0000
0010
0000
,
0100
0010
1000
0000
0001
0010
0100
0000
0010
0000
1000
0000
0010
0000
1000
0000
,
0001
0100
0010
0000
0100
0001
1000
0000
0010
0000
0100
0000
0010
0000
1000
0000
,
0100
0001
1000
0000
0100
0001
1000
0000
0010
0000
0100
0000
0001
0000
1000
0000
,
0001
0100
0010
0000
0100
0001
1000
0000
0001
0000
0010
0000
0100
0000
0010
0000
,
0001
1000
0100
0000
0001
0100
0010
0000
0100
0000
0010
0000
0001
0000
1000
0000
,
0001
0100
1000
0000
0100
0001
0010
0000
0100
0000
0010
0000
0001
0000
1000
0000
,
0100
0001
1000
0000
0100
1000
0010
0000
0100
0000
1000
0000
0001
0000
0010
0000
,
0100
1000
0010
0000
0001
0100
1000
0000
0001
0000
0010
0000
0100
0000
0010
0000
,
0100
1000
0010
0000
0001
0010
0100
0000
0001
0000
1000
0000
0001
0000
1000
0000
,
0100
1000
0010
0000
0001
0100
1000
0000
0100
0000
0010
0000
0100
0000
0010
0000
,
0001
0010
0100
0000
0001
1000
0100
0000
0001
0000
1000
0000
0010
0000
0100
0000
,
0010
0001
0100
0000
0010
0100
1000
0000
0001
0000
1000
0000
0100
0000
0010
0000
,
0100
0001
1000
0000
0100
1000
0010
0000
0001
0000
1000
0000
0010
0000
0100
0000
,
0001
1000
0100
0000
0010
0001
0100
0000
0010
0000
1000
0000
0010
0000
0100
0000
,
0001
1000
0100
0000
0001
0100
0010
0000
0001
0000
0010
0000
0100
0000
0010
0000
,
1000
0001
0100
0000
0010
0100
0000
1000
,
0000
0010
1000
0000
0001
0100
0000
0010
,
0000
0100
1000
0000
0001
0100
0000
1000
,
0000
0001
0010
0000
0100
1000
0000
0001
,
0010
0100
0010
0000
1000
0001
0000
0010
,
0000
0100
0001
0000
0010
0100
0000
1000
,
0002
0000
2003
0000
,
0100
0000
0010
0000
0100
0000
3010
0100
,
0010
0001
1000
0000
0001
0100
1000
0000
0100
0000
0010
0000
0100
0000
0010
0000
,
0100
0010
1000
0000
0001
0010
0100
0000
0010
0000
1000
0000
0010
0000
1000
0000
,
0001
0100
0010
0000
0100
0001
1000
0000
0010
0000
0100
0000
0010
0000
1000
0000
,
0100
0001
1000
0000
0100
0001
1000
0000
0010
0000
0100
0000
0001
0000
1000
0000
,
0001
0100
0010
0000
0100
0001
1000
0000
0001
0000
0010
0000
0100
0000
0010
0000
,
0001
1000
0100
0000
0001
0100
0010
0000
0100
0000
0010
0000
0001
0000
1000
0000
,
0001
0100
1000
0000
0100
0001
0010
0000
0100
0000
0010
0000
0001
0000
1000
0000
,
0100
0001
1000
0000
0100
1000
0010
0000
0100
0000
1000
0000
0001
0000
0010
0000
,
2002
0000
0000
3003
,
0220
0000
0000
0330
,
2002
0000
0000
3003
,
0022
0000
0000
0033
,
1000
0100
0010
0100
,
0001
0000
0010
0000
0100
0000
0010
0100
,
1000
0001
0100
0010
,
2002
0000
0000
3003
,
0010
0000
1000
0000
1001
0000
0000
0000
0100
0000
0000
0010
0000
0000
1000
0000
,
0000
0000
0001
0000
0010
0000
0000
0000
0101
0000
0000
1010
0000
0000
0101
0000
,
0010
0000
1000
0000
1001
0000
0000
0000
0100
0000
0000
0010
0000
0000
1000
0000
,
0000
0000
0001
0000
0010
0000
0000
0000
0101
0000
0000
1010
0000
0000
0101
0000
,
0010
0000
1000
0000
1001
0000
0000
0000
0100
0000
0000
0010
0000
0000
1000
0000
,
0000
0000
0001
0000
0010
0000
0000
0000
0101
0000
0000
1010
0000
0000
0101
0000
,
0010
0000
1000
0000
1001
0000
0000
0000
0100
0000
0000
0010
0000
0000
1000
0000
,
0000
0000
0001
0000
0010
0000
0000
0000
0101
0000
0000
1010
0000
0000
0101
0000
,
2002
0000
0000
0000
,
0000
0000
3003
0000
;
