
//----- song ID: tuck -----//
#TITLE:End of Fairytale;
#ARTIST:technoplanet feat. はるの;
#ARTISTTRANSLIT:technoplanet feat. Horuno;
#GENRE:けものフレンズ×NonStopDance -フレンズの歌の音楽-;
#MUSIC:End of Fairytale.ogg;
#BANNER:End of Fairytale.png;
#BACKGROUND:End of Fairytale-bg.png;
#CDTITLE:./CDTitles/NSD A3.png;
#SAMPLESTART:47.945;
#SAMPLELENGTH:15.000;
#SELECTABLE:YES;
#OFFSET:0.000;
#BPMS:0.000=250.000;
#STOPS:;
#BGCHANGES:;
#FGCHANGES:;

//--------------- dance-single - ----------------
#NOTES:
     dance-single:
     :
     Beginner:
     7:
     0,0,0,0,0:
0000
0000
0000
0000
,
0000
0000
0000
0000
,
0000
0000
0000
0000
,
0000
0000
0000
0000
,
0010
0000
0100
0000
,
1000
0000
0000
0000
,
0001
0000
0010
0000
,
0100
0000
0000
0000
,
1000
0000
0001
0000
,
0100
0000
0010
0000
,
1000
0001
0100
0000
,
0010
0000
0100
0000
,
1000
0001
0100
0000
,
0010
0000
0100
0000
,
1000
0001
0100
0000
,
0010
0000
0100
0000
,
0010
1000
0001
0000
,
0100
0000
0010
0000
,
1000
0000
0000
0000
,
0001
0000
0100
0000
,
0010
0000
0000
0000
,
1000
0000
0001
0000
,
0100
0000
0000
0000
,
0010
0000
0100
0000
,
0010
0000
1000
0000
,
0001
0000
0100
0000
,
0010
0100
0000
0000
,
1000
0000
0001
0000
,
0010
0100
0000
0000
,
0001
0000
1000
0000
,
0100
0010
0000
0000
,
0010
0100
0000
0000
,
1000
0000
0001
0000
,
0100
0000
1001
0000
,
0100
0000
0010
0000
,
0100
0000
0000
0000
,
1000
0000
0001
0000
,
0010
0000
0000
0000
,
0100
0000
0010
0000
,
1000
0000
0000
0000
,
0001
0000
0001
0000
,
1000
0000
0000
0000
,
0010
0000
0100
0000
,
0010
0000
0000
0000
,
1000
0000
0001
0000
,
0100
0000
0000
0000
,
0010
0000
0100
0000
,
1000
0000
0000
0000
,
0001
0000
0010
0000
,
0100
0000
0000
0000
,
1001
0000
0100
0000
,
0010
0000
0100
0000
,
1000
0000
0002
0000
,
0000
0003
0000
0000
,
1000
0000
0100
0000
,
1000
0000
0001
0000
,
0100
0000
0010
0000
,
0200
0000
0000
0300
,
1000
0000
0001
0000
,
0100
0000
0010
0000
,
0100
0000
1000
0000
,
0002
0000
0000
0003
,
0010
0000
0100
0000
,
1000
0000
0001
0000
,
0010
0100
1000
0000
,
0001
1000
0001
0000
,
1001
0000
0000
0000
,
0000
0000
0010
0100
,
1000
0000
0000
0000
,
0000
0000
0001
0010
,
0100
0000
0000
0000
,
0000
0000
0010
0100
,
0010
0000
0000
0000
,
0000
0000
1000
0001
,
0100
0000
0000
0000
,
0010
0000
0000
0000
,
0100
0000
0000
0000
,
0010
0000
0000
0000
,
0001
0000
0010
0000
,
0100
0000
1000
0000
,
0001
0010
0100
0000
,
1000
0000
0001
0000
,
1001
0000
0100
0000
,
0010
0000
0100
0000
,
0001
0000
1000
0000
,
0001
0000
0000
0000
,
0010
0000
0100
0000
,
0010
0000
1000
0000
,
0001
0000
0100
0000
,
0010
0000
1000
0000
,
0001
0000
0100
0000
,
0010
0000
0100
0000
,
1000
0000
0001
0000
,
0010
0000
0100
0000
,
0010
0100
1000
0000
,
0001
0010
0100
0000
,
0001
1000
0001
0100
,
0010
0000
1000
0000
,
1001
0000
0100
0000
,
0010
0000
0100
0000
,
0001
0000
0010
0000
,
0100
0000
0000
0000
,
1000
0000
0001
0000
,
0010
0000
0100
0000
,
0010
0000
0001
0000
,
0010
0000
0000
0000
,
0100
0000
1000
0000
,
0001
0000
0010
0000
,
0100
0000
1000
0000
,
1001
0000
0000
0000
,
0010
0000
0100
0000
,
1000
0000
0000
0000
,
0001
0010
0100
0000
,
1000
0000
0001
0000
,
1001
0000
0100
0000
,
0010
0000
0100
0000
,
1001
0000
0100
0000
,
1000
0000
0001
0000
,
0010
0000
0100
0000
,
0001
0000
0010
0000
,
0100
0000
1000
0000
,
0001
0000
0100
0000
,
0010
0100
1000
0000
,
0001
0000
0100
0000
,
0010
0000
0100
0000
,
1000
0001
0100
0000
,
0010
0000
0100
0000
,
1000
0000
0001
0000
,
0100
0000
0000
0000
,
0010
0000
0000
0000
,
0220
0000
0000
0000
,
0000
0000
0000
0000
,
0330
0000
0000
0000
,
0000
0000
0000
0000
,
1000
0000
0001
0000
,
0010
0000
0100
0000
,
1000
0000
0001
0000
,
0100
0000
0010
0000
,
0100
0000
0000
0000
,
1000
0000
0000
0000
,
0001
0000
0010
0000
,
0100
0000
0000
0000
,
1000
0000
0001
0000
,
0100
0000
0010
0000
,
0100
0000
0000
0000
,
1000
0000
0001
0000
,
2002
0000
0000
0000
,
0000
0000
0000
0000
,
0000
0000
3003
0000
;

//--------------- dance-single - ----------------
#NOTES:
     dance-single:
     :
     Easy:
     10:
     0,0,0,0,0:
0000
0000
0000
0000
,
0000
0000
0000
0000
,
0000
0000
0000
0000
,
0000
0000
0000
0000
,
0010
0100
1000
0000
,
0001
0000
0100
0000
,
0010
1000
0001
0100
,
0010
0000
0100
0000
,
1000
0001
0100
0010
,
0100
1000
0001
0010
,
0100
0000
1000
0000
,
0001
0100
0010
0000
,
0100
1000
0001
0100
,
0010
0000
0100
0000
,
0010
0100
1000
0001
,
0010
0100
0010
0000
,
2000
0000
0000
0000
,
3002
0000
0000
0000
,
0013
0000
0010
1000
,
0100
0000
0010
0000
,
0010
0000
1000
0001
,
0100
0000
0010
1000
,
0001
0000
0100
0000
,
0010
0100
1000
0000
,
0001
0000
0100
0010
,
0001
0010
0100
1000
,
0001
0000
0010
0000
,
0100
0001
0010
0000
,
0100
0000
0010
0000
,
0010
0100
1000
0000
,
0001
0010
0100
0000
,
1000
0000
0001
0000
,
1002
0000
1000
0000
,
1000
0000
1003
0000
,
0010
0100
1000
0000
,
0001
0010
0001
0000
,
0010
0000
0100
0000
,
1000
0000
0001
0000
,
0100
0010
0100
0000
,
0001
1000
0100
0000
,
0001
0010
0100
0001
,
1000
0000
0001
0000
,
0100
0010
0100
0000
,
1000
0001
0100
0000
,
0010
0000
0100
0000
,
0010
0100
1000
0000
,
0001
0000
0000
0000
,
0100
0000
0000
0000
,
0001
0000
0010
0000
,
1000
0000
0000
0000
,
1001
0000
0100
0000
,
0010
0100
1000
0000
,
0001
0010
0100
0000
,
0001
0000
0010
0000
,
0100
0001
0010
0000
,
0100
1000
0001
0000
,
0100
0010
0100
0000
,
2000
0000
3002
0000
,
0103
0010
1000
0000
,
0010
0001
0100
0000
,
0010
0100
0001
0010
,
0100
0000
1000
0000
,
0001
0010
0100
0000
,
0001
1000
0001
0000
,
0010
0100
1000
0001
,
0010
0000
0101
0000
,
0010
0000
1000
0000
,
0001
0000
0100
1000
,
0010
0000
0100
0000
,
0010
0000
1000
0100
,
0001
0000
0100
0000
,
0010
0000
0100
0001
,
0010
0000
1000
0000
,
0001
0000
0100
1000
,
0100
0001
0010
0000
,
0100
0000
1000
0000
,
0100
0001
0010
0000
,
0100
0000
1000
0000
,
0001
0010
0100
0000
,
0001
1000
0001
0000
,
0010
1000
0001
0010
,
0100
0010
1000
0001
,
0110
1000
0001
0100
,
0010
0100
1000
0001
,
0100
0010
0100
1000
,
0001
0100
0010
0100
,
0010
1000
0001
0100
,
0010
1000
0001
0100
,
0001
0100
0010
0100
,
0010
1000
0001
0100
,
0010
1000
0001
1000
,
0010
1000
0100
0010
,
0100
0010
0100
1000
,
0010
1000
0001
0010
,
0001
0100
0010
0100
,
0010
0100
0001
0010
,
2000
0000
0000
0000
,
0002
0000
0000
3003
,
0110
0000
1000
0000
,
0001
0100
0010
0000
,
0100
0000
1000
0000
,
0001
0100
0010
0000
,
0100
1000
0001
0000
,
0100
0010
0100
0000
,
0010
0100
0001
0000
,
0100
1000
0100
0000
,
0010
0100
1000
0000
,
0001
0010
0100
0001
,
0010
0000
0100
0000
,
0010
0000
0100
0000
,
1000
0001
0100
0000
,
0010
0100
1000
0000
,
0001
0000
0010
0000
,
0100
0000
0000
0000
,
1001
0000
0100
0000
,
0010
0100
1000
0000
,
0001
0010
0100
0000
,
0001
0000
0010
0000
,
0100
0001
0010
0000
,
0100
1000
0001
0000
,
0100
0010
0100
0000
,
2000
0000
3002
0000
,
0103
0010
1000
0000
,
0010
0001
0100
0000
,
0010
0100
0001
0010
,
0100
0000
1000
0000
,
0001
0010
0100
0000
,
0001
1000
0001
0000
,
0010
0100
1000
0001
,
0010
0000
0101
0000
,
0120
0000
0000
0000
,
0000
0000
0000
0000
,
0130
0001
0010
0100
,
0010
0100
0010
0001
,
0100
0010
0100
0001
,
0010
0001
0100
0010
,
0100
0001
0100
0001
,
1000
0010
0100
0001
,
1000
0001
0010
0001
,
0010
0100
1000
0100
,
0010
0001
1000
0010
,
0100
0001
0010
0100
,
1000
0001
0100
0010
,
1000
0010
1000
0001
,
0100
0001
0100
0001
,
1000
0010
0100
0010
,
2000
0000
0000
0000
,
0000
0000
3002
0000
,
0000
0000
1003
0000
;

//--------------- dance-single - ----------------
#NOTES:
     dance-single:
     :
     Medium:
     12:
     0,0,0,0,0:
0000
0000
0000
0000
,
0000
0000
0000
0000
,
0000
0000
0000
0000
,
0000
0000
0000
0000
,
0010
0100
0001
1000
,
0001
0010
0001
1000
,
0100
0010
0100
0010
,
0100
1000
0010
1000
,
0001
1000
0010
0100
,
0001
1000
0100
0010
,
0001
0010
0001
0010
,
0100
1000
0100
1000
,
0100
0010
0001
1000
,
0010
0100
0010
1000
,
0001
0010
0100
0010
,
0001
0100
0001
1000
,
2000
0000
0000
0000
,
0002
0000
0000
3000
,
1003
0010
0100
1000
,
0010
0001
0100
0000
0010
0000
1000
0000
,
0001
0010
0001
1000
,
0001
0100
1000
0000
0100
0000
1000
0000
,
0010
0000
0100
0000
0001
0000
0010
1000
,
0100
0010
0100
0010
,
0001
0000
0100
0000
0001
0000
0010
0001
,
0100
1000
0001
0100
,
0001
0000
0100
0000
0001
0000
1000
0010
,
0100
0010
0100
1000
,
0010
0000
1000
0000
0100
0000
1000
0010
,
0001
0100
0001
1000
,
1001
0000
0110
0000
,
0001
0100
0010
1000
,
0110
0000
1001
0000
,
0011
0000
1000
0000
0010
0001
1000
0000
,
0100
0010
0001
0100
,
0010
0100
0001
0010
,
0100
0010
1000
0000
0001
0000
1000
0000
,
0010
1000
0100
0000
0001
0000
1000
0000
,
0001
0100
0010
1000
,
0010
0100
0010
0100
,
0001
1000
0010
0000
0001
0000
0100
0000
,
0010
0001
1000
0000
0010
0000
1000
0000
,
0100
0010
1000
0000
0001
0000
0010
0000
,
0100
1000
0010
0000
0100
0000
1000
0000
,
0001
0010
0100
0000
0010
0000
0100
0000
,
0010
0001
1000
0000
0010
0000
1000
0000
,
0100
0000
0010
0000
,
0001
1000
0001
0000
,
0010
0000
0001
0000
,
0100
0000
0000
0000
,
1001
0000
0010
0000
0100
1000
0010
0000
,
0001
0000
1000
0000
0010
0000
1000
0001
,
0010
0000
0100
0000
0010
0000
0100
0010
,
0001
0100
0001
0010
,
0001
0010
1000
0000
0100
0000
0010
0000
,
0001
1000
0010
0000
0001
0000
0100
0000
,
0001
0000
0010
0000
0100
0001
1000
0000
,
0001
0100
0020
0000
,
0130
0000
1000
0000
0010
0000
1000
0010
,
0001
0100
0001
1000
,
0100
0001
1000
0000
0100
0000
0010
0000
,
0100
1000
0010
0000
0001
0000
1000
0000
,
0010
0001
1000
0000
0100
0000
0010
0000
,
0100
0010
1000
0000
0001
0000
1000
0000
,
0100
0001
1000
0000
0100
0000
0000
0000
,
0001
0000
0010
0000
,
0001
0000
0000
0100
0000
0000
1000
0000
,
0000
0001
0000
0000
0010
0000
0100
0000
,
0001
0000
0000
1000
0000
0000
0100
0000
,
0000
0001
0000
0000
0010
0000
1000
0000
,
0100
0000
0000
0100
0000
0000
1000
0000
,
0000
0010
0000
0000
0001
0000
1000
0000
,
0010
0000
0000
1000
0000
0000
0010
0000
,
0000
0100
0000
0000
0001
0000
1000
0000
,
0100
1000
0001
1000
,
0001
0100
0001
0100
,
0010
0001
0100
0000
0010
0000
1000
0000
,
0010
0100
1000
0000
0001
0000
1000
0000
,
0010
0100
0010
1000
,
0001
1000
0001
0010
,
0001
0010
0100
1000
,
0100
0000
0010
0000
0100
0001
1000
0100
,
0010
0100
0001
0100
,
0010
0100
0010
1000
,
0010
1000
0100
0010
,
0100
1000
0010
0100
,
0010
0100
0001
1000
,
0010
0100
0010
0100
,
0010
1000
0001
0100
,
0001
1000
0010
1000
,
0100
0010
0001
1000
,
0010
0100
0001
1000
,
0001
0100
0010
0100
,
0001
0010
0100
1000
,
0100
1000
0010
1000
,
0001
0100
0010
1000
,
0001
0010
0100
0010
,
0001
0010
0001
0100
,
1001
0100
0001
0010
,
0100
0000
0010
1000
0100
0000
0010
0000
,
0001
1000
0010
1000
,
0001
0000
0010
0001
0100
0000
1000
0000
,
0001
0000
0010
0000
0001
0000
0100
1000
,
0010
1000
0100
0010
,
0001
0100
0010
0000
0001
0000
1000
0000
,
0001
0010
0100
0000
0010
0000
0100
0000
,
0001
0000
0010
0000
0001
0000
0010
1000
,
0001
0100
0010
0100
,
0010
0001
1000
0000
0100
0000
0010
0000
,
0100
0001
1000
0000
0100
0000
1000
0000
,
0010
1000
0001
0100
,
0001
0100
0010
1000
,
0100
0000
0010
0000
,
1001
0000
0000
0000
,
0101
0000
0000
0000
0100
0010
1000
0000
,
0001
0100
0001
0100
,
1001
0010
0100
1000
,
0100
0001
1000
0000
0010
0000
1000
0000
,
0100
0000
0010
0001
0100
0000
1000
0000
,
0100
0000
1000
0000
0001
0000
1000
0100
,
0010
0100
0001
0100
,
0010
0100
1000
0000
0100
0001
0010
0000
,
0100
0010
0001
0010
,
0100
0001
1000
0000
0100
0000
0010
0000
,
0100
1000
0010
0000
0001
0000
0010
0001
,
0100
0000
1000
0000
0100
1000
0010
0000
,
0001
0010
0100
0010
,
0100
0000
1000
0000
0010
0000
1000
0100
,
0001
0000
1000
0000
,
0010
0000
0001
0000
,
1001
0100
0010
1000
,
0100
0010
0001
1000
,
0010
1000
0001
0100
,
0010
0100
0001
1000
,
0010
0100
0001
0100
,
0001
0010
0001
1000
,
0010
1000
0100
0010
,
0001
0100
0001
0100
,
0001
1000
0010
0100
,
0001
0100
0001
1000
,
0010
0100
0010
1000
,
0001
0100
0010
0100
,
0001
0100
0010
1000
,
0010
0100
0001
0100
,
0001
0100
0010
1000
,
0001
1000
0010
1000
,
0010
0000
1000
0100
0000
0001
0000
0100
,
0000
1000
0000
0001
0000
0100
0010
1000
,
0100
0010
0100
0000
1001
0000
0000
0000
;

//--------------- dance-single - ----------------
#NOTES:
     dance-single:
     :
     Hard:
     17:
     0,0,0,0,0:
0000
0000
0000
0000
,
0000
0000
0000
0000
,
0000
0000
0000
0000
,
0000
0000
0000
0000
,
1000
0100
0010
1000
0001
0010
0001
0010
,
0001
1000
0100
0010
0001
0100
0010
0100
,
0010
0100
0001
0010
0001
0100
0001
1000
,
0100
1000
0001
0100
0001
1000
0100
1000
,
0100
1000
0001
0100
0010
1000
0010
0100
,
0010
0100
0001
0100
0001
1000
0001
1000
,
0010
0100
0001
0100
0001
0010
0100
0010
,
0100
1000
0001
0010
0001
0010
0001
0100
,
0010
1000
0010
1000
0100
1000
0001
0100
,
0001
0100
0001
0010
0100
1000
0010
0100
,
0001
0010
0001
0100
0001
0010
0100
0010
,
0100
0010
0001
0100
0010
0100
0010
0100
,
0020
0000
0000
0000
,
2030
0000
0000
0001
,
3001
0000
0110
0000
0000
0000
0001
0010
,
0100
0000
1000
0000
0000
0010
0100
1000
,
0010
0000
1001
0000
0000
0000
0001
0010
,
0100
0000
1000
0001
0000
0100
0010
1000
,
0010
0000
0101
0000
0000
0000
1000
0100
,
0010
0000
0001
0000
0000
0100
0010
0001
,
0100
0000
1001
0000
0000
0010
1000
0100
,
0010
0000
0001
1000
0000
0010
0100
0001
,
0100
0000
1010
0000
0000
0000
0001
0010
,
0100
0000
1000
0000
0000
0010
0100
1000
,
0010
0000
1001
0000
0000
0000
0001
0010
,
0100
0000
1000
0001
0000
0100
0010
1000
,
0020
0000
1000
0000
,
1030
0100
0010
0000
0010
0001
0100
0000
,
1001
0000
0202
0303
,
2020
3030
0000
0000
0202
0303
0000
0000
0220
0330
0000
0000
,
1000
0010
1000
0001
1000
0100
1000
0010
,
0100
0001
0010
0100
0010
0001
0100
0010
,
1000
0001
0100
0010
1000
0100
0010
0001
,
0100
0010
1000
0100
0010
0001
0010
0001
,
1000
0100
1000
0100
1000
0010
0100
0010
,
1000
0001
1000
0001
0100
0001
0010
0100
,
0010
0100
0010
0001
1000
0001
0100
0001
,
1000
0010
0100
0010
0100
0010
1000
0001
,
1000
0100
0010
0001
0100
0010
1000
0001
,
0010
0001
1000
0001
0100
0010
0100
0010
,
0100
0001
0010
0001
0100
0010
1000
0100
,
0010
0100
0010
0001
0100
0001
1000
0100
,
0020
0000
0000
0000
0000
0000
0000
0000
1030
0000
0000
0000
0001
0100
0010
0000
,
0000
1000
0000
0000
0001
0000
0010
0000
,
1000
0100
0010
0001
0020
0000
0000
0000
,
0230
0000
0301
0000
,
0001
0100
0010
1000
0001
0010
0001
0100
,
0010
1000
0100
1000
0010
1000
0001
0010
,
0100
0010
0001
0010
0100
1000
0001
0100
,
0010
0100
0001
0010
0100
0010
0100
1000
,
0100
1000
0010
1000
0100
0010
0100
0010
,
0001
0010
0100
1000
0010
1000
0010
1000
,
0010
0000
0000
0101
0000
0000
1010
0000
,
0000
1001
0000
0000
0110
0000
0000
0000
,
0100
0010
0001
0010
0100
1000
0010
0100
,
0001
0100
0001
1000
0001
0100
0010
1000
,
0100
0010
0001
0010
0001
0100
0001
0010
,
0100
0010
0100
0010
0001
1000
0100
1000
,
0001
0010
0001
0100
0010
0100
0010
1000
,
0010
0100
0001
0100
0001
1000
0001
0100
,
2002
0000
0000
0000
,
3003
0000
0000
0000
0000
0000
0000
0000
0010
0100
0010
0100
0010
0000
0000
0000
,
0202
0303
0000
0000
0000
0000
2020
3030
0000
0000
0000
0000
0202
0303
0000
0000
,
0000
0000
2020
3030
0000
0000
0000
0000
0202
0303
0000
0000
2020
3030
0000
0000
,
0220
0330
0000
0000
0000
0000
0202
0303
0000
0000
0000
0000
2020
3030
0000
0000
,
0000
0000
0220
0330
0000
0000
0000
0000
0202
0303
0000
0000
0202
0303
0000
0000
,
0100
1000
0010
0100
,
0001
0100
0010
0100
,
0010
0100
1000
0001
0010
1000
0100
0010
,
0001
0100
1000
0010
0001
0010
0100
1000
,
0110
0001
0100
0001
,
0010
0000
0000
0000
0100
0000
0000
0000
1000
0001
0100
0000
0010
1000
0001
0000
,
0100
0001
0010
0100
,
1000
0010
1000
0100
,
0002
0000
0000
0000
0203
0000
0000
2300
,
0000
3001
0000
0000
0110
0000
0110
0000
,
0010
0000
0000
0100
0000
0000
1000
0000
,
0001
0010
1000
0100
0010
0001
0100
0010
,
0100
0010
0100
1000
0001
0010
0001
0100
,
0010
1000
0100
1000
0001
0100
0010
1000
,
0010
1000
0001
0100
0001
0010
0001
0100
,
0010
1000
0001
0010
0100
1000
0100
0010
,
0100
1000
0010
0100
0010
1000
0100
1000
,
0001
1000
0010
0100
0010
1000
0100
1000
,
0001
0010
0001
0010
0001
1000
0100
1000
,
0001
0100
0010
1000
0010
0100
0010
1000
,
0001
1000
0001
0010
0100
1000
0001
0010
,
0001
0100
0001
1000
0100
0010
0100
0010
,
0001
1000
0001
1000
0001
0010
0100
1000
,
0010
0100
0010
0100
0001
0010
0001
0100
,
0001
0010
0100
1000
0010
1000
0010
1000
,
0001
0100
0010
1000
0001
0100
0001
1000
,
0200
0000
0000
0000
,
0301
0010
0100
0010
0001
0100
0001
0100
,
0001
0100
0001
1000
0001
0010
0001
0100
,
0010
1000
0100
0010
0100
1000
0010
0100
,
0001
1000
0010
0100
0001
0010
0100
1000
,
0010
0100
0001
0010
0100
1000
0100
1000
,
0001
0010
0001
0010
0001
0100
0010
0100
,
0001
1000
0001
1000
0010
1000
0100
0010
,
0100
0010
0100
1000
0001
1000
0010
1000
,
0001
0100
0010
0100
0010
0100
0001
1000
,
0001
0010
0100
1000
0010
0100
0001
1000
,
0100
1000
0001
1000
0010
0100
0010
0100
,
0010
1000
0100
1000
0010
0100
0001
0010
,
0100
0010
0100
1000
0010
1000
0001
0010
,
0200
0000
0000
0000
0000
0000
0000
0000
0301
0000
0000
0000
1000
0010
0100
0000
,
0000
0001
0000
0000
1000
0000
0100
0000
,
0001
0010
0100
1000
0200
0000
0000
0000
,
0320
0000
1030
0000
,
1001
0000
0000
0000
0010
0100
0010
0000
,
0000
0000
0001
0000
1001
0000
0000
0000
0010
0100
0010
0100
0010
0000
0000
0000
,
0100
0010
0001
0010
0100
1000
0001
0100
,
0010
0100
0001
0010
0100
0010
0100
1000
,
0100
1000
0010
1000
0100
0010
0100
0010
,
0001
0010
0100
1000
0010
1000
0010
1000
,
0010
0000
0000
0101
0000
0000
1010
0000
,
0000
1001
0000
0000
0110
0000
0000
0000
,
0100
0010
0001
0010
0100
1000
0010
0100
,
0001
0100
0001
1000
0001
0100
0010
1000
,
0100
0010
0001
0010
0001
0100
0001
0010
,
0100
0010
0100
0010
0001
1000
0100
1000
,
0020
0000
0000
0000
,
0000
0000
0000
0030
,
1001
0000
0101
0000
,
1001
0000
0110
0000
,
2002
0000
0000
0000
,
0000
0000
0000
3003
,
0001
0010
0100
0010
0100
0010
0001
0100
,
0010
1000
0001
0010
0100
0010
0001
0100
,
0001
0100
0010
1000
0100
0010
0100
0010
,
0001
0100
0010
0100
0001
1000
0010
0100
,
0001
1000
0001
0100
0001
1000
0100
0010
,
0001
1000
0010
0100
0010
0100
0001
0100
,
0001
0010
0001
0010
0100
1000
0010
0100
,
0010
1000
0001
0100
0001
0100
0001
1000
,
0010
1000
0100
0010
0001
0010
0001
1000
,
0100
1000
0010
0100
0001
0010
0100
1000
,
0010
1000
0001
0100
0010
0100
0001
0010
,
0001
0010
0001
1000
0100
1000
0100
1000
,
0020
0000
0000
0000
,
2030
0000
0000
0000
,
3001
0010
0001
0100
0000
1000
0000
0001
,
0000
0010
0000
0100
0100
0010
0001
0010
,
0001
0100
0001
0100
2002
0000
0000
0000
,
3003
0000
0000
0000
;
