
//----- song ID: drtb -----//
#TITLE:Dropped Toybox;
#ARTIST:NAMCO Sound Team "Awoo";
#GENRE:SONIC LEAGUER'S PRIVILEGE;
#MUSIC:Dropped Toybox.ogg;
#BANNER:Dropped Toybox.png;
#BACKGROUND:Dropped Toybox-bg.png;
#CDTITLE:./CDTitles/NSD A3.png;
#SAMPLESTART:95.987;
#SAMPLELENGTH:15.000;
#SELECTABLE:YES;
#OFFSET:0.000;
#BPMS:0.000=95.000
,36.000=190.000
,69.000=760.000
,70.000=190.000
,164.000=47.500
,172.000=95.000
,188.000=190.000
,220.000=95.000
,222.000=190.000
,287.000=95.000
;
#STOPS:36.000=0.947
,69.000=0.237
,97.000=0.316
,286.000=0.316
,286.500=0.316
;
#DISPLAYBPM:47.000:190.000;
#BGCHANGES:;
#FGCHANGES:;

//--------------- dance-single - ----------------
#NOTES:
     dance-single:
     :
     Beginner:
     4:
     0,0,0,0,0:
0000
0000
0000
0000
,
0000
0000
0000
0000
,
0000
0000
0000
0000
,
0000
0000
0000
0000
,
0000
0000
0000
0000
,
0010
0000
0100
0000
,
1000
0000
0001
0000
,
0010
0000
0100
0000
,
1000
0000
0001
0000
,
0000
1000
0000
0000
,
0001
0000
0010
0000
,
0000
0100
0000
0000
,
0010
0000
0100
0000
,
0000
1000
0000
0000
,
0000
0001
0000
0000
,
0000
0010
0000
0000
,
0100
0000
1000
0000
,
0010
0000
0001
0000
,
1000
0000
0100
0000
,
0001
0010
0000
0000
,
0100
0000
1000
0000
,
0000
0001
0000
0000
,
0010
0000
0100
0000
,
0000
1000
0000
0000
,
0001
0100
0000
0000
,
0000
1000
0000
0001
,
0000
0100
0000
0010
,
0000
1000
0000
0001
,
0000
0100
0000
1000
,
0000
0001
0000
0100
,
0000
0010
0000
0001
,
0000
1000
0000
0001
,
0000
0100
0000
0010
,
1000
0000
0001
0000
,
0100
0000
0010
0000
,
1000
0000
0001
0000
,
0100
0000
0010
0000
,
0020
1030
0000
0100
,
0000
0001
0000
0010
,
0000
0100
0000
1000
,
0000
0001
1000
0001
,
2002
0000
3003
0000
,
0220
0000
0330
0000
,
1001
0000
0000
0000
,
0010
0000
0000
0000
,
0100
0000
0000
0000
,
1000
0000
0000
0000
,
0001
0000
1000
0000
,
0100
0000
0000
0000
,
0010
0000
0100
0000
,
0010
0000
0000
0000
,
0001
0000
1000
0000
,
0001
0000
0000
0000
,
0100
0000
1000
0000
,
0001
0000
0100
0000
,
0010
0000
1001
0000
,
0100
0000
2000
0000
,
3000
0000
0001
0000
,
1000
0000
0020
0000
,
0000
0030
0100
0000
,
1000
0000
0001
0000
,
0000
0000
1000
0000
,
0010
0000
0100
0000
,
0000
0000
0100
1000
,
0100
0000
0000
0000
,
0000
0000
0001
1000
,
0001
0000
0000
0000
,
0000
0000
0100
1000
,
0100
0000
0000
0000
,
0000
0000
0001
1000
,
0001
0000
0000
0000
,
0000
0000
0000
0000
0100
1000
0220
0000
,
0000
0000
0000
0330
0000
0000
0000
0200
,
0000
0000
0000
0000
,
0000
0000
0000
0000
0000
0000
0000
0310
;

//--------------- dance-single - ----------------
#NOTES:
     dance-single:
     :
     Easy:
     8:
     0,0,0,0,0:
0000
0000
0000
0000
,
0000
0000
0000
0000
,
0000
0000
0000
0000
,
0000
0000
0000
0000
,
0000
0000
0000
0000
,
0010
1000
0100
0000
,
1000
0010
0001
0000
,
0010
1000
0100
0000
,
1000
0010
0001
0000
,
0000
1000
0000
0100
,
0001
1000
0010
0000
,
0000
0100
0000
1000
,
0010
0001
0100
0010
,
0000
1000
0000
0100
,
1000
0000
0001
0000
1000
0000
0000
0100
,
0000
0010
0000
0001
,
0100
0000
0001
0000
1000
0100
0000
0100
,
0010
0000
0001
0010
,
1000
0000
0001
0010
0100
0000
1000
0000
,
0001
0000
0010
0000
1000
0000
0001
0010
,
0100
0000
0001
0000
1000
0000
0100
1000
,
0100
0000
0001
0000
1000
0000
0001
1000
,
0010
0000
0001
0000
0100
0000
0010
0100
,
0010
0000
1000
0000
0100
0000
0010
1000
,
0001
0100
0010
0100
,
0020
0000
1030
0000
0100
1000
0001
0000
,
0001
1000
0100
0001
0100
1000
0010
0000
,
0100
0000
1000
0000
0010
1000
0001
0000
,
0010
0001
0100
0001
1000
0010
1000
0100
,
1000
0000
0001
0000
0010
1000
0100
0000
,
1000
0001
0010
0100
1000
0100
0001
0000
,
0010
0100
1000
0000
0010
1000
0001
0000
,
0010
0001
0100
0000
1000
0001
0010
0000
,
1000
0000
0100
0000
0001
1000
0001
0000
,
0100
0100
1000
0000
0010
0010
0001
0000
,
1000
0100
1000
0000
0001
1000
0001
0000
,
0100
0000
1000
0000
0010
1000
0001
0000
,
0020
1030
0001
0100
,
1000
0100
0001
0000
1000
0001
0010
0000
,
1000
0001
0100
0000
0010
0100
1000
0000
,
0010
0000
0001
0000
1000
0100
0001
0100
,
2002
0000
0000
0000
0000
0000
3003
0000
0000
0000
0000
0000
0000
0000
0000
0000
1000
0000
0000
0100
0000
0000
0010
0000
0000
0000
0000
0000
0000
0000
0000
0000
,
0001
0000
0000
0010
0000
0000
0100
0000
0000
0000
0000
0000
0000
0000
0000
0000
1000
0000
0000
0100
0000
0000
0010
0000
0000
0000
0000
0000
0000
0000
0000
0000
,
1001
0000
0000
0100
0000
0000
0010
0000
0000
0000
0000
0000
1000
0000
0001
0000
,
0010
0000
0000
1000
0000
0000
0001
0000
0000
0000
0000
0000
0000
0000
0000
0000
,
0100
0000
0000
0010
0000
0000
0100
0000
0000
0000
0000
0000
0000
0000
0000
0000
,
1000
0000
0000
0001
0000
0000
0200
0000
0000
0000
0000
0000
0300
0000
0000
0000
,
0001
0010
1000
0000
,
0100
1000
0001
0000
,
0010
1000
0100
0000
,
0010
1000
0100
0000
,
0001
0010
1000
0000
,
0001
0010
1000
0000
,
0100
0001
1000
0100
,
0001
0000
1000
0000
0100
0000
1000
0100
,
0010
0000
1001
0010
,
0100
0001
0010
0000
2000
0000
0100
0000
,
3010
0100
0001
0100
,
1000
0001
1000
0000
0020
0000
0100
0000
,
1000
0030
0100
0001
,
1000
0100
0010
0000
0001
0000
1000
0000
,
0100
0010
1000
0100
,
0010
1000
0001
0000
0100
1000
0001
0000
,
0100
0010
0001
0000
0100
0000
1000
0000
,
0100
0000
1000
0000
0001
0100
0010
0000
,
0100
0010
0001
1000
,
0001
0000
0100
0001
1000
0000
0001
0000
,
0100
0000
0010
0001
0100
0000
1000
0001
,
0100
0000
1000
0001
0100
0000
0100
0000
,
0010
0000
1000
0000
0001
0000
1000
0100
,
0001
1000
0020
0000
0100
0000
0001
0000
,
0130
1000
0001
0010
0100
1000
0220
0000
,
0000
0000
0000
0330
0000
0000
0000
2000
,
0000
0000
0000
0000
,
0000
0000
0000
0000
0000
0000
0000
3010
;

//--------------- dance-single - ----------------
#NOTES:
     dance-single:
     :
     Medium:
     12:
     0,0,0,0,0:
0000
0000
0000
0000
,
0000
0000
0000
0000
,
0000
0000
0000
0000
,
0000
0000
0000
0000
,
0000
0000
0000
0000
,
0100
0000
0001
1000
0010
0000
0100
0010
,
0001
0000
0100
0001
1000
0000
0010
0000
,
0100
1000
0001
0000
0010
1000
0100
0000
,
0001
0010
0100
0000
1000
0000
0001
0000
,
1001
0000
0001
0000
1000
0000
0010
0100
,
1000
0000
0001
0010
0100
0010
0001
0100
,
1000
0000
0010
0000
0100
0000
0001
0010
,
0100
0000
1000
0001
0010
1000
0100
0001
,
0010
0000
0001
0000
1000
0000
0010
1000
,
0001
0000
1000
0100
0001
0010
0100
0010
,
0001
0000
0100
0000
0001
0000
1000
0100
,
0010
0000
1000
0100
0001
0010
1000
0010
,
0100
0010
0002
0000
1003
0010
0100
0000
,
0001
0000
1000
0100
0010
1000
0001
0010
,
1000
0000
0100
0000
0001
0000
1000
0100
,
0010
0000
1000
0100
0001
0100
0010
0001
,
0010
0000
1000
0000
0001
0000
1000
0001
,
0100
0000
1000
0001
0010
1000
0100
0010
,
0100
0000
0001
1000
0010
0000
0100
0001
,
1000
0000
0010
1000
0100
0001
0010
0000
,
0200
0000
0301
1000
0010
0001
1000
0010
,
1000
0001
0010
1000
0010
0001
0200
0000
,
0310
1000
0001
0000
0100
0001
1000
0000
,
0100
1000
0010
1000
0001
0100
0001
0010
,
0002
0000
1003
0000
0100
0001
0010
0000
,
0001
1000
0100
0010
0001
0010
1000
0001
,
0100
0010
0001
1000
0100
0001
1000
0010
,
0100
1000
0010
0100
0001
0010
0100
1000
,
0002
0000
0013
0100
1000
0001
1000
0000
,
0100
0010
0001
1000
0010
0100
1000
0100
,
0001
0010
0001
0100
1000
0001
1000
0100
,
0010
1000
0001
0010
0100
0001
1000
0010
,
0200
0000
0301
0010
1000
0100
0010
1000
,
0001
0010
1000
0000
0001
1000
0100
0000
,
0001
1000
0010
0000
0100
0010
0001
0000
,
0100
0001
1000
0010
0001
0010
1000
0010
,
0002
0000
0000
0100
0000
0000
0013
0000
0000
0000
0000
2000
0000
0000
0000
0000
3001
0000
0000
0010
0000
0000
0100
0000
0000
0002
0000
0000
0000
0000
0003
0000
,
1000
0000
0000
0100
0000
0000
0010
0000
0000
0000
2000
0000
0000
0000
0000
0000
3001
0000
0000
0010
0000
0000
0100
0000
0000
0000
0000
0000
0000
0000
0000
0000
,
1001
0000
0000
0010
0000
0000
0100
0000
0010
0000
0000
0000
0001
0000
1000
0000
,
0100
0000
0000
0001
0000
0000
1000
0000
0000
0000
0002
0000
0000
0000
1003
0000
,
0010
0000
0000
0100
0000
0000
0010
0000
0000
0000
0000
0000
1000
0000
0010
0000
,
0001
0000
0000
1000
0000
0000
0020
0000
0000
0000
0000
0000
0030
0000
0000
0000
,
1010
0000
0100
0000
0001
0100
1000
0100
,
0010
0000
0100
0000
0001
0000
0010
0000
1000
0000
0000
1000
0000
0000
1000
0000
,
1001
0000
0001
0100
0010
0100
1000
0000
,
0100
0000
0010
0000
0001
0000
1000
0000
0010
0000
0000
0010
0000
0000
0010
0000
,
1010
0000
0100
0010
0001
0100
1000
0000
,
1000
0000
0001
0000
0100
0000
0010
0000
0001
0000
0000
1000
0000
0000
1000
0000
,
0011
0000
0010
1010
0000
0010
0011
0000
,
0010
1010
0000
0010
0011
0000
0001
0010
,
0100
0000
0000
0000
1001
0000
0100
0001
,
0010
1000
0100
0010
0002
0000
0010
1000
,
0103
0000
0010
0001
1000
0000
0010
0100
,
0001
1000
0001
0010
0200
0000
0010
0000
,
0001
0010
0301
0000
0010
0000
1000
0100
,
0001
0010
0100
0000
1000
0010
0001
1000
,
0010
0001
0100
1000
0001
0000
0010
1000
,
0100
0001
1000
0000
0010
0001
1000
0001
,
0010
0100
1000
0001
0010
0000
0001
1000
,
0010
0100
0001
0000
1000
0010
0100
0001
,
0010
0000
0100
0010
1000
0100
0001
0000
,
1000
0100
0010
1000
0001
0100
1000
0001
,
0010
1000
0100
1000
0010
0100
0001
1000
,
0010
0100
0001
1000
0010
0000
0010
0000
,
0100
0010
0001
0100
1000
0100
0001
0010
,
1000
0001
0200
0000
0010
0000
1000
0000
,
0310
0001
1000
0100
0010
1001
0220
0000
,
0000
0000
0000
0330
0000
0000
0000
0002
,
0000
0000
0000
0000
,
0000
0000
0000
0000
0000
0000
0000
1003
;

//--------------- dance-single - ----------------
#NOTES:
     dance-single:
     :
     Hard:
     16:
     0,0,0,0,0:
0000
0000
0000
0000
,
0000
0000
0000
0000
,
0000
0000
0000
0000
,
0000
0000
0000
0000
,
0000
0000
0000
0000
,
0001
0000
1000
0100
0000
0010
0000
1000
0001
0000
0010
0100
0000
1000
0000
0001
,
0100
0000
1000
0001
0000
0010
1000
0001
0100
1000
0010
1000
0001
0010
0100
0001
,
1000
0000
0000
0000
0001
0000
0100
0000
0000
0000
0010
0000
0001
1000
0010
0001
0100
0000
0000
0000
0010
0000
0001
0000
0000
0000
1000
0000
0010
0000
0000
0000
,
1000
0000
0001
0100
0000
0010
0100
0000
1000
0001
0000
0100
0010
1000
0001
0100
,
0010
0000
1001
0100
0001
0010
0001
1000
,
0010
1000
0001
0100
0001
0010
0100
0010
,
0001
0010
0001
0100
0010
1000
0010
1000
,
0100
1000
0010
0100
0010
0100
0001
0100
,
0001
0000
0010
1000
0001
0000
0010
0000
0100
0000
1000
0000
0010
0000
1000
0000
,
0010
0100
0001
0100
0001
0010
0100
0010
,
0100
0000
0010
1000
0001
0000
1000
0000
0001
0000
1000
0000
0010
0000
1000
0000
,
0100
0010
0100
1000
0010
1000
0100
1000
,
0100
0010
0002
0000
0013
1000
0001
0010
,
0100
1000
0010
1000
0001
0010
0001
1000
,
0100
0010
0001
1000
0100
0010
0001
0100
,
0010
0000
1000
0000
0100
0000
0010
0000
0001
0000
1000
0100
0001
0000
0010
0000
,
0100
0000
0010
1000
0001
0000
0010
0000
0100
0000
1000
0000
0010
0000
0100
0000
,
0001
0000
0100
0000
0010
0000
1000
0000
0010
0000
1000
0001
0100
0000
1000
0000
,
0100
0000
0000
0000
1000
0000
0000
0000
0010
0000
0000
0000
0001
0000
0000
0000
0000
0000
0100
0000
0000
0000
0000
0000
0010
0000
0000
0000
0000
0000
1000
0000
0000
0001
0000
0000
0100
0000
0000
0000
0000
0000
1000
0000
0000
0000
0000
0000
,
0001
0000
1000
0100
0010
0000
1000
0000
0001
0000
1000
0001
0100
0000
0010
0000
,
0200
0000
0001
0000
1000
0000
0310
0001
0100
0000
0010
1000
0100
1000
0010
0000
,
0001
0010
0001
0010
2000
0000
0100
0000
3001
0000
1000
0100
0001
0100
1000
0000
,
0020
0000
1000
0000
0100
0000
0031
0000
0001
0010
0001
0010
1000
0100
1000
0100
,
0020
0000
1000
0000
0100
0000
0031
0010
0100
1000
0100
1000
0010
1000
0100
0000
,
0020
0000
1000
0000
0001
0000
0130
1000
0010
0000
0100
0001
0010
0001
0100
0000
,
1000
0100
1000
0100
0002
0000
0010
0000
1003
0000
0001
0010
1000
0010
0001
0000
,
0200
0000
0001
0000
0010
0000
1300
0000
1000
0100
1000
0100
0001
0010
0001
0010
,
0100
1000
0010
0000
0100
0001
0010
0000
0100
1000
0010
0100
0001
0010
0001
0100
,
0020
0000
1000
0000
0001
0000
0130
1000
0010
0000
0100
0001
0010
0001
0100
0000
,
1000
0100
1000
0100
0002
0000
0010
0000
1003
0000
0001
0010
1000
0010
0001
0000
,
0200
0000
0001
0000
0010
0000
1300
0000
1000
0100
1000
0100
0001
0010
0001
0010
,
0200
0000
0001
0000
0010
0000
1300
0100
0010
0001
0010
0001
0100
0001
0010
0000
,
0200
0000
0001
0000
1000
0000
0310
0001
0100
0000
0010
1000
0100
1000
0010
0000
,
0001
0010
0001
0010
2000
0000
0100
0000
3001
0000
1000
0100
0001
0100
1000
0000
,
0020
0000
1000
0000
0100
0000
0031
0000
0001
0010
0001
0010
1000
0100
1000
0100
,
0010
0001
0100
0000
0010
1000
0100
0000
0010
0001
0100
0010
1000
0100
1000
0010
,
1000
0000
0000
0000
0000
0000
0000
0000
0000
0000
0000
0000
0000
0000
0000
0000
0000
0000
0002
0000
0000
0000
0000
0000
0000
0000
0000
0000
0000
0000
0000
0000
0000
0000
0000
0000
0203
0000
0000
0000
0000
0000
0000
0000
0000
0000
0000
0000
0000
0000
0000
0000
0000
0000
0000
0000
0000
0000
0000
0000
0000
0000
0000
0000
0000
0000
0310
0000
0000
0000
0000
0000
1000
0000
0000
0000
0000
0000
0100
0000
0000
1000
0000
0000
0001
0000
0000
0000
0000
0000
0010
0000
0000
0000
0000
0000
0100
0000
0000
0000
0000
0000
1000
0000
0000
0000
0000
0000
0010
0000
0000
0000
0000
0000
0100
0000
0000
0000
0000
0000
0010
0000
0000
0000
0000
0000
1000
0000
0000
0010
0000
0000
0002
0000
0000
0000
0000
0000
0000
0000
0000
0000
0000
0000
0000
0000
0000
0000
0000
0000
0103
0000
0000
0010
0000
0000
0200
0000
0000
0000
0000
0000
0000
0000
0000
0000
0000
0000
0000
0000
0000
0000
0000
0000
0000
0000
0000
0000
0000
0000
0310
0000
0000
0000
0001
0000
0000
0000
0010
0000
0000
0000
,
2000
0000
0000
0000
0000
0000
0000
0000
0000
0000
0000
0000
0000
0000
0000
0000
0000
0000
3001
0000
0000
0000
0000
0000
0100
0000
0000
0000
0000
0000
1000
0000
0000
0000
0000
0000
0020
0000
0000
0000
0000
0000
0000
0000
0000
0000
0000
0000
0030
0000
0000
0000
0000
0000
1000
0000
0000
0100
0000
0000
0020
0000
0000
0000
0000
0000
0000
0000
0000
0000
0000
0000
0000
0000
0000
0000
0030
0000
0000
0000
0000
0000
0000
0000
0001
0000
0000
0000
0010
0000
0000
0000
0100
0000
0000
0000
2000
0000
0000
0000
0000
0000
0000
0000
0000
0000
0000
0000
0000
0000
0000
0000
0000
0000
3001
0000
0000
0000
0000
0000
0100
0000
0000
0000
0000
0000
0010
0000
0000
0000
0000
0000
0200
0000
0000
0000
0000
0000
0000
0000
0000
0000
0000
0000
0000
0000
0000
0000
0000
0000
0000
0000
0000
0000
0000
0000
0302
0000
0000
0000
0000
0000
0000
0000
0000
0000
0000
0000
0000
0000
0000
0000
0000
0000
0000
0000
0000
0000
0000
0000
0013
0000
0000
1000
0000
0000
0100
0000
0000
0001
0000
0000
,
1000
0000
0100
0000
0001
0000
0100
0000
0000
0000
0100
0000
0010
0000
0000
0000
1000
0000
0000
0000
0010
0000
0100
0000
1000
0001
0100
0010
1000
0001
0100
0010
,
1000
0000
0000
0000
0000
0000
0001
0000
0000
0000
0000
0000
0100
0000
0000
0000
0000
0000
0010
0000
0000
0000
0000
0000
0100
0000
0000
0000
0000
0000
1000
0000
0000
0010
0000
0000
0001
0000
0000
0000
0000
0000
0010
0000
0000
0000
0000
0000
1000
0000
0000
0000
0001
0000
0000
0000
0100
0000
0000
0000
2000
0000
0000
0000
0000
0000
0000
0000
0000
0000
0000
0000
0000
0000
0000
0000
0000
0000
3100
0000
0000
0000
0000
0000
0010
0000
0000
0000
0000
0000
0001
0000
0000
0000
0000
0000
,
1000
0000
0100
0000
0001
0010
1000
0000
0100
0000
0001
1000
0002
0000
0000
0000
0103
0000
0000
0000
0010
0000
0100
0000
1000
0000
0001
0000
0100
0000
0010
0000
,
1000
0000
0010
0000
0001
1000
0001
0000
0100
0000
0010
0100
0020
0000
0000
0000
0000
0000
0000
0000
0000
0000
1030
0001
0100
0000
0010
0000
1000
0000
0001
0000
,
1100
0000
0001
1000
0100
1000
0010
1000
,
0001
0010
0001
0010
0001
0000
1000
0000
0001
0000
1000
0000
0000
0001
1000
0000
,
0100
0000
0010
0000
0001
0000
0100
0000
1100
0000
0000
0101
0000
0000
0101
0000
,
0001
0010
0100
0010
0001
0000
1000
0001
0100
0010
0000
1000
0100
0000
0010
0000
,
1001
0000
0010
0100
1000
0100
0010
1000
,
0001
1000
0001
1000
0001
0000
1000
0000
0100
0010
0000
1000
0010
0000
0100
0000
,
0001
0000
0100
0010
1000
0000
0001
0000
0010
0100
0000
0000
0101
0000
1000
0100
,
0000
0000
1001
0000
0000
0001
0010
0000
1000
0000
0001
0000
0100
0010
0100
0010
,
0000
0000
0000
0000
0000
0000
1000
0100
0001
0000
0010
0000
0100
0000
1000
0000
0100
0000
0000
0000
0010
0000
0001
0000
0010
0000
0000
0000
1000
0000
0000
0000
,
0001
0000
0010
1000
0010
0000
0001
0000
1000
0000
0100
0001
0100
1000
0100
1000
,
0001
0000
1000
0100
0010
0000
0001
0000
2000
0000
3020
0000
0230
0000
0301
0000
,
0002
0000
0023
0000
0230
0000
1300
0000
0001
0000
0010
0000
0100
1000
0010
1000
,
0100
0000
1000
0001
0010
0000
0001
0000
0200
0000
1000
0000
0010
0000
0301
0000
,
2000
0000
0010
0000
0001
0000
3100
0000
0010
0000
0001
0000
0100
0010
1000
0100
,
0010
0000
0001
1000
0001
0000
0100
0000
0020
0000
0001
0000
0100
0000
1030
0000
,
0002
0000
0100
0000
1000
0000
0013
0000
0001
0000
1000
0000
0001
0100
0001
0100
,
0010
0000
0100
0001
1000
0000
0001
0000
0010
0000
0100
1000
0100
0000
0001
0000
,
1000
0000
0100
0001
0100
0000
1000
0000
0001
0000
0010
1000
0010
0001
0010
0001
,
1000
0000
0001
0010
0100
0000
1000
0000
0002
0000
0203
0000
0320
0000
1030
0000
,
2000
0000
3200
0000
0320
0000
0031
0000
1000
0000
0100
0000
0010
0001
0100
0001
,
0010
0000
0001
1000
0100
0000
1000
0000
0020
0000
0001
0000
0100
0000
1030
0000
,
0002
0000
0100
0000
1000
0000
0013
0000
0100
0000
1000
0000
0010
0100
0001
0010
,
0100
0000
1000
0001
1000
0000
0010
0000
0200
0000
1000
0000
0010
0000
0301
0000
,
2000
0000
0010
0000
0001
0000
3100
0000
1000
0000
0001
0000
1000
0010
1000
0010
,
0001
0010
1000
0001
0100
0000
0001
1000
0010
0000
1001
0000
0210
0000
0000
0000
,
0000
0000
0000
0000
0000
0000
0300
0000
0000
0000
0000
0000
0000
0002
2003
0000
,
0000
0000
0000
0000
,
0000
0000
0000
0000
0000
0000
0000
0002
,
0000
0000
3003
0000
;
