#TITLE:Dream of an Sky Emotion EOS -2021真夏のエンディングVer.-;
#ARTIST:NAMCO Sound Team "AJURIKA Underground feat. HoYo MIX All Stars";
#TITLETRANSLIT:Dream of an Sky Emotion EOS -2021 manatsu no Ending Ver.-;
#GENRE:miHoYo×SEGA 2021真夏の歌合戦5番勝負;
#MUSIC:Dream of an Sky Emotion EOS -2021 manatsu no Ending Ver-.ogg;
#BANNER:Dream of an Sky Emotion EOS -2021 manatsu no Ending Ver-.png;
#BACKGROUND:Dream of an Sky Emotion EOS -2021 manatsu no Ending Ver--bg.png;
#CDTITLE:./CDTitles/NSD A3.png;
#SAMPLESTART:89.129;
#SAMPLELENGTH:15.000;
#SELECTABLE:YES;
#OFFSET:0.000;
#BPMS:0.000=175.000;
#STOPS:;
#BGCHANGES:;
#FGCHANGES:;

//--------------- dance-single - ----------------
#NOTES:
     dance-single:
     :
     Beginner:
     3:
     0,0,0,0,0:
0000
0000
0000
0000
,
0000
0000
0000
0000
,
0000
0000
0000
0000
,
0000
0000
0000
0000
,
0000
0000
0000
0000
,
0000
0000
0000
0000
,
0000
0000
0000
0000
,
0000
0000
0000
0000
,
0001
0000
0000
0000
,
0100
0000
0000
0000
,
1000
0000
0001
0010
,
0100
0000
0000
0000
,
0010
0000
0000
1000
,
0001
0000
0000
0010
,
0100
0000
1000
0000
,
0001
0000
0000
0010
0000
0000
1000
0000
,
0000
0000
0000
0000
,
0010
1000
0000
0001
,
0000
0100
0000
0010
,
0000
0100
0000
1000
,
0000
0001
0000
0010
,
0000
0001
0000
0100
,
0000
0010
0000
0100
,
0000
1000
0000
0001
,
0100
0000
0000
0000
,
0010
0000
1000
0000
,
0001
0000
0100
0000
,
0010
0000
0000
0000
,
0001
0000
1000
0000
,
0001
0000
0010
0000
,
0100
0000
1000
0000
,
0001
0000
0010
0000
0100
0000
0000
1000
,
0000
0001
0000
1000
0000
0000
0000
0000
,
0010
0000
0100
0000
,
0010
0000
0000
0000
,
1000
0000
0001
0000
,
0010
0000
0000
0000
,
0100
0000
0010
0000
,
1000
0000
0000
0000
,
0001
0000
0010
0000
,
0100
0000
1000
0000
,
0001
0010
0100
0000
,
1000
0001
0100
0000
,
0010
0000
0100
0000
,
0001
0000
1000
0000
,
0001
0000
0100
0000
,
0010
0000
1000
0000
,
0001
0000
0100
0000
,
0010
1000
0001
0000
,
0100
0000
0000
0000
,
0010
0000
0000
0000
,
1000
0000
0000
0000
,
0001
0000
0000
0000
,
0100
0000
0000
0000
,
0010
0000
0000
0000
,
1000
0000
0000
0000
,
0001
0000
0000
0000
,
0010
0000
0100
0000
,
1000
0000
0001
0000
,
0010
0000
0100
0000
,
0010
0000
1000
0000
,
0001
0000
0010
0000
,
0100
0000
1000
0000
,
0001
1000
0010
0100
,
0020
0000
0000
0030
,
1001
0100
1000
0000
,
0001
1000
0100
0000
,
0010
0100
0001
0000
,
0010
0100
1000
0000
,
0001
0100
0010
0000
,
1000
0001
0010
0000
,
0100
0010
1000
0000
,
0001
0010
0100
0001
,
1000
0000
0001
0000
,
0100
0000
0010
0100
,
1000
0000
0002
0000
,
0000
0000
0000
0003
,
1000
0000
0100
0000
,
0010
0000
0100
0010
,
0100
0000
2000
0000
,
0000
0000
0000
3000
,
0001
0000
0010
0000
,
0100
1000
0100
0001
,
0010
0100
0002
0000
,
0000
0000
0000
0003
,
0100
0000
0010
0000
,
0100
1000
0001
0000
,
0100
0010
2000
0000
,
0000
0000
0000
3000
,
0010
0100
1000
0000
,
0001
0010
0001
0000
,
0100
0000
0020
0000
,
0000
0000
0000
0030
,
1000
0001
0100
0000
,
0010
0100
0001
0000
,
1000
0100
0010
0001
,
1000
0000
0000
0000
,
1001
0000
0000
0000
;

//--------------- dance-single - ----------------
#NOTES:
     dance-single:
     :
     Easy:
     8:
     0,0,0,0,0:
0000
0000
0000
0000
,
0000
0000
0000
0000
,
0000
0000
0000
0000
,
0000
0000
0000
0000
,
0000
0000
0000
0000
,
0000
0000
0000
0000
,
0000
0000
0000
0000
,
0000
0000
0000
0000
,
0010
0100
0010
1000
,
0002
0000
0000
0000
,
0000
0000
0023
0000
,
0230
0000
0000
0000
,
2300
0000
0000
3200
,
0301
0010
0100
1000
,
0001
0100
0010
0100
,
1000
0000
0000
0001
0000
0000
0100
0000
,
0000
0010
0000
0000
0010
0000
1000
0000
,
0002
1003
0010
0100
,
0001
0010
0100
1000
,
0001
0000
0001
0000
,
0001
0000
1000
0000
,
1000
0001
0100
0010
,
0100
0001
0010
1000
,
0001
0000
0100
0000
,
0010
0000
0000
0000
,
1001
0010
0100
1000
,
0001
0010
0100
0010
,
1000
0010
0001
0100
,
0010
0100
1000
0001
,
0010
0100
0010
1000
,
0001
0010
0100
0001
,
1000
0100
0001
0000
0010
0100
1000
0000
,
0001
0010
0100
1000
,
1001
0100
0010
0100
,
0001
0010
0100
0010
,
1000
0001
0100
0010
,
0001
1000
0010
0100
,
0001
1000
0010
0100
,
0010
1000
0001
0010
,
0100
1000
0001
0010
,
1000
0100
0001
0000
0010
0001
0100
0001
,
1000
0001
0100
0010
,
0100
0010
1000
0001
,
0100
0010
0100
1000
,
0001
0000
0100
0000
0010
0100
1000
0100
,
0010
1000
0001
0100
,
0010
0100
1000
0001
,
0100
0010
0100
1000
,
0001
0010
0100
0000
1000
0001
0010
0000
,
0100
1000
0001
0010
,
0100
1000
0001
0010
,
0100
0000
1000
0000
,
0001
0000
0100
0000
,
0010
1000
0001
0010
,
0100
0010
0001
0100
,
1000
0001
0010
0100
,
0010
1000
0001
0010
,
1000
0001
0010
0100
,
0001
1000
0001
0010
,
0100
0001
0010
0100
,
1000
0000
0001
0000
0010
0100
0001
0000
,
1000
0001
0010
0000
0100
0000
1000
0000
,
0001
0100
1000
0000
0001
0000
0100
0000
,
1000
0001
0100
0000
0010
0100
1000
0000
,
0202
0000
0303
0000
,
1001
0010
0100
1000
,
0001
0100
0010
0100
,
1000
0001
0100
0010
,
0100
1000
0001
0100
,
0010
0100
0010
0001
,
1000
0001
0100
0010
,
1000
0001
0100
0010
,
0100
1000
0001
0020
,
0130
1000
0001
0100
,
0010
0100
1000
0001
,
0100
0010
0100
1000
,
0001
0100
0010
0100
,
1000
0001
0010
0100
,
0001
1000
0001
0100
,
0010
1000
0001
0100
,
2000
0000
0000
3001
,
1001
0010
0100
1000
,
0001
0100
0010
0100
,
1000
0001
0100
0010
,
0100
1000
0001
0100
,
0010
0100
1000
0001
,
0100
0010
0100
0010
,
0001
0100
1000
0001
,
0100
0010
0100
1000
,
0001
0100
0010
0100
,
1000
0001
0100
0010
,
0100
1000
0001
0100
,
0010
0100
0001
0010
,
1000
0001
0010
0000
0100
0000
1000
0000
,
0001
0010
0100
0000
1000
0001
0010
0000
,
0100
1000
0001
0000
0010
0100
1000
0000
,
1000
0100
0010
0001
,
1001
0000
0000
0000
;

//--------------- dance-single - ----------------
#NOTES:
     dance-single:
     :
     Medium:
     12:
     0,0,0,0,0:
0000
0000
0000
0000
,
0000
0000
0000
0000
,
0000
0000
0000
0000
,
0000
0000
0000
0000
,
0000
0000
0000
0000
,
0000
0000
0000
0000
,
0000
0000
0000
0000
,
0000
0000
0000
0000
,
1000
0000
0000
0000
,
0002
0000
0000
0000
,
0000
0000
2003
0000
,
3002
0000
0000
0000
,
0023
0000
0000
0230
,
0301
0000
0010
0000
0100
0000
1000
0001
,
0100
0000
0010
0000
0100
1000
0001
0010
,
0100
0000
0000
0110
0000
0000
1001
0000
,
0100
0000
1000
0000
0001
0100
1000
0001
,
0010
0100
1000
0000
0001
0000
0010
0000
,
0100
1000
0001
0010
,
0100
1000
0010
0000
0001
0000
0010
0000
,
0100
0001
1000
0000
0100
0000
1000
0000
,
0010
1000
0100
0000
0001
0000
0010
0000
,
0100
0000
1000
0000
0010
1000
0100
0000
,
0010
0001
0100
0000
0001
1000
0100
0000
,
0001
0010
0001
0010
,
0120
0130
0100
1000
,
0100
0000
0010
0000
0001
0000
0010
1000
,
0001
0000
1000
0001
0010
0000
0100
0000
,
0010
0000
1000
0000
0001
0000
1000
0100
,
0001
1000
0100
0010
,
0001
1000
0100
0010
,
0100
0001
1000
0000
0010
0100
1000
0000
,
0001
0000
0100
0000
0010
0000
0100
0010
,
1001
0000
1000
0000
0100
0010
1000
0000
,
0001
0000
0100
0000
0010
0100
1000
0100
,
0010
0000
1000
0000
0010
0001
0100
0000
,
0001
0000
0010
0000
0001
0100
1000
0001
,
0010
0000
0100
0000
0001
1000
0010
0000
,
0100
0000
1000
0001
0100
0000
0010
0001
,
0100
0001
1000
0000
0010
0100
1000
0000
,
2000
3200
0320
0032
,
1003
0000
0001
0000
0100
1000
0100
0001
,
0010
0100
1000
0001
0000
0010
0000
0100
,
0000
1000
0001
0010
0100
1000
0000
1000
,
0000
0001
0010
0100
0000
0001
0010
0100
,
0000
1000
0001
0000
0010
0100
0000
1000
,
0000
0001
0010
0100
0000
0001
0000
1000
,
0000
0001
0100
0000
0010
1000
0000
0001
,
0010
0100
1000
0001
0010
0100
0010
1000
,
0001
1000
0100
0010
,
1000
0100
0010
0001
,
0010
1000
0100
0000
1000
0001
0010
0000
,
0100
1000
0010
0000
0100
0010
0001
0000
,
1000
0001
1000
0100
,
0010
0000
0100
0000
0010
0000
0100
0001
,
1000
0000
0001
0100
1000
0000
0010
0001
,
1000
0000
0100
1000
0010
0000
0100
0001
,
1000
0001
0100
0010
,
1000
0001
0010
0001
,
0100
0001
1000
0010
,
1000
0001
0100
0001
,
0010
1000
0001
0000
0100
0000
0010
0000
,
0100
0001
0010
0000
0100
0000
0001
0000
,
0001
1000
0100
1000
0100
1000
0001
0100
,
0001
1000
0010
0100
0010
1000
0001
0100
,
1001
0000
0010
0000
0100
0000
0010
0001
,
1000
0000
0100
0000
0010
0001
0100
0000
,
1000
0100
0010
0000
0100
0010
0001
0000
,
1000
0000
0001
0000
1000
0010
0100
0001
,
0010
0000
0100
0000
1000
0001
0100
0010
,
1000
0000
0001
0000
1000
0100
0010
1000
,
0100
0000
0001
0000
1000
0001
0100
0000
,
1000
0100
0001
1000
0010
0001
0100
1000
,
1001
0000
0010
0000
1000
0100
0010
0000
,
0100
0000
0010
0001
0100
0000
0001
0000
,
0010
0100
0001
0000
1000
0001
0100
0000
,
1000
0010
0001
0000
1000
0000
0100
0000
,
1010
0000
0100
0000
1000
0010
0001
0000
,
1000
0000
0010
0100
1000
0000
0010
0000
,
0100
1000
0001
0010
0100
0000
0001
0000
,
0102
0010
1000
0100
,
1003
0000
0001
0000
1000
0000
0010
1000
,
0100
0000
0010
0000
1000
0100
0001
0000
,
0100
0000
0010
0100
1000
0000
0001
0000
,
0010
0100
0001
0000
1000
0001
0100
0000
,
0010
0000
0100
1000
0010
0000
0001
0000
,
1000
0100
0001
0000
1000
0001
0100
0000
,
1000
0000
0001
0000
0100
0001
0010
0000
,
0100
0000
0001
0000
1000
0100
0010
0001
,
0100
0000
0010
0000
1000
0000
0100
0001
,
1000
0000
0100
0000
0010
0100
0001
0000
,
1000
0000
0010
0000
0100
1000
0001
0000
,
1000
0000
0010
0000
0100
0010
0001
0000
,
0010
0100
0010
0001
,
0100
0010
0100
0010
,
1000
0001
0100
0010
0100
1000
0001
0010
,
0100
1000
0001
0010
0100
1000
0001
0010
,
1001
0000
0000
0000
;

//--------------- dance-single - ----------------
#NOTES:
     dance-single:
     :
     Hard:
     17:
     0,0,0,0,0:
0000
0000
0000
0000
,
0000
0000
0000
0000
,
0000
0000
0000
0000
,
0000
0000
0000
0000
,
0000
0000
0000
0000
,
0000
0000
0000
0000
,
0000
0000
0000
0000
,
0000
0000
0000
0000
,
1000
0002
0103
0010
1000
0001
0200
0000
,
0320
0000
0000
0000
,
0000
0000
0032
2003
,
3200
0000
0000
0010
0000
0000
0000
0000
,
0320
0000
0000
0230
,
0301
0000
0000
0000
0010
0000
0000
0000
0100
0000
0000
0000
1000
0001
0010
0100
,
1000
0000
0001
0000
1000
0000
0000
0000
0001
0000
1000
0000
0001
0010
0100
1000
,
0001
0000
0000
1001
0000
0000
1010
0000
,
0100
0000
1000
0000
0100
0000
1000
0000
0010
0000
1000
0000
0001
0010
1000
0100
,
0010
1000
0100
0010
0001
0010
0100
0010
,
0001
1000
0010
1000
0010
0100
0010
1000
,
0001
0100
0001
0010
,
1000
0000
0001
0000
0100
1000
0010
0000
,
0100
1000
0010
1000
0010
1000
0100
0010
,
0001
1000
0010
1000
0100
1000
0100
0010
,
0001
0010
0001
0010
0100
1000
0001
0010
0100
1000
0001
0100
0010
1000
0001
0100
,
0001
0000
1000
0000
0001
0000
0020
0000
0130
0000
0000
0001
1000
0000
0000
0000
,
0200
0000
0301
1000
0010
1000
0001
1000
,
0001
0100
0010
0100
0010
0100
0001
0010
,
0100
1000
0001
0010
0100
1000
0010
0100
,
0000
1001
0000
0110
0000
0100
0010
1000
,
0010
0100
0001
0100
0010
1000
0100
0010
,
0001
0100
0001
1000
0001
0010
0100
0010
,
0001
1000
0100
0000
0001
0000
0010
0000
0100
0001
1000
0000
0100
0000
0110
0000
,
0000
0000
1001
0000
0000
0000
1001
0000
0000
0000
0100
0000
0010
1000
0100
0010
,
0001
0100
0001
1000
0010
1000
0100
0010
,
0100
0000
0010
0000
0001
0000
1000
0000
0001
0000
1000
0000
0100
0000
0010
1000
,
0001
1000
0100
1000
0100
0010
0001
1000
,
0100
0000
0010
1000
0001
0000
0010
1000
0100
0000
0010
0100
0001
0000
0100
0000
,
0001
0000
0100
0000
0010
0000
1000
0000
0100
0000
0010
1000
0001
0000
0100
0000
,
0001
0000
0100
0000
0010
0000
1000
0001
0100
0000
1000
0000
0001
0000
1000
0000
,
0100
1000
0001
0010
0100
0001
0010
0001
,
2000
0001
0001
0001
,
3100
0010
0001
1000
0100
1000
0100
1000
,
0001
0010
0100
1000
0010
1000
0100
0010
,
0001
1000
0010
1000
0001
0100
0010
1000
,
0010
0100
0001
1000
0010
0100
0001
0100
,
0010
1000
0010
0100
0010
0100
0001
0010
,
0100
1000
0001
0010
0001
1000
0100
0010
,
0010
0100
0001
0000
1000
0000
0010
0000
0100
0010
0001
0000
1000
0000
0001
1000
,
0010
1000
0010
0100
0001
0100
0001
0100
,
0010
1000
0100
0010
0001
1000
0100
0001
,
0010
0000
0100
0000
1000
0000
0010
0000
0001
0000
0010
0000
0100
0000
1000
0100
,
0010
0000
0100
0000
1000
0000
0100
0010
0000
0001
1000
0000
0100
0000
0001
0000
,
0010
0000
0100
1000
0000
0100
0000
0000
0100
0000
1000
0000
0010
0000
0001
0010
,
0100
0000
0001
0100
0000
0010
0000
0000
0001
0000
0010
0000
1000
0000
0100
0000
,
0001
0000
0010
0100
0000
1000
0000
0010
0001
0000
0100
0000
1000
0000
0001
0000
,
0100
0000
0001
0100
0000
1000
0010
0000
0001
0000
1000
0000
0010
0000
0001
0010
,
0100
1000
0010
0100
0001
0010
0100
1000
,
0010
0000
0100
1000
0000
0001
0100
0000
0010
0000
1000
0000
0100
0000
0010
0000
,
0001
0000
0010
1000
0000
0001
0100
0000
0010
0000
0100
0000
1000
0010
0100
0000
,
0001
0000
0010
1000
0000
0100
0001
0000
0010
0000
1000
0000
0100
0000
0001
0000
,
0010
0000
1000
0000
0100
0000
0010
1000
0000
0001
0100
0000
1000
0000
0001
0000
,
0100
0010
0100
1000
0010
0100
0001
1000
,
0100
0010
0001
1000
0100
0010
0100
1000
,
0100
0010
0100
0010
0100
1000
0010
1000
0100
1000
0001
0010
0100
1000
0001
0010
,
1000
0100
0001
0010
0100
0001
0100
1000
0010
0100
1000
0010
0100
0001
0100
0000
,
1001
0010
0100
1000
0100
0010
0100
0010
,
0001
0100
0010
0100
0010
0100
0001
1000
,
0010
1000
0001
0010
0100
1000
0001
0100
,
0010
0100
0001
0010
0100
1000
0001
0100
,
0010
1000
0010
0100
0001
0100
0001
0010
,
0100
0010
0100
1000
0100
0010
0001
1000
,
0001
0010
0100
1000
0100
0010
0100
1000
,
0100
0000
0010
0000
0100
0000
0010
0000
0100
0010
0001
0010
0001
0010
0001
0010
,
0001
0010
0001
0100
0010
1000
0010
0100
,
0001
0010
0001
1000
0100
0010
0100
1000
,
0100
0010
0001
1000
0100
0010
0001
1000
,
0010
1000
0001
0100
1000
0001
0010
1000
,
0100
0010
0100
0010
0001
0100
0001
0010
,
0001
0100
0010
1000
0010
0100
0001
1000
,
0100
0010
0001
0001
0100
0001
0100
1000
,
0001
0001
0001
0001
0001
0001
1000
0001
,
0010
0100
0001
1000
0100
0010
0001
0100
,
0010
1000
0001
0010
0100
1000
0010
0100
,
0001
0010
0100
1000
0010
0100
0010
1000
,
0100
0010
0001
1000
0010
0100
0010
1000
,
0100
0010
0001
1000
0100
0010
0001
1000
,
0100
0010
0100
1000
0010
1000
0001
1000
,
0100
0010
0001
1000
0100
0010
0001
1000
,
0010
0100
0001
0100
0001
1000
0010
1000
,
0010
0100
0001
1000
0100
0010
0100
1000
,
0001
0100
0001
1000
0100
1000
0010
0100
,
0010
1000
0001
0010
0001
0100
0010
1000
,
0001
0100
0001
0010
0001
1000
0100
0010
,
1001
0001
0100
0010
0100
1000
0001
0100
,
0010
1000
0001
0100
0010
0100
1000
0001
,
0010
0001
0010
0001
0010
0001
0010
0001
0010
0100
0010
0100
0010
0100
0010
0100
,
1000
0100
1000
0100
1000
0100
1000
0100
1000
0100
1000
0100
1000
0100
1000
0100
,
2002
0000
0000
0000
,
0000
0000
0000
0000
,
0000
0000
0000
0000
,
3003
0000
0000
0000
;
